#TITLE:Fascinaton Maxx (Cally & Juice's Maxximum Overload Mix);
#SUBTITLE:[Keyboard] pointyEyewear;
#ARTIST:75-150-300-600 ;
#TITLETRANSLIT:;
#SUBTITLETRANSLIT:;
#ARTISTTRANSLIT:;
#GENRE:;
#CREDIT:;
#MUSIC:faxxc&joverload.ogg;
#BANNER:faxxc&joverload-bn.png;
#BACKGROUND:faxxc&joverload-bg.png;
#CDTITLE:pointyeyeweardisc-cdtitle;
#SAMPLESTART:14.618;
#SAMPLELENGTH:19.200;
#SELECTABLE:YES;
#OFFSET:-0.218;
#BPMS:0.000=150.000
,8.000=600.000
,24.000=150.000
,28.000=300.000
,36.000=150.000
,40.000=600.000
,56.000=150.000
,92.000=600.000
,108.000=150.000
,136.000=75.000
,138.000=150.000
,202.000=75.000
,222.000=150.000
,246.000=300.000
,262.000=150.000
,286.000=300.000
,302.000=150.000
,358.000=300.000
,366.000=600.000
,382.000=75.000
,384.000=150.000
,386.000=300.000
,388.000=600.000
,390.000=1200.000
,394.000=2400.000
,443.000=9.375
;
#STOPS:;
#BGCHANGES:;
#FGCHANGES:;

//--------------- dance-single - pointyEyewear ----------------
#NOTES:
     dance-single:
     pointyEyewear:
     Challenge:
     12:
     0,0,0,0,0:
0000
0000
0000
0000
,
1000
0000
0000
0000
1000
0000
0001
1000
0000
1000
0000
0000
0001
0000
1000
1000
,
0100
0010
0100
1000
,
0010
0100
0010
1000
,
0001
0010
0100
1000
,
0001
0100
0010
0100
,
0001
0000
0001
0000
1000
0000
0001
1000
0000
1000
0000
0000
0001
0000
1000
1000
,
0011
1010
0110
0101
,
1100
0000
0011
0011
0000
0011
1100
0000
,
0001
0000
0000
0000
0001
0000
1000
0001
0000
0001
0000
0000
1000
0000
0001
0001
,
0100
0010
0001
0010
,
0100
1000
0100
0001
,
0100
1000
0010
0001
,
0010
1000
0001
0100
,
0010
0000
0100
0000
0010
0000
0100
0010
0100
0010
0000
0000
0100
0000
0010
0100
,
0010
0100
0000
0000
0001
0000
1000
0001
0000
1000
0010
0100
0001
0000
0000
0001
,
0100
0001
0000
0000
1000
0000
0100
1000
0100
1000
0000
0000
0010
0000
0100
0010
,
0100
0010
0000
0000
0100
0000
0010
0100
0000
0100
0010
0100
0010
0000
0000
0001
,
0010
0001
0000
0000
0010
0000
0100
0010
0100
0010
0000
0000
0100
0000
0100
0010
,
0100
0010
0000
0000
1000
0000
1000
0100
0011
0000
1100
1100
0000
1100
0011
0000
,
0000
0100
0000
0000
0001
0000
0010
0001
0010
0001
0000
0000
0010
0000
0010
0100
,
0010
0100
0000
0000
0100
0000
0100
1000
0000
1000
0100
1000
0100
0000
0000
0100
,
0010
0100
0000
0000
0010
0000
0010
0001
0010
0001
0000
0000
0001
0000
0001
0010
,
1000
0001
0100
0010
,
0100
0001
0010
0001
,
1000
0100
1000
1000
,
0110
0000
0011
0000
,
1000
0000
0000
0000
0001
0000
0010
0001
0010
0001
0000
0000
0100
0000
0010
0100
,
0010
0100
0000
0000
0010
0000
0100
0010
0000
0010
0100
0010
0100
0000
0000
1000
,
0100
1000
0000
0000
0100
0000
0010
0100
0010
0100
0000
0000
0010
0000
0010
0100
,
0010
0100
0000
0000
0001
0000
0001
0010
1100
0000
0011
0011
0000
0011
1100
0000
,
0000
0010
0000
0000
1000
0000
0100
1000
0100
1000
0000
0000
0100
0000
0100
0010
,
0100
0010
0000
0000
0010
0000
0010
0001
0000
0001
0010
0001
0010
0000
0000
0010
,
0100
0010
0000
0000
0100
0000
0100
1000
0100
1000
0000
0000
1000
0000
1000
0100
,
0010
0000
1000
0000
0100
1000
0000
0001
0000
0000
0000
0000
0001
0000
0100
0001
,
0100
0001
0000
0000
0010
0000
0100
0010
0100
0010
0000
0000
0100
0000
0010
0100
,
0000
0100
0010
0100
0010
0000
0000
1000
0010
1000
0000
0000
0010
0000
0100
0010
,
0100
0010
0000
0000
0100
0000
0100
0010
0100
0010
0000
0000
0001
0000
0001
0100
,
0000
1010
0000
0101
0101
0000
0101
1010
0000
0100
0000
0000
1000
0000
0010
1000
,
0010
1000
0000
0000
0010
0000
0010
0100
0010
0100
0000
0000
0100
0000
0100
0001
,
0000
0001
0100
0001
0100
0000
0000
0100
0010
0100
0000
0000
0010
0000
0010
1000
,
0010
1000
0000
0000
1000
0000
1000
0010
0001
0010
0100
1000
0001
0100
0010
0100
,
0001
0010
0001
1000
0110
0000
0011
0010
0100
0010
0000
0000
0001
0000
0100
0001
,
0100
0001
0000
0000
0010
0000
0100
0010
0100
0010
0000
0000
0100
0000
0010
0100
,
0000
0100
0010
0100
0010
0000
0000
1000
0010
1000
0000
0000
0010
0000
0100
0010
,
0100
0010
0000
0000
0100
0000
0100
0010
0100
0010
0000
0000
0001
0000
0010
0100
,
0000
0100
0010
0100
0010
0000
0000
0010
0001
0010
0000
0000
1000
0000
0010
1000
,
0010
1000
0000
0000
0010
0000
0010
0100
0010
0100
0000
0000
0100
0000
0100
0001
,
0100
0001
0000
0000
0010
0000
0010
1000
0010
1000
0000
0000
0010
0000
0010
1000
,
0010
1000
0000
0000
1000
0000
1000
0010
2002
0000
0000
0000
0000
0000
0000
0000
,
0000
0000
0000
0000
0000
0000
0000
3003
1000
0010
0010
1000
0100
0100
0010
0001
,
0001
1000
0100
0100
0010
0001
1000
1000
0000
0000
1000
0001
0100
0001
1000
0010
,
0000
0100
0001
1000
0100
1000
0001
0100
0000
0000
0001
1000
0010
1000
0001
0100
,
0000
0010
1000
0001
0010
0001
1000
0010
0000
0000
1000
0001
0100
0001
1000
0010
,
0000
0100
0001
1000
0100
1000
0001
0100
0000
0000
0001
1000
0010
1000
0001
0100
,
0000
0000
0010
0000
1000
0000
1000
0000
0000
1000
0000
0000
0001
0000
0000
0000
1001
0000
0000
0000
0000
0000
0000
0000
0010
0000
0000
0000
0001
0000
0010
0000
,
0000
0001
0100
0000
0001
1000
0000
0000
1001
0000
0000
0000
0100
0000
1000
0100
,
0000
1000
0010
0000
1000
0001
0000
0000
1001
0000
0000
0000
0010
0000
1000
0010
,
0000
1000
0100
0000
1000
0001
0000
0000
1001
0000
0000
0000
0100
0000
0001
0100
,
0010
0001
0010
0100
0001
0000
0000
0000
1001
0000
0000
0000
0100
0000
1000
0100
,
0000
1000
0010
0000
1000
0001
0000
0000
1001
0000
0000
0000
0010
0000
0001
0010
,
0000
0001
0100
0000
0001
1000
0000
0000
0001
0000
0000
0000
1000
0000
0010
0000
,
1000
0000
0100
0000
0010
0001
0010
0000
,
0100
0000
1000
0001
1000
0000
0100
0000
,
0010
0100
0010
0100
0001
0100
0001
0100
,
0010
0000
0000
0000
0000
0000
0000
0000
1001
0000
0000
0000
0100
0000
0001
0100
,
0000
0001
0010
0000
0001
1000
0000
0000
1001
0000
0000
0000
0010
0000
1000
0010
,
0000
1000
0100
0000
1000
0001
0000
0000
1001
0000
0000
0000
0100
0000
1000
0100
,
0000
1000
0010
0000
1000
0001
0000
0000
1001
0000
0000
0000
0010
0000
0001
0010
,
0100
0001
0100
0010
0001
0000
0000
0000
1001
0000
0000
0000
0010
0000
1000
0010
,
0000
1000
0100
0000
1000
0001
0000
0000
1001
0000
0000
0000
0100
0000
0001
0100
,
0000
0001
0010
0000
0001
1000
0000
0000
1000
0000
0000
0000
0001
0000
0010
0000
,
0001
0000
0100
0000
0010
1000
0010
0000
,
0100
0000
0001
1000
0001
0000
0100
0000
,
0010
0100
0010
0100
1000
0100
1000
0100
,
0010
0000
0000
0000
0000
0000
1000
0001
,
0100
0001
1000
0010
0000
0100
0001
1000
,
0100
1000
0001
0100
0110
0000
1000
0001
,
0100
0000
0001
0000
1000
0000
0010
0000
0000
0000
0100
0000
0001
0010
1000
0000
,
0100
0010
1000
0000
0001
0010
0100
0000
0110
0000
0000
0000
0001
0000
1000
0000
,
0010
1000
0001
0100
0000
0010
1000
0001
,
0010
0001
1000
0010
0110
0000
0001
1000
,
0010
0000
1000
0000
0001
0000
0100
0000
0000
0000
0000
0000
0100
0000
0001
0100
,
0000
0001
0010
0000
0001
1000
0000
0000
0110
0000
0000
0000
0001
0000
1000
0000
,
0100
0000
1000
0000
0011
0000
0010
0000
0000
0000
0100
0000
1000
0010
0001
0000
,
0110
0001
1010
0100
0110
0000
0001
1000
,
0100
0000
1000
0000
0001
0000
0010
0000
0000
0000
0000
0000
0010
0000
0001
0010
,
0000
0000
0100
0000
0001
1000
0000
0000
0110
0000
0000
0000
0001
0000
1000
0000
,
0010
1000
0001
0100
0000
0010
1000
0001
,
0010
0001
1000
0010
0110
0000
0000
0000
,
0001
1000
0010
1000
,
0001
0100
0000
0000
,
0000
0000
0010
0000
,
0001
0000
0010
0000
,
0001
0000
0100
0000
,
0001
0000
1000
0000
;

//--------------- dance-single - POINTY'S WRATH ----------------
#NOTES:
     dance-single:
     POINTY'S WRATH:
     Edit:
     100000:
     0,0,0,0,0:
0000
0000
0000
0000
,
0001
0000
0000
0000
0001
0000
0100
0010
0000
1000
0000
0000
1000
0000
0010
0100
,
1001
0010
1000
0001
,
1010
0010
1000
0001
,
0110
1000
0001
0100
,
1010
0001
1000
0010
,
1001
0000
0110
0000
1001
0000
0110
1001
0000
1001
0000
0000
0110
0000
1001
0000
,
1M1M
1M1M
M11M
M1M1
,
1MM1
0000
1MMM
MM1M
MMMM
MM1M
1MMM
0000
,
2002
0000
0000
3003
0101
0000
1010
2002
3003
2002
0000
3003
0101
0000
1000
0001
,
1000
0010
0100
0001
,
1000
0001
0100
0010
,
1000
1000
0100
0010
,
0001
0010
0100
1000
,
0001
0000
0110
0000
1000
0000
0010
1001
0000
1010
0000
0000
0010
0000
0100
0011
,
0000
0101
0000
0000
0001
0000
0100
1000
0000
0100
0010
1000
0001
0000
0100
1000
,
0110
0000
0001
0000
1100
0000
0100
0000
0011
0000
1001
0000
0110
0000
1000
0100
,
1100
0000
0001
0000
0101
0000
0100
0000
1010
0000
0010
0100
0110
0000
0010
0100
,
0110
0001
1100
1000
0110
0001
0011
0101
,
1010
0000
1001
0000
0110
0000
1000
0000
1001
0001
0100
0010
1000
0100
0001
0010
,
0000
0000
0011
0100
1000
0000
0001
0000
1000
0000
0011
0100
1000
0000
0001
0000
,
1000
0000
0011
0100
1000
0100
0001
0000
1100
0000
0001
0010
1100
0000
0010
0000
,
1100
0000
0001
0010
1100
0000
0010
0000
1100
0000
0001
0010
1100
0000
0010
0000
,
1000
0100
0010
1000
,
0010
0100
1000
0010
,
0001
0000
0000
0000
1000
0010
1000
0010
,
1000
0010
0000
0000
0001
0100
0000
0000
,
0110
0000
1000
0000
0101
0000
0100
0000
1010
0000
1001
0000
0110
0000
0001
0100
,
0101
0000
1000
0000
1100
0000
0100
0000
0011
0000
0010
0100
0110
0000
0010
0100
,
0110
1000
0101
0001
0110
1000
1010
1100
,
0011
0000
1001
0000
0110
0000
0001
0000
1001
1000
0100
0010
0001
0100
1000
0010
,
0000
0000
1010
0100
0001
0000
1000
0000
0001
0000
1010
0100
0001
0000
1000
0000
,
0001
0000
1010
0100
0001
0100
1000
0000
0101
0000
1000
0010
0101
0000
0010
0000
,
0101
0000
1000
0010
0101
0000
0010
0000
0101
0000
1000
0010
0101
0000
0010
0000
,
1000
0100
0010
0001
0010
0100
1000
0010
0100
0001
0010
0100
1000
0100
0010
0001
0110
0000
0000
0000
1000
0000
0000
0000
0101
0000
0000
0000
0100
0000
0000
0000
,
1010
0000
1001
0000
0110
0000
0001
0100
0101
0000
1000
0000
1100
0000
0100
0000
,
0011
0000
0010
0100
0110
0000
0010
0100
0110
0000
1000
0000
0101
0000
0001
0000
,
0110
1000
1010
1100
0011
1001
0110
0001
,
1001
1000
0100
0010
0001
0100
1000
0010
0000
0000
1010
0100
0001
0000
1000
0000
,
0001
0000
1010
0100
0001
0000
1000
0000
0001
0000
1010
0100
0001
0100
1000
0000
,
0101
0000
1000
0010
0101
0000
0010
0000
0101
0000
1000
0010
0101
0000
0010
0000
,
0101
0000
0000
0000
1000
0000
0010
0000
0101
0000
0000
0000
0010
0000
0000
0000
1000
0100
0010
0001
0000
0000
0000
0000
0001
0010
0100
1000
0000
0000
0000
0000
,
1000
0010
0000
0000
0001
0100
0000
0000
1000
0010
0000
0000
0001
0100
0000
0000
0110
0000
0000
0000
0001
0000
0000
0000
1010
0000
0000
0000
0010
0000
0000
0000
,
0101
0000
1001
0000
0110
0000
1000
0010
1010
0000
0001
0000
0011
0000
0010
0000
,
1100
0000
0100
0010
0110
0000
0100
0010
0110
0000
0001
0000
1010
0000
1000
0000
,
0110
0001
0101
0011
1100
1001
0110
1000
,
1001
0001
0010
0100
1000
0010
0001
0100
0000
0000
0101
0010
1000
0000
0001
0000
,
1000
0000
0101
0010
1000
0000
0001
0000
1000
0000
0101
0010
1000
0010
0001
0000
,
1010
0000
0001
0100
1010
0000
0100
0000
1000
0000
0001
0000
1000
0000
0001
0000
,
1000
0000
0001
0000
1000
0000
0001
0000
1000
0001
1000
0001
1000
0001
1000
0001
,
1000
0000
0001
0000
1000
0001
1000
0001
1000
0001
1000
0001
1000
0001
1000
0001
0000
0000
0000
0000
0000
0000
0000
0000
0000
0000
0000
0000
0000
0000
0000
0000
,
0000
0000
0000
0000
0000
0000
0000
0000
0000
0000
0000
0000
0000
0000
0000
0000
1000
0000
0010
0000
1000
0000
0010
1000
0010
1000
0010
0000
1000
0000
0001
0000
,
0100
0000
0001
0000
0100
0000
0001
0100
0001
0100
0001
0000
1000
0000
0100
0000
0010
0000
0001
0000
0010
0000
0001
0000
0110
0000
0001
0000
0010
0000
0100
0000
,
1000
0000
0100
0000
1000
0000
0100
0000
1010
0000
0100
0000
1000
0000
0100
0000
0001
0100
0000
1000
0010
1000
0000
0001
0100
0000
1001
0000
1001
0000
0000
0000
,
1000
0100
1000
0010
1000
0000
0000
0000
0001
0010
0001
0100
0001
0000
0000
0000
1000
0100
1000
0010
1000
0001
1000
0000
0001
0010
0001
0100
0001
1000
0001
0000
,
0000
0000
0000
0000
1000
0100
0001
0000
0000
1001
0000
0000
0001
0010
1000
0000
1001
0000
0000
0000
0100
0000
0000
0000
1010
0000
0000
0000
0010
0000
0000
0000
,
1001
0100
0011
0001
1010
0010
0101
1000
,
0011
0001
1100
0110
0011
0010
1100
0100
,
1001
0010
0101
0001
1100
0100
0011
1000
,
0101
0001
1010
0110
0101
0010
1100
0100
,
1001
0010
0101
0001
1100
0100
0011
1000
,
0101
0001
1010
0110
1000
0100
1000
0010
,
1000
0001
1000
0010
1000
0100
1000
0000
,
0000
0000
0001
0010
0001
0000
0000
0000
,
1000
0100
0010
0001
1000
0100
0010
0001
0000
0000
0000
0000
0001
0010
0100
1000
,
0001
0010
0100
1000
0000
0000
0000
0000
1001
0000
0100
0000
1010
0000
0100
0000
,
1001
0010
0101
0010
1001
0010
0110
0100
,
1010
0100
0011
0100
1100
0010
0101
1000
,
0110
0010
1001
0100
0011
1000
0110
0001
,
1100
0001
0101
0100
1010
1000
0101
0001
,
0110
0101
1001
1010
1010
1001
0101
0011
,
0011
0101
1001
1001
2000
0000
0200
0000
,
0020
0030
0020
0000
0002
0030
0020
0000
,
0000
0003
0002
0030
0020
0000
0000
3333
,
1000
0100
0001
0010
1000
0010
0001
0100
,
1000
0100
0001
0010
1001
0010
1100
0010
,
1001
0100
0011
0100
1001
0100
0110
0010
,
1100
0010
0101
0010
1010
0100
0011
1000
,
0110
0100
1001
0010
0101
1000
0110
0001
,
1010
0001
0011
0010
1100
1000
0011
0001
,
0110
0011
1001
1100
1100
1001
0011
0101
,
0101
0011
1001
0100
0011
0100
1001
0010
,
1100
0010
1001
0010
0110
0100
0011
0100
,
0000
0100
0000
0000
0101
0000
0010
0000
1100
0000
0001
0000
0110
0000
0010
0000
,
1001
0100
1010
0001
0110
1000
0101
1000
,
1100
0100
0011
0001
1100
1000
0110
1100
,
1001
0011
0011
1001
1100
1010
1010
1100
,
0000
1001
1001
1010
1010
1100
1001
0011
,
0101
0011
1010
1100
0101
1001
0101
1100
,
1010
0011
1001
1010
0101
0000
0110
0000
,
1010
0101
0011
1001
,
1100
0110
0001
0010
,
0001
0100
0010
1000
,
0100
0001
0010
1000
,
0100
0001
0100
1000
,
0010
0001
2002
0000
,
0000
0000
0000
0000
,
0000
0000
0000
0000
,
0000
0000
0000
0000
,
0000
0000
0000
0000
,
0000
0000
0000
0000
,
0000
0000
0000
0000
,
0000
0000
0000
0000
,
0000
0000
0000
0000
,
0000
0000
0000
0000
,
0000
0000
0000
0000
,
0000
0000
0000
0000
,
0000
0000
0000
0000
,
0000
0000
0000
0000
,
0000
0000
0000
0000
,
0000
0000
0000
0000
0000
0000
0000
0000
0000
0000
0000
0000
0000
0000
0000
0000
0000
0000
0000
0000
0000
0000
0000
0000
0000
0000
0000
0000
0000
0000
0000
0000
0000
0000
0000
0000
0000
0000
0000
0000
0000
0000
0000
0000
0000
0000
0000
0000
0000
0000
0000
0000
0000
0000
0000
0000
0000
0000
0000
0000
0000
0000
0000
0000
0000
0000
0000
0000
0000
0000
0000
0000
0000
0000
0000
0000
0000
0000
0000
0000
0000
0000
0000
0000
0000
0000
0000
0000
0000
0000
0000
0000
0000
0000
0000
0000
0000
0000
0000
0000
0000
0000
0000
0000
0000
0000
0000
0000
0000
0000
0000
0000
0000
0000
0000
0000
0000
0000
0000
0000
0000
0000
0000
0000
0000
0000
0000
0000
0000
0000
0000
0000
0000
0000
0000
0000
0000
0000
0000
0000
0000
0000
0000
0000
3003
M00M
0000
0000
0000
0000
0000
0000
0000
0000
0000
0000
0000
0000
0000
0000
0000
0000
0000
0000
0000
0000
0000
0000
0000
0000
0000
0000
0000
0000
0000
0000
0000
0000
0000
0000
0000
0000
0000
0000
0000
0000
0000
0000
0000
0000
0000
0000
;
