#TITLE:The Choice Is Yours;
#SUBTITLE:(Revisited);
#ARTIST:Black Sheep;
#TITLETRANSLIT:;
#SUBTITLETRANSLIT:;
#ARTISTTRANSLIT:;
#GENRE:;
#CREDIT:;
#BANNER:The Choice Is Yours (Revisited)-bn.png;
#BACKGROUND:The Choice Is Yours (Revisited)-bg.png;
#LYRICSPATH:;
#CDTITLE:;
#MUSIC:The Choice Is Yours (Revisited).ogg;
#OFFSET:0.000000;
#SAMPLESTART:80.553001;
#SAMPLELENGTH:20.000000;
#SELECTABLE:YES;
#DISPLAYBPM:101.000000;
#BPMS:0.000000=101.300003
;
#STOPS:
;
#BGCHANGES:;
#KEYSOUNDS:;
#ATTACKS:;

//---------------dance-single - X scale 11----------------
#NOTES:
     dance-single:
     :
     Hard:
     11:
     0.456473,0.487500,0.546875,0.000000,0.144531,409.000000,339.000000,70.000000,0.000000,0.000000,0.000000,0.456473,0.487500,0.546875,0.000000,0.144531,409.000000,339.000000,70.000000,0.000000,0.000000,0.000000:
// measure 0
0000
0000
0000
0000
,  // measure 1
0000
0000
0000
0000
,  // measure 2
0000
0000
0000
0000
,  // measure 3
0000
0000
0000
0000
,  // measure 4
0010
0000
0000
1000
0001
0000
0000
0000
0010
0000
0000
0001
1000
0000
0000
0000
,  // measure 5
0100
0000
0000
1000
0001
0000
0000
0000
0100
0000
0000
0001
1000
0000
0000
0000
,  // measure 6
0010
0000
0000
1000
0100
0000
0000
0000
0010
0000
0000
0001
0100
0000
0000
0000
,  // measure 7
0010
0000
0000
0100
0001
0000
0000
0000
0010
0000
0000
0100
1000
0000
0000
0000
,  // measure 8
1001
0010
0100
0000
1001
0100
0010
0000
,  // measure 9
0001
0100
0010
1000
0100
0010
0001
0000
,  // measure 10
1000
0001
0010
0100
0010
0100
1000
0000
,  // measure 11
0010
1000
0001
1000
0100
0010
0001
0000
,  // measure 12
1001
0000
0000
1000
0010
1000
0010
0000
0100
0000
0001
0000
1000
0000
1100
0000
,  // measure 13
0010
0001
0100
0110
0010
1000
0001
0101
,  // measure 14
0000
0000
1001
0000
0100
0001
0100
0001
1000
0000
1100
0000
0011
0000
0000
0000
,  // measure 15
0001
0010
0100
1000
0010
0100
0001
1000
,  // measure 16
0010
0100
0010
0000
0101
0000
0000
0000
1000
0001
1000
0000
1010
0000
0000
0000
,  // measure 17
0110
0000
1000
0100
1000
0000
0000
0000
0001
0010
0001
0000
1001
0000
0000
0000
,  // measure 18
0100
0001
0100
0000
1010
0000
0000
0000
0001
0010
0001
0000
1100
0000
0000
0000
,  // measure 19
0010
0000
0100
0000
0001
0000
1000
0000
0010
1000
0010
1000
0010
0100
0000
0000
,  // measure 20
0001
0000
0010
0000
0100
0000
1000
0000
0010
0100
0010
0000
1010
0000
0000
0000
,  // measure 21
1000
0000
0001
0000
0010
0000
0100
0000
1000
0001
1000
0000
0011
0000
0000
0000
,  // measure 22
0010
0100
1000
0010
0100
0001
1000
0000
,  // measure 23
0010
1000
0010
0000
0100
0000
0001
0000
0011
0000
0101
0000
1001
0000
0000
0000
,  // measure 24
0010
0100
0101
0100
0010
1000
1100
0000
,  // measure 25
0001
1000
0100
0000
0000
0000
0110
0000
1001
0000
0000
0000
0010
0000
0100
0000
,  // measure 26
0110
0000
1000
0100
1001
0000
0010
0001
,  // measure 27
0101
0000
0001
1000
1100
0000
0010
0100
,  // measure 28
1010
0000
1000
0010
0110
0000
0001
0100
,  // measure 29
1001
0000
0000
0000
1000
0001
1000
0001
1000
0000
0000
0000
0010
0000
0100
0000
,  // measure 30
1001
0000
0010
0001
0101
0000
1000
0100
,  // measure 31
1010
0000
1000
0001
0110
0000
0100
0010
,  // measure 32
0101
0000
0010
1000
1100
0000
0001
0100
,  // measure 33
1001
0000
0000
0010
0100
0010
0100
0000
0000
0000
1001
0000
0001
0000
0000
0000
,  // measure 34
0010
0001
0010
0001
0100
0100
0100
0000
,  // measure 35
0010
1000
0010
1000
0100
0100
0100
0000
,  // measure 36
1000
0001
1000
0001
0100
0100
0100
0000
,  // measure 37
0010
0000
1001
0000
0010
0000
1001
0000
0010
0000
0000
0000
0101
0000
1000
0001
,  // measure 38
1000
0000
0000
0000
1100
0000
0001
1000
0001
0000
0000
0000
1100
0000
0100
0000
,  // measure 39
0101
0010
1000
0001
0010
0100
1001
0000
,  // measure 40
0010
0100
0010
1000
0100
0010
0001
0000
,  // measure 41
0011
0011
1001
0000
1100
1100
1001
0000
,  // measure 42
0010
0100
0001
0100
0001
1000
0010
1000
,  // measure 43
0100
0101
0110
0000
0000
1001
0010
1000
,  // measure 44
1100
0000
0100
0010
0011
0000
0001
1000
,  // measure 45
1010
0000
1000
0100
1001
0000
0010
0001
,  // measure 46
0101
0000
0100
0001
0011
0000
1000
0010
,  // measure 47
0110
0000
0000
0000
0001
1000
0001
1000
0001
0000
0000
0000
0100
0000
0010
0000
,  // measure 48
1010
0000
0001
0010
1100
0000
1000
0100
,  // measure 49
1001
0000
0010
0100
1100
0000
1000
0001
,  // measure 50
0110
0000
0010
1000
0101
0000
0001
0100
,  // measure 51
0110
0000
0000
0000
1001
0000
0000
0000
1000
0001
0100
0001
1000
0001
0100
0001
,  // measure 52
1000
0000
0000
0000
;

//---------------dance-single - X scale 8----------------
#NOTES:
     dance-single:
     :
     Medium:
     8:
     0.349330,0.345313,0.375000,0.000000,0.000000,313.000000,265.000000,48.000000,0.000000,0.000000,0.000000,0.349330,0.345313,0.375000,0.000000,0.000000,313.000000,265.000000,48.000000,0.000000,0.000000,0.000000:
0000
0000
0000
0000
,
0000
0000
0000
0000
,
0000
0000
0000
0000
,
0000
0000
0000
0000
,
0010
1001
0010
1001
,
0100
0011
0100
1010
,
0001
0110
0001
0110
,
1000
0101
1000
0011
,
0010
1000
0100
0000
0010
0001
0100
0000
,
0001
0100
1000
0000
0001
0010
1000
0000
,
0100
0010
0001
0000
0100
0001
1000
0000
,
0010
1000
0001
0000
1000
0100
0010
0000
,
1001
0000
0010
0100
0001
0000
1000
0100
,
0010
0000
0010
0100
1000
0000
0001
1000
,
0000
0110
1000
0000
0001
0100
0010
0000
,
0001
1000
0001
0100
0001
1000
0100
0000
,
0010
1010
0000
0000
0100
0101
0000
0000
,
0001
1000
0010
0000
0100
1001
0000
0000
,
0010
1000
1100
0000
0001
0100
0101
0000
,
0001
0010
0001
0010
0100
1000
0001
0000
,
0010
0100
0010
0000
1000
0100
0001
0000
,
1000
0001
1000
0000
0010
0100
0001
0000
,
0110
0000
0010
1000
0100
1000
0010
0000
,
0001
0010
0001
0100
0010
1000
1001
0000
,
0010
0100
0110
0000
0001
1000
1001
0000
,
1000
0001
0100
0000
0101
0000
1100
0000
,
0010
0000
1000
0001
0100
0000
1001
0000
,
0100
0000
0001
1000
0010
0000
1010
0000
,
0001
0000
0100
0010
1000
0000
0101
0000
,
1000
0000
1000
0001
0100
0000
0001
0010
,
0100
0000
1000
0010
0001
0000
0101
0000
,
1100
0000
0010
1000
0100
0000
0011
0000
,
1001
0000
0100
0001
0010
0000
1100
0000
,
0011
0000
0100
0010
0000
1000
0001
0000
,
0001
0000
0001
0000
0001
1000
0100
0000
,
1000
0000
1000
0000
1000
0001
0100
0000
,
0010
0000
0010
0000
0010
1000
0100
0000
,
0010
0100
0010
0100
0010
0000
1001
0100
,
0010
0000
1010
1000
0001
0000
0100
0010
,
1000
0100
1000
0000
0001
0100
0001
0000
,
0010
1000
0101
0000
0100
0010
1000
0000
,
0001
0001
0001
0000
1000
0010
0110
0000
,
0010
1000
0100
0010
0001
0100
0001
1000
,
0010
0010
0110
0000
0000
1001
0100
0000
,
0001
0000
1000
0010
0100
0000
1010
0000
,
1000
0000
0100
0010
0001
0000
0101
0000
,
0010
0000
0100
0001
1000
0000
1100
0000
,
0101
0000
0010
0100
0010
0000
1000
0001
,
0010
0000
0001
0100
1000
0000
1100
0000
,
0011
0000
1000
0001
0010
0000
0110
0000
,
1001
0000
1000
0001
0100
0000
0101
0000
,
1100
0000
0011
0000
1000
1000
0001
0001
,
1001
0000
0000
0000
;

//---------------dance-single - X Scale 5----------------
#NOTES:
     dance-single:
     :
     Easy:
     5:
     0.226563,0.264062,0.281250,0.000000,0.000000,203.000000,167.000000,36.000000,0.000000,0.000000,0.000000,0.226563,0.264062,0.281250,0.000000,0.000000,203.000000,167.000000,36.000000,0.000000,0.000000,0.000000:
0000
0000
0000
0000
,
0000
0000
0000
0000
,
0000
0000
0000
0000
,
0000
0000
0000
0000
,
0010
0100
0001
0000
,
0010
0100
1000
0000
,
0001
1000
0100
0000
,
1000
0001
0010
0000
,
1001
0010
1001
0100
,
0001
0010
0100
1000
,
0010
0100
0001
1000
,
0100
0010
0001
1000
,
1001
0010
1001
0100
,
0001
1000
0010
0100
,
0000
0010
0100
0010
,
1000
0001
1000
0001
,
0101
0000
1100
0000
,
0101
0000
1100
0000
,
0010
1000
0100
0001
,
0100
0010
1000
0001
,
0010
1100
0001
1000
,
0100
0011
0001
1000
,
0110
0100
0010
1000
,
0001
0000
1000
0000
0100
0100
0100
0000
,
0001
0011
1000
1010
,
0010
0100
1001
0000
,
1010
0100
0001
0000
,
0011
0100
1000
0000
,
0101
0010
1000
0000
,
1100
0001
0010
0100
,
1001
0010
0100
0000
,
0110
1000
0001
0000
,
1001
0100
0010
0000
,
0110
0000
0001
0000
0000
1000
0000
0000
,
0100
1000
0001
0000
,
0100
0001
1000
0000
,
0001
1000
0001
1000
,
0010
0010
0010
0110
,
1001
0001
1001
1000
,
0010
1000
0100
1001
,
0010
1000
0100
0010
,
0001
1000
0001
0100
,
0001
0010
0100
1000
,
0010
0000
0110
0000
0000
1001
0000
0000
,
1100
0001
0100
0000
,
0101
1000
0100
0000
,
1010
0010
0001
0000
,
0011
0010
1000
0100
,
0110
0100
0010
0000
,
1001
0010
0100
0000
,
0110
1000
0001
0000
,
1001
0000
1000
0001
,
0010
0000
0000
0000
;

//---------------dance-single - X scale 2----------------
#NOTES:
     dance-single:
     :
     Beginner:
     2:
     0.111607,0.142188,0.007813,0.000000,0.000000,100.000000,99.000000,1.000000,0.000000,0.000000,0.000000,0.111607,0.142188,0.007813,0.000000,0.000000,100.000000,99.000000,1.000000,0.000000,0.000000,0.000000:
0000
0000
0000
0000
,
0000
0000
0000
0000
,
0000
0000
0000
0000
,
0000
0000
0000
0000
,
0010
0000
0100
0000
,
0010
0000
0100
0000
,
0001
0000
1000
0000
,
0001
0000
1000
0000
,
0010
0000
0010
0000
,
0100
0000
0100
0000
,
0001
0000
0001
0000
,
1000
0000
1000
0000
,
0010
0000
1000
0000
,
0001
0000
0100
0000
,
0001
0000
1000
0000
,
0010
0000
0100
0000
,
0001
0000
1000
0000
,
0001
0000
1000
0000
,
0010
0000
0100
0000
,
0010
0000
0100
0000
,
0001
0000
0001
0000
,
0010
0000
0010
0000
,
0100
0000
0100
0000
,
1000
0000
1000
0000
,
0010
0000
1000
0000
,
0100
0000
0001
0000
,
0010
0000
0100
0000
,
0010
0000
0100
0000
,
0001
0000
1000
0000
,
0001
0000
1000
0000
,
0100
0000
0010
0000
,
0100
0000
0010
0000
,
1000
0000
0001
0000
,
1000
0000
0000
0000
,
0001
0000
0001
0000
,
1000
0000
1000
0000
,
0001
0000
1000
0000
,
0010
0010
0010
0000
,
1001
0000
0100
0000
,
0001
0000
1000
0000
,
0001
0000
0100
0000
,
1000
0000
0010
0000
,
1000
1000
1000
0000
,
0001
0001
0000
0000
,
1000
0000
0100
0000
,
1000
0000
0100
0000
,
0010
0000
0001
0000
,
0010
0000
0001
0000
,
0100
0000
0001
0000
,
0100
0000
0001
0000
,
1000
0000
0010
0000
,
1000
0000
0001
0001
,
0001
0000
0000
0000
;
