#TITLE:Your Roots Aren't Showing;
#SUBTITLE:;
#ARTIST:Adraen;
#TITLETRANSLIT:;
#SUBTITLETRANSLIT:;
#ARTISTTRANSLIT:;
#GENRE:Drum n Bass;
#CREDIT:Mad Guns22;
#MUSIC:Your Roots Aren't Showing.mp3;
#BANNER:Project default banner.png;
#BACKGROUND:Project default background.png;
#CDTITLE:MadGuns22Icon.png;
#SAMPLESTART:20.210;
#SAMPLELENGTH:12.000;
#SELECTABLE:YES;
#OFFSET:-0.023;
#BPMS:0.000=190.000;
#STOPS:;
#DISPLAYBPM:190.000;
#BGCHANGES:;
#FGCHANGES:;

//--------------- dance-single - Mad Guns22 ----------------
#NOTES:
     dance-single:
     Mad Guns22:
     Challenge:
     10:
     0.823,0.752,0.444,0.211,0.088:
0000
0000
0000
0000
,
0000
0000
0000
0000
,
0000
0000
0000
0000
,
0000
0000
0000
0000
,
2000
3000
2000
3000
0000
0000
0000
0000
,
0000
0000
0000
0000
,
0020
0030
0020
0030
0000
0000
0000
0000
,
0002
0003
0002
0003
0000
0000
1000
1000
,
0110
0000
0110
0000
0100
0010
0100
1000
,
0010
0100
0010
0001
0010
0001
0010
0100
,
1010
0000
1010
0000
1000
0001
1000
0010
,
0101
0000
0101
0000
0001
0100
0001
1000
,
0110
0000
0110
0000
0010
0100
0010
0001
,
0100
0010
0100
1000
0100
1000
0100
0010
,
0101
0000
0101
0000
0001
1000
0001
0100
,
1000
0000
1000
0100
0001
0000
0001
0010
1000
0000
1000
0100
0010
0000
0100
0000
,
1010
0000
1010
0010
0000
0010
0010
0100
,
1000
0001
1000
0010
1000
0100
1000
0010
,
0101
0000
0101
0100
0000
0100
0100
0010
,
0001
1000
0001
0100
0001
0010
0001
1000
,
0110
0000
0110
0100
0000
0100
0100
0001
,
0010
1000
0010
0100
0010
0001
0010
0100
,
1001
0000
1001
0001
0000
0001
0001
0100
,
1000
0000
0010
0000
1000
0000
0001
0000
1000
0000
0100
0000
1000
0001
1000
0001
,
0110
0000
0110
0100
0000
0100
0100
0010
,
0001
1000
0001
0100
0001
0010
0001
0100
,
1010
0000
1010
0010
0000
0010
0010
0100
,
1000
0001
1000
0010
1000
0100
1000
0001
,
0110
0000
0110
0010
0000
0010
0010
1000
,
0100
0001
0100
0010
0100
1000
0100
0010
,
1001
0000
1001
1000
0000
1000
1000
0010
,
0001
0000
0100
0000
0001
0000
1000
0000
0001
0000
0010
0000
0001
1000
0001
1000
,
0001
1000
0001
0100
0001
0010
0001
1000
,
0001
1000
0001
0010
0001
0100
0001
1000
,
0001
0010
0100
1000
0001
0010
0100
1000
,
1000
0100
0010
0001
1000
0100
0010
0001
,
1000
0001
1000
0010
1000
0100
1000
0001
,
1000
0001
1000
0100
1000
0010
1000
0001
,
1000
0100
1000
0001
0010
0001
1000
0100
,
1000
0000
0001
0000
0010
0000
0100
0000
1000
0000
0001
0000
0010
0100
0010
0100
,
1000
0010
1000
0001
1000
0100
1000
0010
,
1000
0010
1000
0100
1000
0001
1000
0010
,
1000
0100
0001
0010
1000
0100
0001
0010
,
0010
0001
0100
1000
0010
0001
0100
1000
,
0010
1000
0010
0100
0010
0001
0010
1000
,
0010
1000
0010
0001
0010
0100
0010
1000
,
0010
0001
0010
1000
0100
1000
0010
0001
,
0010
0000
1000
0000
0100
0000
0001
0000
0010
0000
1000
0000
0100
0001
0100
0001
,
1000
0000
1000
0000
0100
0100
0000
0010
,
0000
0010
0000
0010
0001
0010
0001
0000
,
0010
0000
0010
0000
0100
0100
0000
0001
,
0000
0010
0000
0010
0100
0010
0100
0000
,
0011
0000
0011
0000
0011
0000
0000
1100
,
0000
1100
0000
0000
0101
0000
0101
0000
,
0110
0000
0110
0000
0110
0000
0000
0011
,
0000
0000
0011
0000
0000
0000
0000
0000
0101
0000
0000
0000
1000
0001
1000
0001
,
0100
0010
1000
0010
0100
0010
1000
0001
,
0100
0010
0100
0001
1000
0001
0010
0001
,
0010
1000
0100
1000
0010
1000
0100
1000
,
0010
0100
0010
1000
0001
1000
0001
1000
,
0010
0100
0001
0100
0010
0100
0001
1000
,
0010
0100
0010
1000
0001
1000
0100
1000
,
0100
0001
0010
0001
0100
0001
0010
0001
,
0100
0010
0100
0001
1000
0010
0010
0010
,
0001
0100
0010
0100
0001
0100
0010
1000
,
0001
0100
0001
1000
0010
1000
0100
1000
,
0100
0010
0001
0010
0100
0010
0001
0010
,
0100
0001
0100
0010
1000
0010
1000
0010
,
0100
0001
1000
0001
0100
0001
1000
0010
,
0100
0001
0100
0010
1000
0010
0001
0010
,
0001
1000
0100
1000
0001
1000
0100
1000
,
0001
0000
0001
0010
1000
0000
1000
0100
0001
0000
0001
0010
0100
0000
0010
0000
,
0001
0000
0001
0010
0000
0010
0001
0000
,
1000
0000
0100
0010
0100
0000
0001
0000
,
0001
0000
0001
0010
0000
0010
0001
0000
,
1000
0100
1000
0010
1000
0010
1000
0001
,
0110
0000
0110
0100
0000
0100
0100
0001
,
0010
1000
0010
0100
0010
0001
0010
1000
,
0101
0000
0101
0100
0000
0100
0100
0010
,
0001
0000
1000
0000
0001
0000
0100
0000
1000
0000
0100
0000
1000
0010
1000
0010
,
0110
0000
0110
0100
0000
0100
0100
0001
,
0010
1000
0010
0100
0010
0001
0010
0100
,
1001
0000
1001
0001
0000
0001
0001
0100
,
1000
0010
1000
0001
1000
0100
1000
0010
,
0101
0000
0101
0001
0000
0001
0001
1000
,
0100
0010
0100
0001
0100
1000
0100
0001
,
1010
0000
1010
1000
0000
1000
1000
0001
,
0010
0000
0100
0000
0010
0000
1000
0000
0010
0000
0001
0000
0010
1000
0010
1000
,
0001
0000
0000
0000
0001
0000
0000
0000
2000
3000
0000
0000
0001
0000
0000
0000
0001
0000
0000
0000
2000
3000
0000
0000
0001
0000
0000
0000
0001
0000
0000
0000
,
0001
0010
0100
1000
0001
0010
0100
1000
,
0001
0000
0000
0000
0001
0000
0000
0000
2000
3000
0000
0000
0001
0000
0000
0000
0001
0000
0000
0000
2000
3000
0000
0000
0001
0000
0000
0000
0001
0000
0000
0000
,
0010
0100
0010
0100
0000
0100
0000
0000
,
1000
0000
0000
0000
1000
0000
0000
0000
0002
0003
0000
0000
1000
0000
0000
0000
1000
0000
0000
0000
0002
0003
0000
0000
1000
0000
0000
0000
1000
0000
0000
0000
,
1000
0100
0010
0001
1000
0100
0010
0001
,
1000
0000
0000
0000
1000
0000
0000
0000
0002
0003
0000
0000
1000
0000
0000
0000
0002
0003
0000
0000
1000
0000
0000
0000
1000
0000
0000
0000
1000
0000
0000
0000
,
0100
0000
0000
0000
0100
0000
0000
0000
0100
0000
0000
0000
0100
0010
0100
0010
,
2000
3000
2000
3000
0000
0000
0000
0000
,
0000
0000
0000
0000
,
0020
0030
0020
0030
0000
0000
0000
0000
,
0002
0003
0002
0003
0000
0000
0000
0000
,
0020
0030
0020
0030
0000
0000
0000
0000
,
0000
0000
0000
0000
,
0200
0300
0200
0300
0000
0000
0000
0000
,
2000
3000
2000
3000
0000
0000
0001
0001
,
0110
0000
0110
0000
0010
0100
0010
0001
,
0100
0010
0100
1000
0100
1000
0100
0010
,
0101
0000
0101
0000
0001
1000
0001
0100
,
1010
0000
1010
0000
1000
0010
1000
0001
,
0110
0000
0110
0000
0100
0010
0100
1000
,
0010
0100
0010
0001
0010
0001
0010
0100
,
1010
0000
1010
0000
1000
0001
1000
0010
,
0001
0000
0001
0010
1000
0000
1000
0100
0001
0000
0001
0010
0100
0000
0010
0000
,
2002
3003
0220
0330
0000
0000
0000
0000
;
