#TITLE:White Lies;
#SUBTITLE:;
#ARTIST:Paul Van Dyk feat. Jessica Sutta;
#TITLETRANSLIT:;
#SUBTITLETRANSLIT:;
#ARTISTTRANSLIT:;
#GENRE:Trance;
#CREDIT:Mad Guns22;
#MUSIC:White Lies.mp3;
#BANNER:Project default banner.png;
#BACKGROUND:Project default background.png;
#CDTITLE:MadGuns22Icon.png;
#SAMPLESTART:85.333;
#SAMPLELENGTH:12.000;
#SELECTABLE:YES;
#OFFSET:-0.051;
#BPMS:0.000=135.000;
#STOPS:;
#DISPLAYBPM:135.000;
#BGCHANGES:;
#FGCHANGES:;

//--------------- dance-single - Mad Guns22 ----------------
#NOTES:
     dance-single:
     Mad Guns22:
     Hard:
     9:
     0,0,0,0,0:
0000
0000
0000
0000
,
0000
0000
0000
0000
,
0000
0000
0000
0000
,
1000
0000
0000
0001
0000
0000
1000
0000
0000
0010
0000
0000
0100
0000
0000
0000
,
0100
0000
0000
0010
0000
0000
0001
0000
0000
0100
0000
0000
0001
0000
0000
0000
,
0001
0000
0000
1000
0000
0000
0001
0000
0000
0100
0000
0000
0010
0000
0000
0000
,
0010
0000
0000
0100
0000
0000
1000
0000
0000
0010
0000
0000
1000
0000
0000
0000
,
1000
0000
0000
0100
0000
0000
0010
0000
0000
0001
1000
0001
1000
0001
1000
0000
,
0010
0000
0000
0200
0000
0000
0000
0000
0000
0000
0000
0000
0300
0000
0000
0000
,
0000
0010
1000
0100
0010
0001
1000
0100
,
0010
0000
0000
0000
1000
0000
0010
0000
0100
0000
0000
0010
0000
0000
0100
0000
,
0000
0000
0000
0010
0100
0010
0000
0010
,
1000
0000
0000
0002
0000
0000
0000
0000
0000
0000
0000
0000
0003
0000
0000
0000
,
0000
0001
0010
0100
0001
0000
1000
1000
,
0010
0000
0100
0000
0000
0001
0010
0100
,
0000
0001
0010
0200
0000
0300
0100
0100
,
0010
1000
0001
1000
0010
0100
0001
0010
,
0000
0100
0000
0000
0000
0000
0100
0010
,
0100
0001
1000
0010
0100
0001
1000
0100
,
0000
1000
0000
0010
0000
0100
0010
0100
,
0000
0000
0010
0100
1000
0001
1000
0010
,
0000
0100
0010
0001
1000
0001
0000
0000
,
0000
1000
0100
0010
0001
0001
0000
0001
,
0000
1000
0000
2002
0000
0000
3003
0000
,
0001
0000
1000
0000
0100
1000
0100
0000
0000
0000
1000
0000
0100
1000
0100
0000
,
0000
0000
0000
0000
0000
0000
1000
0001
1000
0000
0100
0000
0010
0000
0001
0000
,
2000
0000
0002
0000
0000
3003
0020
0000
,
2000
0000
0000
0000
3030
0000
0000
0000
0010
0100
0010
0000
0100
0000
0010
0100
,
0010
0000
0100
0000
0001
0000
0100
0000
0000
0000
1000
0010
1000
0010
1000
0000
,
0000
1000
0001
1000
0001
0001
1000
0100
,
0020
0000
0200
0000
0000
0330
2000
0000
,
0200
0000
0000
0000
3300
0000
0000
0000
0010
0001
0010
0000
0001
0000
0001
0010
,
1000
0000
0001
0000
0010
0001
0010
0000
0000
0000
0001
0000
0010
0001
0010
0000
,
0000
0000
0000
0000
0000
0000
0001
1000
0001
0000
0010
0000
0100
0000
1000
0000
,
0002
0000
2000
0000
0000
3003
0200
0000
,
0002
0000
0000
0000
0303
0000
0000
0000
0100
0010
0100
0000
0010
0000
0100
0010
,
0100
0000
0010
0000
1000
0000
0010
0000
0000
0000
0001
0100
0001
0100
0001
0000
,
0000
0001
1000
0001
1000
1000
0001
0010
,
0200
0000
0020
0000
0000
0330
0002
0000
,
0020
0000
0000
0000
0033
0000
0000
0000
0100
1000
0100
0000
1000
0000
1000
0100
,
0001
0000
0001
0010
0000
0100
0000
1000
0000
0100
0000
0010
0000
0001
0000
0010
,
0100
0000
0010
0100
0000
1000
0000
0001
0000
0010
0000
0100
0000
1000
0000
0001
,
1000
0000
1000
0010
0000
0100
0000
1000
0000
0100
0000
0010
0000
0001
0000
0010
,
0100
0000
0010
0100
0000
1000
0000
0001
0000
0010
0000
0100
0000
1000
0000
0001
,
1000
0000
1000
0100
0000
0010
0000
0001
0000
0010
0000
0100
0000
1000
0000
0100
,
0010
0000
0100
0010
0000
0001
0000
1000
0000
0100
0000
0010
0000
0001
0000
1000
,
0001
0000
1000
0100
0000
0010
0000
0001
0000
0010
0000
0100
0000
1000
0000
0100
,
0010
0000
0100
0010
0000
0001
0000
2000
0000
0000
0000
0001
0001
0000
3001
0000
,
1000
0000
0010
0000
0001
0010
0001
0000
0000
0000
0010
0000
0001
0010
0001
0000
,
0000
0000
0000
0000
0000
0000
0010
1000
0010
0000
0001
0000
0100
0000
1000
0000
,
0020
0000
2000
0000
0000
3030
0200
0000
,
0020
0000
0000
0000
0330
0000
0000
0000
0100
0001
0100
0000
0001
0000
0100
0001
,
0100
0000
0001
0000
1000
0000
0001
0000
0000
0000
0010
0100
0010
0100
0010
0000
,
0000
0010
1000
0010
1000
1000
0010
0001
,
0200
0000
0002
0000
0000
0303
0020
0000
,
0002
0000
0000
0000
0033
0000
0000
0000
0100
1000
0100
0000
1000
0000
1000
0100
,
0010
0000
1000
0000
0100
1000
0100
0000
0000
0000
1000
0000
0100
1000
0100
0000
,
0000
0000
0000
0000
0000
0000
1000
0010
1000
0000
0100
0000
0001
0000
0010
0000
,
2000
0000
0020
0000
0000
3030
0002
0000
,
2000
0000
0000
0000
3003
0000
0000
0000
0001
0100
0001
0000
0100
0000
0001
0100
,
0001
0000
0100
0000
0010
0000
0100
0000
0000
0000
1000
0001
1000
0001
1000
0000
,
0000
1000
0010
1000
0010
0010
1000
0100
,
0002
0000
0200
0000
0000
0303
2000
0000
,
0200
0000
0000
0000
3300
0000
0000
0000
0001
0010
0001
0000
0010
0000
0010
0001
,
1000
0000
1000
0100
0000
0010
0000
0001
0000
0010
0000
0100
0000
1000
0000
0100
,
0010
0000
0100
0010
0000
0001
0000
1000
0000
0100
0000
0010
0000
0001
0000
1000
,
0001
0000
1000
0100
0000
0010
0000
0001
0000
0010
0000
0100
0000
1000
0000
0100
,
0010
0000
0100
0010
0000
0001
0000
1000
0000
0100
0000
0010
0000
0001
0000
1000
,
0001
0000
0001
0010
0000
0100
0000
1000
0000
0100
0000
0010
0000
0001
0000
0010
,
0100
0000
0010
0100
0000
1000
0000
0001
0000
0010
0000
0100
0000
1000
0000
0001
,
1000
0000
0001
0010
0000
0100
0000
1000
0000
0100
0000
0010
0000
0001
0000
0010
,
0100
0000
0010
0100
0000
1000
0000
0002
0000
0000
0000
0000
0000
0000
0003
0000
,
2002
0000
0000
0000
3003
0000
0000
0000
0000
0000
1000
0001
1000
0001
1000
0001
,
1000
0001
1000
0001
0000
0000
0000
0000
0000
0000
1000
0100
1000
0100
1000
0100
,
1000
0100
1000
0200
0000
0000
0000
0000
0000
0000
0000
0300
0000
0000
0000
0000
;
