#TITLE:True [The Untitleds Monotron Hell remix v2];
#SUBTITLE:;
#ARTIST:Painbringer;
#TITLETRANSLIT:;
#SUBTITLETRANSLIT:;
#ARTISTTRANSLIT:;
#GENRE:;
#CREDIT:Mad Guns22;
#MUSIC:True (The Untitleds Monotron Hell remix v2).mp3;
#BANNER:Project default banner.png;
#BACKGROUND:Project default background.png;
#CDTITLE:MadGuns22Icon.png;
#SAMPLESTART:71.340;
#SAMPLELENGTH:12.000;
#SELECTABLE:YES;
#OFFSET:-0.017;
#BPMS:0.000=185.000;
#STOPS:;
#DISPLAYBPM:185.000;
#BGCHANGES:;
#FGCHANGES:;

//--------------- dance-single - Mad Guns22 ----------------
#NOTES:
     dance-single:
     Mad Guns22:
     Challenge:
     11:
     0.833,0.887,0.738,0.086,0.093:
0000
0000
0000
0000
,
0000
0000
0000
0000
,
0000
0000
0000
0000
,
0000
0000
0000
0000
0000
0000
1000
0100
,
1000
0001
0100
0010
,
0001
0100
0010
0100
,
1000
0100
0010
0001
,
0100
0000
0001
0000
1000
0000
0100
0010
,
0002
0000
0100
0000
0010
0000
1000
0003
,
0100
0010
0100
0010
,
0001
1000
0200
0010
,
0001
0000
0001
0000
1300
0000
0010
0100
,
0020
1000
0100
1000
,
0001
0130
1020
0001
,
0100
0130
1002
0100
,
0010
0000
0100
0000
1003
0000
0100
1000
,
0001
1000
0100
0010
1000
1000
1000
1000
,
0010
0100
0001
0010
0100
0100
0100
0100
,
0001
0010
0100
0010
0001
0001
0001
0001
,
1000
0100
1000
0001
0010
0010
0010
0010
,
0100
1000
0010
0100
0001
0001
0001
0001
,
0100
0010
0100
0001
1000
1000
1000
1000
,
0100
0010
0100
1000
0010
0010
0010
0010
,
0100
1000
0010
1000
0100
0100
0100
0100
,
0001
0010
0001
0100
1000
1000
1000
1000
,
0010
0001
1000
0010
0100
0100
0100
0100
,
0010
1000
0010
0100
0001
0001
0001
0001
,
0010
0100
1000
0100
0001
0001
0001
0001
,
0010
1000
0010
0001
0100
0100
0100
0100
,
1000
0010
0100
1000
0001
0001
0001
0001
,
1000
0100
1000
0001
0010
0010
0010
0010
,
0000
0000
0000
0000
,
1100
0000
0110
0000
0010
0100
0001
0010
,
1100
0000
0110
0000
1000
0100
0010
0001
,
0110
0000
1001
0000
0100
0010
1000
0001
,
1010
0000
0101
0000
1000
0100
0001
1000
,
0011
0000
0110
0000
0100
0010
1000
0100
,
0011
0000
0110
0000
0001
0010
0100
1000
,
0110
0000
1001
0000
0010
0100
0001
1000
,
0101
0000
1010
0000
0001
0010
1000
0001
,
0110
0000
1010
0000
1000
0010
0100
1000
,
0011
0000
1010
0000
0001
0010
1000
0100
,
1010
0000
0101
0000
0010
1000
0001
0100
,
1001
0000
0110
0000
0001
0010
0100
0001
,
1100
0000
1010
0000
0010
1000
0001
0010
,
1100
0000
1010
0000
0100
1000
0010
0001
,
1010
0000
0101
0000
1000
0010
0100
0001
,
0110
0000
1001
0000
0100
1000
0001
0100
,
0040
0400
0000
0000
0000
0000
0000
0000
,
0000
0000
0000
0000
0000
0000
0000
0330
,
0002
0100
0010
0103
,
2000
0100
0010
3100
,
0020
0000
0000
0030
,
0200
0010
0001
0310
,
2000
0000
0100
0000
0010
0000
0100
3000
,
0000
0000
0000
0000
,
1100
0010
0001
0100
0010
1000
0100
0001
,
1010
0100
0001
0010
0100
0010
0001
0100
,
0011
1000
0100
1000
0010
1000
0001
1000
,
0101
0010
0001
1000
0100
0010
0001
1000
,
0011
0100
1000
0010
0100
0001
0010
1000
,
0101
0010
1000
0100
0010
0100
1000
0010
,
1100
0001
0010
0001
0100
0001
1000
0001
,
1010
0100
1000
0001
0010
0100
1000
0001
,
0011
1000
0100
0010
1100
0001
0010
0100
,
1001
0010
0100
1000
0011
1000
0100
0010
,
1100
0001
0010
0001
1100
0001
0100
0001
,
0110
1000
0100
0001
0110
1000
0100
0001
,
1100
0010
0001
1000
0011
0100
1000
0001
,
0110
1000
0001
0010
1100
0010
0001
1000
,
0011
0100
1000
0100
0011
0100
0001
0100
,
1001
0010
0001
0100
1001
0010
0001
0100
,
0011
0100
1001
0010
0100
0001
0010
1000
,
0101
0010
1001
0100
1000
0100
1000
0010
,
1100
0001
1010
0001
1000
0001
1000
0001
,
1010
0100
1000
0001
0010
0100
1000
0001
,
1100
0010
1001
0100
0010
1000
0100
0001
,
1010
0100
1001
0010
0100
0010
0001
0100
,
0011
1000
0101
1000
0010
1000
0001
1000
,
0101
0010
0101
1000
0100
0010
0001
1000
,
1100
0000
0001
0010
1000
0000
0100
0000
0001
0000
1000
0000
0100
0000
0010
0000
,
1001
0000
0100
0010
1000
0000
0001
0000
0100
0000
0001
0000
0010
0000
0100
0000
,
0011
0000
1000
0100
0010
0000
1000
0000
0001
0000
1000
0000
0010
0000
1000
0000
,
0110
0000
0001
0100
0010
0000
1000
0000
0100
0000
0001
0000
0010
0000
1000
0000
,
0011
0000
0100
0010
1000
0000
0001
0000
0100
0000
0010
0000
0001
0000
1000
0000
,
0110
0000
0001
1000
0010
0000
0100
0000
0001
0000
0100
0000
1000
0000
0001
0000
,
1100
0000
0010
0100
0001
0000
0010
0000
0100
0000
0010
0000
1000
0000
0010
0000
,
1001
0000
0100
0001
1000
0000
0010
0000
0001
0000
0100
0000
1000
0000
0010
0000
,
1100
0000
0010
0100
0001
0000
1000
0000
0010
0000
0100
0000
1000
0000
0001
0000
,
0110
0000
1000
0001
0100
0000
0010
0000
1000
0000
0010
0000
0001
0000
1000
0000
,
0011
0000
0100
0001
1000
0000
0100
0000
0010
0000
0100
0000
0001
0000
0100
0000
,
1001
0000
0010
0001
1000
0000
0100
0000
1000
0000
0010
0000
0001
0000
0100
0000
,
0011
0000
1000
0100
0001
0000
0010
0000
1000
0000
0001
0000
0010
0000
0100
0000
,
1001
0000
0010
0001
0100
0000
1000
0000
0010
0000
1000
0000
0100
0000
0010
0000
,
1100
0000
0001
0100
0010
0000
0001
0000
1000
0000
0001
0000
0100
0000
0001
0000
,
0110
0000
1000
0010
0100
0000
0001
0000
0010
0000
1000
0000
0100
0000
0001
0000
,
1010
0000
0100
1000
0001
0000
0010
0000
0100
0000
0001
0000
0010
0000
1000
0000
,
0101
0000
0010
1000
0001
0000
0100
0000
0010
0000
0100
0000
1000
0000
0010
0000
,
1100
0000
0001
0010
1000
0000
0001
0000
1100
0000
0001
0000
1000
0000
0001
0000
,
1010
0000
0100
0010
1000
0000
0001
0000
1010
0000
0100
0000
1000
0000
0001
0000
,
1100
0000
0010
0001
1000
0000
0100
0000
0011
0000
1000
0000
0100
0000
0001
0000
,
1010
0000
0100
0001
1000
0000
0010
0000
1100
0000
0010
0000
0001
0000
0100
0000
,
0011
0000
1000
0010
0100
0000
1000
0000
0110
0000
1000
0000
0001
0000
1000
0000
,
0101
0000
0010
0100
0001
0000
1000
0000
0100
0010
0100
0010
0001
0000
1000
0000
,
0022
0000
0000
0000
,
0000
0000
0000
0000
,
0000
0000
0000
0000
,
0000
0000
0000
0033
;
