#TITLE:Thing Called Love [Radio Mix];
#SUBTITLE:;
#ARTIST:Above & Beyond;
#TITLETRANSLIT:;
#SUBTITLETRANSLIT:;
#ARTISTTRANSLIT:;
#GENRE:;
#CREDIT:Mad Guns22;
#MUSIC:Thing Called Love.mp3;
#BANNER:Project default banner.png;
#BACKGROUND:Project default background.png;
#CDTITLE:MadGuns22Icon.png;
#SAMPLESTART:78.340;
#SAMPLELENGTH:12.000;
#SELECTABLE:YES;
#OFFSET:-0.025;
#BPMS:0.000=134.000
,35.000=268.000
,36.000=134.000
,51.000=268.000
,52.000=134.000
,68.000=67.000
,108.000=134.000
,113.000=268.000
,114.000=134.000
,117.000=268.000
,118.000=134.000
,129.000=268.000
,130.000=134.000
,133.000=268.000
,134.000=134.000
,136.000=67.000
,138.000=134.000
,266.000=268.000
,267.000=67.000
,267.250=50.000
,267.375=35.000
,267.563=20.000
,267.667=5.000
;
#STOPS:35.000=0.224
,51.000=0.224
,113.000=0.224
,117.000=0.224
,129.000=0.224
,133.000=0.224
,266.000=0.056
,266.250=0.056
,266.500=0.056
,266.750=0.056
;
#DISPLAYBPM:134.000;
#BGCHANGES:;
#FGCHANGES:;

//--------------- dance-single - Mad Guns22 ----------------
#NOTES:
     dance-single:
     Mad Guns22:
     Beginner:
     1:
     0.076,0.096,0,0.065,0:
0000
0000
0000
0000
,
0000
0000
0000
0000
,
0000
0000
0000
0000
,
1000
0000
0000
0000
,
0010
0000
0000
0000
,
0001
0000
0000
0000
,
0100
0000
0000
0000
,
0001
0000
0000
0000
,
0010
0000
0000
0000
,
0020
0000
0030
0000
,
0200
0000
0300
0000
,
0002
0000
0003
0000
,
0200
0000
0000
0000
0000
0300
0000
0000
,
2000
0000
3000
0000
,
0002
0000
0000
0003
,
0200
0000
0300
0000
,
0002
0000
0003
0000
,
0100
0000
0000
0000
,
0100
0000
0000
0000
,
0010
0000
0000
0000
,
0010
0000
0000
0000
,
0001
0000
0000
0000
,
0001
0000
0000
0000
,
1000
0000
0000
0000
,
1000
0000
0000
0000
,
0100
0000
0000
0000
,
0100
0000
0000
0000
,
0010
0000
0000
0000
,
0010
0000
0000
0000
,
1000
0000
0000
0000
,
0010
0000
0000
0000
,
1000
0000
0000
0000
,
0100
0000
0000
0000
,
0001
0000
0000
0000
,
0010
0000
0100
0000
,
0000
0000
0010
0000
,
0000
0000
0001
0000
,
0000
0000
1000
0000
,
0000
0100
0000
0000
,
0000
0000
0001
0000
,
0000
0000
0010
0000
,
0000
0000
0010
0000
,
0000
0000
1000
0000
,
0000
0000
0001
0000
,
0000
0000
0100
0000
,
0000
0000
0001
0000
,
0000
0000
1000
0000
,
0000
0000
0010
0000
,
0000
0000
0100
0000
,
0000
0000
1000
0000
,
0000
0000
0001
0000
,
0000
0000
1000
0000
,
0000
0000
1000
0000
,
0000
0000
1000
0000
,
0000
0000
0001
0000
,
0000
0000
0100
0000
,
0000
0000
1000
0000
,
0000
0000
1000
0000
,
0000
0000
0010
0000
,
0000
0000
0100
0000
,
0000
0000
0001
0000
,
0000
0000
0100
0000
,
0000
0000
0010
0000
,
0000
0000
1000
0000
,
0000
0000
0001
0000
,
1000
0000
0002
0000
,
0000
0000
0000
0000
0000
0000
0000
0003
;

//--------------- dance-single - Mad Guns22 ----------------
#NOTES:
     dance-single:
     Mad Guns22:
     Easy:
     2:
     0.187,0.192,0.014,0.252,0:
0000
0000
0000
0000
,
0000
0000
0000
0000
,
0000
0000
0000
0000
,
0010
0100
0010
0000
,
0100
0010
0100
0000
,
0001
1000
0001
0000
,
1000
0001
1000
0000
,
0001
0001
0010
0000
,
0100
0100
0010
0000
,
0200
0300
0020
0030
,
2000
0000
0000
3000
,
0002
0003
0020
0030
,
2000
0000
0000
0000
0000
3000
0000
0000
,
0020
0030
0200
0300
,
0002
0000
0000
0003
,
2000
3000
0200
0300
,
0002
0000
0000
0000
0000
0003
0000
0000
,
2000
0000
0000
3000
,
0020
0030
0020
0030
,
2000
3000
0010
0000
,
0020
0030
1000
0000
,
0002
0003
1000
0000
,
2000
3000
0001
0000
,
0020
0030
0100
0000
,
0200
0300
0010
0000
,
2002
0000
0000
3003
,
0020
0030
0200
0300
,
1001
0000
0000
0100
,
0100
0100
0010
0010
,
0010
0000
0100
0100
,
0100
0000
0000
2000
0000
0000
0000
3000
,
0010
0000
0000
1000
,
1000
1000
0001
0001
,
0001
0000
0100
0200
,
0000
0000
0000
0300
0001
0000
0000
0000
,
0100
0001
0100
0000
,
0100
0010
0100
0000
,
1000
0000
0100
0000
,
0010
1000
1000
0000
,
0100
0001
0001
0000
,
0010
0100
0100
0000
,
0010
0000
0100
0000
,
0010
0100
0010
0000
,
0100
0010
0001
0000
,
0001
0100
1000
0000
,
1000
0100
0002
0000
,
0003
0000
0020
0000
,
0030
0000
0200
0000
,
0300
0000
2000
0000
,
3000
0000
0010
0100
,
0010
0000
0001
0000
,
0010
1000
0010
0000
,
0010
0100
0010
0000
,
0001
0000
0010
0000
,
0100
0001
0001
0000
,
0010
1000
1000
0000
,
0100
0010
0010
0000
,
0100
0000
0010
0000
,
0100
0010
0100
0000
,
0010
0100
1000
0000
,
1000
0010
0001
0000
,
0001
0010
2000
0000
,
3000
0000
0200
0000
,
0300
0000
0020
0000
,
0030
0000
0001
0010
,
0001
0010
0002
0000
,
0000
0000
0000
0000
0000
0000
0000
0003
;

//--------------- dance-single - Mad Guns22 ----------------
#NOTES:
     dance-single:
     Mad Guns22:
     Medium:
     5:
     0.334,0.505,0.144,0.46,0.097:
0000
0000
0000
0000
,
0000
0000
0000
0000
,
0000
0000
0000
0000
,
0100
0010
0001
0100
,
1000
0100
0010
0100
,
0001
1000
0010
0100
,
1000
0001
0010
0100
,
0001
0001
0100
0010
,
1000
1000
0100
0000
,
2000
0000
0000
0000
3000
0020
0000
2030
,
0000
0000
0000
0000
0000
0000
0000
3000
,
0002
0000
0000
0000
0003
0200
0000
0320
,
0000
0000
0000
0030
,
0002
0000
0000
0000
0003
2000
0000
3020
,
0000
0000
0000
0000
0000
0000
0000
0030
,
2000
0000
0000
0000
3000
0020
0000
0032
,
0000
0000
0000
0000
0000
0203
0000
0000
,
2300
0000
3000
0002
0000
0003
2000
0000
0000
0000
0000
0000
3000
0000
0000
0000
,
0200
0000
0000
0000
0300
0000
0000
0000
0200
0000
0300
0020
0000
0030
0010
0010
,
1000
0000
0000
0100
0000
0000
0020
0000
0030
0000
0000
0000
0000
1000
1000
2000
,
0000
0000
3000
0000
0000
0000
1000
0002
0000
0000
0003
0000
0000
1000
0001
1000
,
0002
0000
0000
0023
0000
0000
2030
0000
0000
3000
0000
0000
0000
0100
0100
0200
,
0000
0000
0000
0000
0300
0000
0100
0002
0000
0000
0003
0000
0000
0010
0100
0010
,
0100
0000
0000
0010
0000
0000
0200
0000
0000
0000
0300
0000
0000
0000
0100
0020
,
0000
0000
0000
0000
0000
0000
0030
1000
0001
1000
0001
1000
0002
0000
0203
0000
,
0320
0000
0000
0000
0000
0000
0000
0000
0030
0000
0000
0000
0000
0000
0000
0010
,
0000
0000
0100
1000
0000
0000
0000
1000
0001
1000
0001
1000
0002
0000
2000
3003
,
2002
0000
0000
0000
3000
0003
0200
0000
0000
0000
0300
0000
2002
0000
0000
0000
,
3000
0003
0200
0320
,
0032
0003
0020
2030
,
0200
0000
3000
0020
0000
0000
0000
0330
,
2020
0000
3030
0002
0000
0003
0220
0000
,
0030
0300
0002
2003
,
3200
0000
0300
0000
2000
0000
3010
0010
,
1000
0000
0000
0001
0000
0000
2000
3000
0010
0000
0000
0000
1001
0000
0000
0000
,
0100
0001
0100
1001
,
0010
0000
0100
0000
0001
0000
0000
0020
,
0000
0030
0010
0000
0010
0000
0100
0000
,
0100
0000
0010
0100
0010
0000
1001
0000
,
0001
0000
0001
1000
0001
0000
0110
0000
,
1000
0000
0001
0010
0001
0000
0000
2000
,
0000
3000
1000
0000
0001
0000
0000
1000
,
0000
0010
0100
1001
,
0010
1000
0010
1001
,
0100
0000
0010
0000
1000
0001
1000
0001
,
1000
1000
0200
0000
,
0300
0000
0100
0010
0100
0000
1001
0000
,
1000
0000
1000
0001
1000
0000
0110
0000
,
0001
0000
1000
0100
1000
0000
0000
0002
,
0000
0003
0001
0000
1000
0000
0000
0100
,
0000
1000
1000
0101
,
0010
0001
0010
0101
,
1000
0000
0010
0000
0001
0000
0000
2000
,
0000
3000
1000
0000
1000
0000
0010
0000
,
0010
0000
1000
0010
1000
0000
0101
0000
,
0001
0000
0001
0100
0001
0000
1010
0000
,
0100
0000
0001
1000
0001
0000
0000
0200
,
0000
0300
0100
0000
0001
0000
0000
0100
,
0000
1000
0010
0101
,
1000
0100
1000
0101
,
0010
0000
1000
0000
0100
0001
0100
0001
,
0100
0100
0020
0000
,
0030
0000
0010
1000
0010
0000
0101
0000
,
0100
0000
0100
0001
0100
0000
1010
0000
,
0001
0000
0000
0010
0100
0010
0100
0010
,
0100
0000
0000
0000
0001
0000
0000
0000
0000
2000
0000
0000
0000
0000
0000
0000
,
0000
0000
0000
0000
0000
0000
0000
3000
;

//--------------- dance-single - Mad Guns22 ----------------
#NOTES:
     dance-single:
     Mad Guns22:
     Hard:
     7:
     0.449,0.554,0.324,0.532,0.104:
0000
0000
0000
0000
,
0000
0000
0000
0000
,
0000
0000
0000
0000
,
1000
0000
1100
0001
0010
0000
0110
0000
,
0001
0000
0011
1000
0100
0000
1010
0000
,
0001
0000
0011
1000
0100
0000
0110
0000
,
1000
0000
1100
0001
0010
0000
0101
0000
,
1000
0000
0101
1000
0010
0000
1100
0000
,
0010
0000
0101
0010
1000
0000
0000
MMMM
,
2010
0000
0010
0000
3001
0200
0000
0320
,
0000
0000
1000
0000
0100
0000
0100
0030
,
0002
0000
0100
0000
0103
2000
0000
3200
,
0000
0000
1000
0000
0010
0000
0300
MMMM
,
0002
0000
0010
0000
1003
0020
0000
0230
,
0000
0000
0001
0000
0010
0000
0001
0300
,
0020
0000
1000
0000
1030
0200
0000
0302
,
0000
0000
0010
0000
0100
2003
0000
0000
,
3020
0000
0030
0002
0000
0003
0200
0000
0000
0000
0000
0000
0300
0000
0000
0000
,
2000
0000
0100
0010
3000
0000
0000
0000
0002
0000
0013
0200
0000
0000
0301
0001
,
0011
0000
0000
0011
0000
0000
2200
0000
3300
0000
0000
0000
0000
0010
0100
2000
,
0000
0000
0000
0000
3000
0000
0010
0002
0000
0000
0003
0000
0000
0010
0100
1000
,
0002
0000
0000
0203
0000
0000
0320
0000
0000
0030
0000
0000
0000
0100
1000
0020
,
0000
0000
0000
0000
0000
0030
1000
0002
0000
0000
0003
0000
0000
0010
0100
1000
,
0011
0000
0000
0110
0000
0000
0022
0000
0000
0000
0033
0000
0000
0000
1000
0200
,
0000
0000
0000
0000
0000
0000
0300
0010
0001
0010
0100
1000
0200
0000
0320
0000
,
0032
0000
0000
0000
0000
0000
0000
0000
0003
0000
0000
0000
0000
0000
0000
1000
,
0000
0000
0100
0010
0000
0000
0000
0010
0100
1000
0100
0010
0002
0000
2000
3003
,
0220
0000
0330
2000
0000
3000
0022
0000
,
0030
0003
2000
3200
,
0302
0003
0200
0320
,
2000
0000
0030
0002
0000
0000
0000
3003
,
0220
0000
0330
0002
0000
0003
2200
0000
,
0300
3000
0002
0023
,
2030
0000
3000
0000
0020
0000
0130
0100
,
0010
0000
0000
0100
0000
0000
0002
0000
1003
0000
0010
0000
1100
0000
0000
0000
,
1000
0000
1000
0001
1000
0100
0011
0000
,
0100
0000
1000
0100
0001
0010
0000
2200
,
0000
3300
0001
1000
0001
0000
0010
1000
,
0100
0000
0100
1000
0001
0100
0011
0000
,
0001
0000
0001
1000
0001
0010
1100
0000
,
0010
0000
0001
0010
1000
0100
0000
0022
,
0000
0033
1000
0001
1000
0000
0100
0001
,
0010
0100
0010
0100
0001
0100
0011
0000
,
0001
0000
0001
1000
0001
0010
1100
0000
,
0010
0000
0001
0010
1000
0100
0010
1000
,
0001
1000
2002
0000
,
3003
0000
0010
0001
1000
0010
1100
0000
,
1000
0000
1000
0001
1000
0100
0011
0000
,
0100
0000
1000
0100
0001
0010
0000
2200
,
0000
3300
0001
1000
0001
0000
0010
1000
,
0100
0010
0100
1000
0100
1000
0110
0000
,
0100
0000
0100
0001
0100
0010
1001
0000
,
0010
0000
0100
0010
0001
1000
0000
0220
,
0000
0330
0001
0100
0001
0000
1000
0100
,
0010
0000
0010
0100
0001
0010
1001
0000
,
0001
0000
0001
0100
0001
1000
0110
0000
,
1000
0000
0001
1000
0100
0010
0000
2002
,
0000
3003
0100
0001
0100
0000
0010
0001
,
1000
0010
1000
0010
0001
0010
1001
0000
,
0001
0000
0001
0100
0001
1000
0110
0000
,
1000
0000
0001
1000
0100
0010
1000
0100
,
0001
0100
0202
0000
,
0303
0000
1000
0001
0100
1000
0110
0000
,
0100
0000
0100
0001
0100
0010
1001
0000
,
0010
0000
0100
0010
0100
0001
0100
0010
,
1000
1000
0020
0000
,
0000
0000
0000
0000
0000
0000
0000
0000
0000
0000
0000
0000
0000
0000
0000
0000
0000
0000
0000
0000
0000
0000
0000
0000
0000
0000
0000
0000
0000
0000
0000
0000
0000
0000
0000
0000
0000
0000
0000
0000
0000
0000
0000
0000
0000
0000
0000
0000
0200
0000
0000
0000
0000
0000
0000
0000
0330
0000
0000
0MM0
0000
0000
0000
0000
;
