#TITLE:Status Excessu D;
#SUBTITLE:;
#ARTIST:Armin van Buuren pres Gaia;
#TITLETRANSLIT:;
#SUBTITLETRANSLIT:;
#ARTISTTRANSLIT:;
#GENRE:;
#CREDIT:Mad Guns22;
#MUSIC:Status Excessu D.mp3;
#BANNER:Status Excessu D.png;
#BACKGROUND:Status Excessu D-bg.png;
#CDTITLE:MadGuns22Icon.png;
#SAMPLESTART:113.803;
#SAMPLELENGTH:12.000;
#SELECTABLE:YES;
#OFFSET:-0.906;
#BPMS:0.000=136.000;
#STOPS:;
#DISPLAYBPM:136.000;
#BGCHANGES:;
#FGCHANGES:;

//--------------- dance-single - Mad Guns22 ----------------
#NOTES:
     dance-single:
     Mad Guns22:
     Challenge:
     11:
     0.702,0.901,0.175,0.101,1:
0000
0000
0000
0000
,
0000
0000
0000
0000
,
1000
0100
0000
0000
0000
0000
0000
0010
0000
0010
0000
0000
0000
0000
0000
0000
,
0010
0100
0000
0000
0000
0000
0000
0001
0000
1000
0000
0000
0000
0000
0000
0000
,
0010
0100
0000
0000
0000
0000
0000
0001
0000
0100
0000
0000
0000
0000
0000
0000
,
1000
0001
0000
0000
0000
0000
0000
0000
1000
0000
0100
0000
1000
0000
0100
0000
,
0010
0100
0001
0100
0010
0100
0010
0100
,
1000
0100
0010
0001
1000
0100
0010
0001
,
1000
0100
1000
0010
1000
0001
1000
0100
,
1000
0010
1000
0001
1000
0010
1000
0100
,
0010
0001
0010
0100
0010
1000
0010
0100
,
0010
0001
0010
0001
0010
1000
0010
0100
,
0001
0010
0001
0100
0001
0100
0001
0010
,
0001
1000
0001
0100
0001
0010
0001
0100
,
1000
0010
1000
0100
1000
0010
1000
0001
,
1000
0000
0010
0100
1000
0000
0100
0010
0001
0000
0010
0100
1000
0000
0100
0000
,
0020
M000
0M00
000M
,
M000
0M00
000M
M000
,
000M
0M00
M000
000M
,
2M30
00M0
000M
0M00
,
00M2
0M00
00M0
0M00
,
00M0
0M00
00M0
0M00
,
32M3
000M
M000
00M0
,
000M
00M0
000M
M000
,
M322
0M00
M000
0M00
,
2M03
000M
0M00
000M
,
0M32
00M0
0M00
00M0
,
32M0
M000
00M0
M000
,
20M3
000M
00M0
000M
,
032M
0M00
000M
000M
,
3M02
M000
0M00
M000
,
M230
0000
00M0
0000
M000
0000
0000
0303
,
1000
0100
0010
0001
1000
0100
0010
0001
1000
0100
0001
0010
1000
0100
0001
0010
,
0100
1000
0001
0010
0100
0010
0001
1000
0100
0010
0001
0010
0100
0010
0001
0010
,
0001
0010
0100
1000
0001
0010
0100
1000
0001
0010
0100
0010
0001
0010
0100
0010
,
1000
0100
1000
0100
1000
0100
1000
0100
1000
0010
1000
0010
1000
0010
1000
0010
,
1000
0001
1000
0001
1000
0001
1000
0001
1000
0001
1000
0001
1000
0001
1000
0001
,
1000
0100
0010
0001
1000
0100
0010
0001
1000
0100
0010
0100
1000
0100
0010
0100
,
0001
0010
0001
0010
0001
0010
0001
0010
0001
0100
0001
0100
0001
0100
0001
0100
,
0001
1000
0001
1000
0001
1000
0001
1000
0001
1000
0001
1000
0001
1000
0001
1000
,
0001
0010
0100
1000
0001
0010
0100
1000
0001
1000
0010
1000
0001
1000
0010
1000
,
0100
0010
0001
1000
0100
0010
0001
1000
0010
1000
0100
1000
0010
1000
0100
1000
,
0001
0010
0100
1000
0001
0010
0100
1000
0001
0010
0001
0100
0001
0010
0001
0010
,
1000
0100
0010
0001
1000
0100
0010
0001
1000
0010
0100
1000
0001
0010
0100
1000
,
0010
0100
1000
0010
0100
0001
0010
0100
1000
0010
0100
0001
0010
0100
0010
0100
,
1000
0001
0100
0010
0100
0001
0100
1000
0100
0001
0100
0010
0100
0001
0100
0010
,
1000
0010
0100
0001
0010
0100
1000
0010
0100
0001
0010
0100
1000
0001
0010
0100
,
1000
0100
0010
0001
0100
1000
0010
0001
1000
0001
1000
0001
1000
0001
1000
0001
,
0100
0001
0100
0001
0000
0100
0000
0000
1000
0000
0000
0101
0000
0000
0001
0000
,
1000
0100
1000
0100
0000
1000
0000
0000
0100
0000
0000
0011
0000
0000
1000
0000
,
0010
0100
0010
0100
0000
0010
0000
0000
0001
0000
0000
0110
0000
0000
0001
0000
,
1000
0100
1000
0100
0000
1000
0000
0000
0010
0000
0000
0110
0000
0000
1000
0000
,
0001
0010
0100
1000
0000
0001
0000
0000
1000
0000
0000
1100
0000
0000
0100
0000
,
0001
0010
0100
1000
0000
0001
0000
0000
0001
0000
0000
0011
0000
0000
0010
0000
,
1000
0100
0010
0001
0000
1000
0000
0000
0010
0000
0000
1001
0000
0000
0100
0000
,
0010
0001
1000
0100
0000
0010
0000
0000
0100
0000
0000
1001
0000
0000
1000
0000
,
0001
0010
0001
0010
0001
0010
0001
0010
0001
0010
0001
0010
0001
0010
0001
0010
,
0001
0100
0001
0100
0001
0100
0001
0100
0001
0100
0001
0100
0001
0100
0001
0100
,
1000
0100
1000
0100
1000
0100
1000
0100
1000
0100
1000
0100
1000
0100
1000
0100
,
1000
0010
1000
0010
1000
0010
1000
0010
1000
0010
1000
0010
1000
0010
1000
0010
,
0100
0010
0100
0010
0100
0010
0100
0010
1000
0010
1000
0010
1000
0010
1000
0010
,
1000
0001
1000
0001
1000
0001
1000
0001
0100
0001
0100
0001
0100
0001
0100
0001
,
1000
0001
1000
0001
1000
0001
1000
0001
1000
0010
1000
0010
1000
0010
1000
0010
,
0001
0010
0001
0010
0001
0010
0001
0010
0001
0100
0001
0100
0001
0100
0001
0100
,
0001
0010
0001
0010
0000
0001
0000
0000
1000
0000
0000
0011
0000
0000
0010
0000
,
1000
0001
1000
0001
0000
1000
0000
0000
0001
0000
0000
0110
0000
0000
1000
0000
,
0100
0001
0100
0001
0000
0100
0000
0000
0010
0000
0000
0101
0000
0000
0010
0000
,
1000
0001
1000
0001
0000
1000
0000
0000
0100
0000
0000
0101
0000
0000
1000
0000
,
0010
0100
0001
1000
0000
0010
0000
0000
1000
0000
0000
1001
0000
0000
0001
0000
,
0010
0100
0001
1000
0000
0010
0000
0000
0010
0000
0000
0110
0000
0000
0100
0000
,
1000
0001
0100
0010
0000
1000
0000
0000
0100
0000
0000
1010
0000
0000
0001
0000
,
0100
0010
1000
0001
0000
0100
0000
0000
0001
0000
0000
1010
0000
0000
1000
0000
,
0001
1000
0001
1000
0000
0001
0000
0000
0100
0000
0000
1001
0000
0000
1000
0000
,
0100
0001
0100
0001
0000
0100
0000
0000
0001
0000
0000
1010
0000
0000
0100
0000
,
0010
0001
0010
0001
0000
0010
0000
0000
1000
0000
0000
0011
0000
0000
1000
0000
,
0100
0001
0100
0001
0000
0100
0000
0000
0010
0000
0000
0011
0000
0000
0100
0000
,
1000
0010
0001
0100
0000
1000
0000
0000
0100
0000
0000
0101
0000
0000
0001
0000
,
1000
0010
0001
0100
0000
1000
0000
0000
1000
0000
0000
1010
0000
0000
0010
0000
,
0100
0001
0010
1000
0000
0100
0000
0000
0010
0000
0000
1100
0000
0000
0001
0000
,
0010
1000
0100
0001
0000
0010
0000
0000
0001
0000
0000
1100
0000
0000
0100
0000
,
2200
0000
0000
0000
,
0000
0000
0000
0000
,
0000
0000
0000
0000
,
0000
0000
0000
3300
;
