#TITLE:Shind Bad;
#SUBTITLE:;
#ARTIST:DJ Sharpnel;
#TITLETRANSLIT:;
#SUBTITLETRANSLIT:;
#ARTISTTRANSLIT:;
#GENRE:J-Core;
#CREDIT:Mad Guns22;
#MUSIC:Shind Bad.mp3;
#BANNER:Project default banner.png;
#BACKGROUND:Project default background.png;
#CDTITLE:MadGuns22Icon.png;
#SAMPLESTART:38.866;
#SAMPLELENGTH:12.000;
#SELECTABLE:YES;
#OFFSET:-0.030;
#BPMS:0.000=197.600;
#STOPS:;
#DISPLAYBPM:197.600;
#BGCHANGES:;
#FGCHANGES:;

//--------------- dance-single - Mad Guns22 ----------------
#NOTES:
     dance-single:
     Mad Guns22:
     Beginner:
     2:
     0.135,0.165,0.07,0.077,0:
0000
0000
0000
0000
,
0000
0000
0000
0000
,
0000
0000
0000
0000
,
0000
0000
0000
0000
,
0100
0000
0000
0000
,
0100
0000
0000
0000
,
0001
0000
0000
0000
,
0001
0000
0000
0000
,
0010
0000
0000
0000
,
0100
0000
0000
0000
,
0100
0000
0000
0000
,
0010
0000
0000
0000
,
0010
0000
0000
0000
,
1000
0000
0000
0000
,
0100
0000
0000
0000
,
2000
0000
3000
0000
,
0001
0000
0000
0000
,
0100
0000
0000
0000
,
1000
0000
0000
0000
,
0100
0000
0000
0000
,
0001
0000
0000
0000
,
0010
0000
0000
0000
,
0001
0000
0000
0000
,
0010
0000
0000
0000
,
1010
0000
0000
0000
,
0010
0000
0000
0000
,
0001
0000
0000
0000
,
0010
0000
0000
0000
,
0100
0000
0000
0000
,
1000
0000
0000
0000
,
0100
0000
0000
0000
,
0200
0000
0300
0000
,
0010
0000
0000
0000
,
0001
0000
0000
0000
,
0100
0000
0000
0000
,
1000
0000
0000
0000
,
1000
0000
0000
0000
,
0100
0000
0000
0000
,
0001
0000
0000
0000
,
0010
0000
0000
0000
,
1000
0000
0000
0000
,
1000
0000
0000
0000
,
0001
0000
0000
0000
,
0001
0000
0000
0000
,
0001
0000
0000
0000
,
0001
0000
0000
0000
,
0010
0000
0000
0000
,
2000
0000
3000
0000
,
1000
0000
0000
0000
,
0100
0000
0000
0000
,
0020
0000
0030
0000
,
0002
0000
0003
0000
,
0010
0000
0000
0000
,
1000
0000
0000
0000
,
0100
0000
0000
0000
,
0001
0000
0000
0000
,
0100
0000
0000
0000
,
0001
0000
0000
0000
,
0010
0000
0000
0000
,
0100
0000
0000
0000
,
0010
0000
0000
0000
,
1000
0000
0000
0000
,
0100
0000
0000
0000
,
0010
0000
0000
0000
,
0100
0000
0000
0000
,
0010
0000
0000
0000
,
0001
0000
0000
0000
,
0200
0000
0000
0300
,
0110
0000
0000
0000
,
0010
0000
0000
0000
,
0010
0000
0000
0000
,
0100
0000
0000
0000
,
0110
0000
0000
0000
,
0100
0000
0000
0000
,
0100
0000
0000
0000
,
1000
0000
0000
0000
,
0011
0000
0000
0000
,
1000
0000
0000
0000
,
1100
0000
0000
0000
,
0001
0000
0000
0000
,
0110
0000
0000
0000
,
1001
0000
0000
0000
,
0200
0000
0300
0000
,
0020
0000
0030
0000
,
0110
0000
0000
0000
,
0001
0000
0000
0000
,
0010
0000
0000
0000
,
0001
0000
0000
0000
,
0100
0000
0000
0000
,
1000
0000
0000
0000
,
0100
0000
0000
0000
,
1000
0000
0000
0000
,
1010
0000
0000
0000
,
1000
0000
0000
0000
,
0010
0000
0000
0000
,
1000
0000
0000
0000
,
0100
0000
0000
0000
,
0001
0000
0000
0000
,
0100
0000
0000
0000
,
0002
0000
0003
0000
,
1001
0000
0000
0000
,
0100
0000
0000
0000
,
1000
0000
0000
0000
,
0100
0000
0000
0000
,
0010
0000
0000
0000
,
0010
0000
0000
0000
,
0001
0000
0000
0000
,
0010
0000
0000
0000
,
0010
0000
0000
0000
,
1000
0000
0000
0000
,
0010
0000
0000
0000
,
0100
0000
0000
0000
,
0100
0000
0000
0000
,
0001
0000
0000
0000
,
0010
0000
0000
0000
,
0200
0000
0300
0000
,
0001
0000
0000
0000
,
0002
0000
0000
0000
,
0003
0000
0000
0000
;

//--------------- dance-single - Mad Guns22 ----------------
#NOTES:
     dance-single:
     Mad Guns22:
     Easy:
     5:
     0.35,0.37,0.139,0.091,0:
0000
0000
0000
0000
,
0000
0000
0000
0000
,
0000
0000
0000
0000
,
0000
0000
0000
0000
,
0001
1000
0100
0000
,
0001
1000
0100
0000
,
1000
0010
0100
0000
,
1000
0010
0100
0000
,
1100
0000
0001
1000
,
0001
0000
0100
1000
,
0001
0000
0100
0010
,
0100
0000
0001
0010
,
0100
0000
0010
1000
,
0010
0000
0100
0010
,
0001
0000
0010
0001
,
0020
0000
0000
0000
0000
0000
0000
0030
,
1010
1000
1000
0000
,
0001
0010
0001
0000
,
0010
1000
1000
0000
,
0001
0010
0001
0000
,
1000
0010
0010
0000
,
0100
1000
0100
0000
,
1000
0010
0010
0000
,
0100
1000
0100
0000
,
0110
1000
0001
0000
,
0100
1000
0100
0000
,
0100
1000
0001
0000
,
0100
1000
0100
0000
,
0001
0010
0100
0000
,
0001
0010
0001
0000
,
0001
0010
0100
0000
,
0002
0000
0000
0003
,
0100
0010
0010
0000
,
1000
0010
0010
0000
,
0001
1000
1000
0000
,
0010
1000
1000
0000
,
0010
0100
0100
0000
,
0001
0100
0100
0000
,
1000
0001
0001
0000
,
0100
0001
0001
0000
,
0010
1000
0001
0000
,
0010
1000
0001
0000
,
1000
0010
0100
0000
,
1000
0010
0100
0000
,
1000
0001
0100
0000
,
1000
0001
0100
0110
,
0100
0010
0100
0010
,
0020
0200
0000
0330
,
0010
0010
0001
1000
,
0001
0010
0001
0110
,
0200
1300
0002
0013
,
2000
0000
0000
3000
,
0100
0010
1000
0000
,
0010
1000
0001
0000
,
0001
1000
0010
0000
,
1000
0010
0100
0000
,
0001
1000
0001
0000
,
1000
0001
0100
0000
,
0100
0001
1000
0000
,
0001
1000
0010
0000
,
0100
0010
0100
0000
,
0010
0100
0001
0000
,
0001
0100
0010
0000
,
0100
0010
1000
0000
,
0001
0100
0001
0000
,
0100
0001
1000
0000
,
1000
0001
0100
0000
,
0002
0000
0000
0003
,
0101
0000
0101
0000
,
0100
0001
1000
0000
,
0100
1000
0001
0000
,
1000
0001
0100
0000
,
0101
0000
0101
0000
,
0001
0100
0010
0000
,
0001
0010
0100
0000
,
0010
0100
0001
0000
,
1100
1001
0000
1000
,
0010
0000
0010
0000
,
0011
0110
0000
0010
,
1000
0000
0100
0000
,
0101
0000
0101
0000
,
1010
0000
1010
0000
,
0002
0000
0000
0000
,
2000
0000
0000
3003
,
0101
0001
0001
0000
,
1000
0100
1000
0000
,
0100
0001
0001
0000
,
1000
0100
1000
0000
,
0001
0100
0100
0000
,
0010
0001
0010
0000
,
0001
0100
0100
0000
,
0010
0001
0010
0000
,
0110
0001
1000
0000
,
0010
0001
0010
0000
,
0010
0001
1000
0000
,
0010
0001
0010
0000
,
0001
0100
0010
0000
,
1000
0100
1000
0000
,
0001
0100
0010
0000
,
2000
0000
0000
3000
,
1010
1000
1000
0000
,
0001
0010
0001
0000
,
0010
1000
1000
0000
,
0001
0010
0001
0000
,
0100
0010
0010
0000
,
0100
1000
0100
0000
,
1000
0010
0010
0000
,
0100
1000
0100
0000
,
0100
0000
0001
0000
,
0100
0000
0100
0000
,
0100
0000
0001
0000
,
0100
0000
0100
0000
,
0001
0000
0100
0000
,
0001
0000
0001
0000
,
0001
0000
0100
0000
,
0002
0000
0000
0003
,
1000
0001
1000
0001
,
1000
0000
1000
0000
2000
0000
0000
3000
;

//--------------- dance-single - Mad Guns22 ----------------
#NOTES:
     dance-single:
     Mad Guns22:
     Medium:
     8:
     0.546,0.534,0.356,0.049,0:
0000
0000
0000
0000
,
0000
0000
0000
0000
,
0000
0000
0000
0000
,
0000
0000
0000
0000
,
1000
0010
0001
0100
,
1000
0010
0001
0100
,
0010
0100
0001
1000
,
0010
0100
0001
1000
,
0011
0000
1000
0010
1000
0000
0010
0000
,
1000
0100
0001
0010
,
1000
0000
0001
0100
0001
0000
0100
0000
,
0001
0010
1000
0100
,
0001
0000
0100
0001
0100
0000
0010
0000
,
0100
0000
0001
1000
0001
0000
0100
0000
,
1000
0000
0100
0010
0100
0000
1000
0000
,
0400
0000
0000
0000
0000
0000
0000
0000
0000
0000
0000
0000
0000
0300
0010
0000
,
0110
0000
0010
0001
0010
0000
0010
0000
,
1000
0100
1000
0001
,
0110
0000
0010
0001
0010
0000
0010
0000
,
1000
0100
1000
0001
,
0110
0000
0100
0010
0100
0000
1000
0000
,
0001
0010
0001
1000
,
0110
0000
0100
0010
0100
0000
1000
0000
,
0001
0010
0001
1000
,
0101
0000
0010
0001
1000
0000
0100
0000
,
0001
0010
0001
0100
,
0101
0000
0010
0001
1000
0000
0100
0000
,
0001
0010
0001
0100
,
1010
0000
0100
1000
0001
0000
0010
0000
,
1000
0100
1000
0010
,
1010
0000
0100
1000
0001
0000
0010
0000
,
2000
0001
0001
3001
,
0000
0010
0100
0000
0100
0000
0000
0011
,
0000
0010
0100
0000
0100
0000
0000
0011
,
0000
0100
0010
0000
0010
0000
0000
1100
,
0000
0100
0010
0000
0010
0000
0000
1100
,
0000
1000
0010
0000
0010
0000
0000
1100
,
0000
1000
0010
0000
0010
0000
0000
1100
,
0000
0010
1000
0000
1000
0000
0000
0011
,
0000
0010
1000
0000
1000
0000
0000
0011
,
0000
0100
0010
0000
1000
0000
0000
1001
,
0000
0100
0010
0000
1000
0000
0000
1001
,
0000
0010
0100
0000
0001
0000
0000
1001
,
0000
0010
0100
0000
0001
0000
0000
1001
,
0000
0010
1000
0000
0001
0000
0000
0101
,
0000
0010
1000
0000
0001
0000
0000
0101
,
0000
0001
0100
0010
1000
0001
0100
0010
,
1000
0001
1000
0002
0000
0000
0000
0003
,
1000
0100
1000
0010
,
1000
0100
1000
0101
,
0001
0001
0010
0010
1000
1000
0100
0100
,
0010
0001
0010
0100
,
0011
0100
0010
1000
,
0100
0010
1000
0010
,
1000
0010
0100
0001
,
0010
0100
0001
0100
,
1000
0010
1000
0001
,
0010
1000
0001
1000
,
0001
1000
0010
0100
,
1000
0010
0100
0010
,
0011
0100
0001
1000
,
0100
0001
1000
0001
,
1000
0001
0100
0010
,
0001
0100
0010
0100
,
1000
0001
1000
0010
,
0001
1000
0010
1000
,
0010
1000
0001
0100
,
2000
0000
0000
3000
,
1001
0110
1001
0110
,
0001
1000
0010
0100
,
0001
0010
1000
0100
,
0010
1000
0001
1000
,
1001
0110
1001
0110
,
1000
0001
0100
0010
,
1000
0100
0001
0010
,
0100
0001
1000
0001
,
0011
1010
0000
0010
,
0100
0000
0010
0000
1000
0001
1000
0001
,
1100
0101
0000
0100
,
0010
0000
0100
0000
0001
1000
0001
1000
,
0001
0000
0001
1000
0001
0000
1000
0001
,
1000
0001
0010
0100
,
2000
0000
0000
0000
,
0010
0010
0010
3010
,
1010
0000
1000
0100
1000
0000
1000
0000
,
0001
0010
0001
0100
,
1010
0000
1000
0100
1000
0000
1000
0000
,
0001
0010
0001
0100
,
1010
0000
0010
1000
0010
0000
0001
0000
,
0100
1000
0100
0001
,
1010
0000
0010
1000
0010
0000
0001
0000
,
0100
1000
0100
0001
,
0110
0000
1000
0100
0001
0000
0010
0000
,
0100
1000
0100
0010
,
0110
0000
1000
0100
0001
0000
0010
0000
,
0100
1000
0100
0010
,
1001
0000
0010
0001
0100
0000
1000
0000
,
0001
0010
0001
1000
,
1001
0000
0010
0001
0100
0000
1000
0000
,
0002
0100
0100
0103
,
0101
0000
0001
0010
0001
0000
0001
0000
,
1000
0100
1000
0010
,
0101
0000
0001
0010
0001
0000
0001
0000
,
1000
0100
1000
0010
,
0101
0000
0100
0001
0100
0000
1000
0000
,
0010
0001
0010
1000
,
0101
0000
0100
0001
0100
0000
1000
0000
,
0010
0001
0010
1000
,
0110
0001
0000
0001
0000
1000
0000
0100
,
0000
0010
0000
0001
0000
0010
0000
0100
,
0000
0010
0000
0001
0000
1000
0000
0100
,
0000
0010
0000
0001
0000
0010
0000
0100
,
0000
1000
0000
0100
0000
0010
0000
0001
,
0000
1000
0000
0100
0000
1000
0000
0001
,
2000
0010
0000
0010
0000
0010
0000
0010
,
0000
0001
0000
0001
0000
0001
3000
0001
,
1000
1000
0100
0100
0001
0001
0010
0010
,
0100
0010
0000
1000
0000
0002
0000
0003
;
