#TITLE:Ramazing;
#SUBTITLE:;
#ARTIST:RAM;
#TITLETRANSLIT:;
#SUBTITLETRANSLIT:;
#ARTISTTRANSLIT:;
#GENRE:Trance;
#CREDIT:Mad Guns22;
#MUSIC:Ramazing.mp3;
#BANNER:Project default banner.png;
#BACKGROUND:Project default background.png;
#CDTITLE:MadGuns22Icon.png;
#SAMPLESTART:85.217;
#SAMPLELENGTH:12.000;
#SELECTABLE:YES;
#OFFSET:-0.025;
#BPMS:0.000=138.000
,192.000=276.000
,195.000=138.000
;
#STOPS:192.000=0.054
,192.250=0.054
,192.500=0.054
,192.750=0.054
,193.000=0.054
,193.250=0.054
,193.500=0.054
,193.750=0.054
,194.000=0.054
,194.250=0.054
,194.500=0.054
,194.750=0.054
;
#DISPLAYBPM:138.000;
#BGCHANGES:;
#FGCHANGES:;

//--------------- dance-single - Mad Guns22 ----------------
#NOTES:
     dance-single:
     Mad Guns22:
     Hard:
     9:
     0.549,0.805,0.064,0.291,0.461:
0000
0000
0000
0000
,
0000
0000
0000
0000
,
0000
0000
0000
0000
,
0000
0000
0000
0000
,
1000
0100
1000
0000
0100
0010
0100
0000
,
0010
1000
0010
0000
1000
0001
1000
0000
,
0001
0010
0001
0000
0010
0100
0010
0000
,
0100
0001
0100
0000
0001
1000
0001
0000
,
0010
0100
0001
1000
0100
1000
0001
0100
,
0020
0000
0000
0000
0000
0030
0200
0300
,
2000
0000
0000
3000
0002
0003
0010
1000
,
0002
0000
0000
0000
0000
0000
0000
0003
,
0000
0100
0000
0010
0000
0001
0000
0010
,
0000
1000
0000
0100
0000
0010
0000
0100
,
0000
0001
0000
1000
0000
0100
0000
1000
,
0000
0010
0000
0100
0000
0001
0000
2000
,
0000
0000
0000
0000
0000
3000
0100
0010
,
0102
0000
0000
0003
0000
0000
1000
0000
,
0200
0000
0000
0300
0010
0000
0001
0100
,
0020
0000
0000
0000
0000
0000
0000
0030
,
2000
0000
0000
3000
0010
0000
0001
1000
,
0200
0000
0000
0000
0000
0000
0000
0300
,
0020
0030
0002
0003
,
0020
0000
0000
0000
0000
0030
1000
0000
,
0200
0000
0000
0300
0002
0000
0000
0003
,
0020
0000
0000
0030
,
0200
0000
0000
0300
1000
0000
0001
0010
,
2000
0000
0000
0000
,
0000
0000
0000
3000
0200
0000
0000
0300
,
0020
0000
0000
0000
0000
0000
0000
0030
,
2000
0000
0000
3000
0002
0000
0000
0003
,
2000
0000
0000
0000
0000
0000
0000
3000
,
0020
0000
0000
0000
0000
0000
0000
0030
,
0110
0000
0100
0010
0000
0000
0001
0010
0000
0000
0100
0010
0000
0000
1000
0010
,
0000
0000
0100
0001
0000
0000
0010
0001
0000
0000
1000
0001
0000
0010
0100
0001
,
0000
0000
0010
1000
0000
0000
0100
1000
0000
0000
0001
1000
0000
0000
0010
1000
,
0000
0000
0100
0001
0000
0000
0010
0001
0000
0000
1000
0001
0000
1000
0100
0001
,
1100
0000
0010
0100
0000
0000
0001
0100
0000
0000
1000
0010
0000
0000
0100
0010
,
0000
0000
0100
1000
0000
0000
0001
1000
0000
0000
0100
0010
0000
0100
1000
0010
,
0101
0000
0100
1000
0000
0000
0010
0001
0000
0000
0100
1000
0000
0000
0010
0000
,
1010
0000
0000
1001
0000
0000
0101
0000
,
1000
0100
1000
0100
1000
0100
1000
0100
0020
0000
0000
0000
0000
0000
0030
0000
,
0100
0001
0100
0001
0100
0001
0100
0001
2000
0000
0000
0000
0000
0000
3000
0000
,
0010
0001
0010
0001
0010
0001
0010
0001
0200
0000
0000
0000
0000
0000
0300
0000
,
1000
0010
1000
0010
1000
0010
1000
0010
0002
0000
0000
0000
0000
0000
0003
0000
,
0010
0001
0010
0001
0010
0001
0010
0001
0200
0000
0300
0000
0010
1000
0010
0000
,
0100
1000
0100
0000
0010
0001
0010
0000
1000
0100
0010
0000
0001
0010
0100
0000
,
1000
0010
0100
0010
1000
0100
1000
0010
1000
0010
0100
0010
1000
0010
0100
0010
,
1000
0001
1000
0001
1000
0100
1000
0100
1000
0010
1000
0010
2000
0000
0002
3003
,
0110
0000
0010
1000
0000
0000
0001
1000
0000
0000
0010
1000
0000
0000
0100
1000
,
0000
0000
0010
0001
0000
0000
1000
0001
0000
0000
0100
0001
0000
1000
0010
0001
,
0000
0000
1000
0100
0000
0000
0010
0100
0000
0000
0001
0100
0000
0000
1000
0100
,
0000
0000
0010
0001
0000
0000
1000
0001
0000
0000
0100
0001
0000
0100
0010
0001
,
0000
0000
1000
0010
0000
0000
0001
0010
0000
0000
0100
1000
0000
0000
0010
1000
,
0000
0000
0010
0100
0000
0000
0001
0100
0000
0000
0010
1000
0000
0010
0100
1000
,
0000
0000
0010
0100
0000
0000
1000
0001
0000
0000
0010
0100
0000
0000
1000
0001
,
0000
0000
0100
0001
0000
0000
0100
0010
0000
0000
0100
0000
1000
0100
0010
0001
,
1000
0000
0100
0000
0001
0000
0010
0000
1000
0000
0010
0000
0001
0000
0100
0010
,
0001
0000
0010
0000
1000
0000
0100
0000
0001
0000
0100
0000
1000
0000
0100
0010
,
0001
0000
0100
0000
1000
0000
0010
0000
1000
0000
0001
0000
1000
0000
0001
1000
,
0001
0000
0010
0000
0001
0000
0100
0000
0001
0000
1000
0000
0001
0000
1000
0001
,
0100
0000
0010
0000
1000
0000
0100
0000
0010
0000
0001
0000
0100
0000
0001
1000
,
0001
0010
0100
0001
1000
0001
0100
0010
,
0100
0010
0100
0000
0001
0010
0001
0000
0100
0010
0100
0000
1000
0100
1000
0000
,
1000
0010
1000
0100
1000
0010
1000
0100
1000
0010
1000
0100
0001
0000
1000
0000
,
0001
1000
0001
0100
0010
1000
0001
0010
,
0001
0100
0010
0001
0010
0100
1000
0100
,
0010
0001
0100
0010
1000
0100
0001
1000
,
0001
0100
0001
0010
1000
0100
1000
0010
,
1000
0001
1000
0010
0100
0001
1000
0100
,
1000
0010
0100
1000
0100
0010
0001
0010
,
0100
1000
0010
0100
0001
0010
1000
0001
,
1000
0000
0010
0000
1000
0000
0100
0000
0001
0000
0010
0000
0001
0000
0100
0010
,
2000
0000
0000
0000
0000
0000
0000
3000
,
0020
0000
0000
0030
0001
0000
1000
0100
,
0002
0000
0000
0000
,
0000
0000
0000
0003
0020
0000
0000
0030
,
0200
0000
0000
0000
0000
0000
0000
0300
,
0002
0000
0000
0003
2000
0000
0000
3000
,
0001
0010
0001
0000
1000
0100
1000
0000
0001
0010
0001
0000
1000
0100
1000
0000
,
0010
0001
0010
0001
0010
0001
0010
0001
1000
0100
1000
0100
2000
0000
0002
3003
,
0110
0000
0000
0000
;
