#TITLE:Paradise [Tiesto Remix];
#SUBTITLE:;
#ARTIST:Coldplay;
#TITLETRANSLIT:;
#SUBTITLETRANSLIT:;
#ARTISTTRANSLIT:;
#GENRE:House;
#CREDIT:Mad Guns22;
#MUSIC:Paradise [Tiesto Remix].mp3;
#BANNER:Project default banner.png;
#BACKGROUND:Project default background.png;
#CDTITLE:MadGuns22Icon.png;
#SAMPLESTART:73.834;
#SAMPLELENGTH:12.000;
#SELECTABLE:YES;
#OFFSET:-0.052;
#BPMS:0.000=65.000
,48.000=130.000
;
#STOPS:;
#DISPLAYBPM:130.000;
#BGCHANGES:;
#FGCHANGES:;

//--------------- dance-single - Mad Guns22 ----------------
#NOTES:
     dance-single:
     Mad Guns22:
     Beginner:
     1:
     0.085,0.092,0.054,0.04,0:
0000
0000
0000
0000
,
0000
0000
0000
0000
,
2000
0000
3000
0000
,
0200
0000
0300
0000
,
0100
0000
0100
0000
,
0010
0000
0010
0000
,
1000
0000
0001
0000
,
0001
0000
1000
0000
,
0200
0000
0300
0000
,
0002
0000
0003
0000
,
0020
0000
0030
0000
,
0100
0000
0010
0000
,
1000
0000
0000
0000
,
1000
0000
0000
0000
,
0100
0000
0000
0000
,
0010
0000
0000
0000
,
0001
0000
0000
0000
,
0001
0000
0000
0000
,
0100
0000
0010
0000
,
0100
0000
0010
0000
,
0110
0000
0000
0000
,
1010
0000
0000
0000
,
1001
0000
0000
0000
,
0101
0000
0000
0000
,
0110
0000
0000
0000
,
1001
0000
0000
0000
,
0110
0000
0000
0000
,
1001
0000
0000
0000
,
1000
0000
0000
0000
,
0100
0000
0000
0000
,
1000
0000
0000
0000
,
0001
0000
0000
0000
,
0010
0000
0000
0000
,
0100
0000
0000
0000
,
0001
0000
0000
0000
,
1000
0000
0000
0000
,
0001
0000
0000
0000
,
0010
0000
0000
0000
,
0001
0000
0000
0000
,
1000
0000
0000
0000
,
0100
0000
0000
0000
,
0010
0000
0000
0000
,
1000
0000
0000
0000
,
0001
0000
0000
0000
,
0100
0000
0000
0000
,
0001
0000
0000
0000
,
0100
0000
0000
0000
,
1000
0000
0000
0000
,
0010
0000
0000
0000
,
0001
0000
0000
0000
,
1000
0000
0000
0000
,
0100
0000
0000
0000
,
1000
0000
0000
0000
,
0010
0000
0000
0000
,
1000
0000
0000
0000
,
0100
0000
0000
0000
,
0001
0000
0000
0000
,
0010
0000
0000
0000
,
0100
0000
0000
0000
,
1000
0000
0000
0000
,
0010
0000
0000
0000
,
0010
0000
0000
0000
,
0100
0000
0000
0000
,
0100
0000
0000
0000
,
0001
0000
0000
0000
,
1000
0000
0000
0000
,
1000
0000
0000
0000
,
0100
0000
0000
0000
,
0020
0030
0000
0000
;

//--------------- dance-single - Mad Guns22 ----------------
#NOTES:
     dance-single:
     Mad Guns22:
     Easy:
     3:
     0.208,0.23,0.115,0.135,0:
0000
0000
0000
0000
,
0000
0000
0000
0000
,
0020
0000
0000
0030
0200
0000
0000
0300
,
2000
0000
0000
3000
0002
0000
0000
0003
,
1000
0002
2000
3003
,
0001
2000
0002
3003
,
0010
0200
0020
0330
,
0100
0020
0200
0330
,
2000
0000
0001
0000
3000
0001
0010
0000
,
0200
0000
0010
0000
0300
0001
1000
0000
,
0002
0000
1000
0000
0003
1000
0100
0000
,
1000
0001
0001
1000
,
0010
0100
0010
0000
,
0010
0100
0010
0000
,
1000
0001
1000
0000
,
0001
1000
0001
0000
,
0100
0010
0100
0000
,
0100
0010
0100
0000
,
1000
0001
0001
1000
,
1000
0001
0001
0010
,
1001
0000
1001
0000
,
0011
0000
0011
0000
,
0110
0000
0110
0000
,
1100
0000
1100
0000
,
1001
0000
1001
0000
,
0110
0000
0110
0000
,
1001
0000
1001
0000
,
0110
0000
0110
0000
,
0010
1000
0001
0000
,
0001
1000
0100
0000
,
0100
0010
0001
0000
,
1000
0100
0010
0000
,
0100
0001
1000
0000
,
1000
0001
0010
0000
,
0010
0100
1000
0000
,
0001
0010
0100
0000
,
1100
0000
0100
0010
,
0001
0000
0001
0010
,
0100
0000
1000
0001
,
0010
0000
0001
1000
,
1000
0000
1000
0001
,
0001
0000
0100
0010
,
0010
0000
0010
0100
,
0100
0000
1000
0001
,
0001
0000
0010
0100
,
1000
0000
1000
0100
,
0010
0000
0001
1000
,
0100
0000
1000
0001
,
0001
0000
0001
1000
,
1000
0000
0010
0100
,
0100
0000
0100
0010
,
0010
0000
0001
1000
,
0010
0000
0010
0000
,
0001
0000
1000
0000
,
0010
0000
0010
0000
,
1000
0000
0001
0000
,
0100
0000
0100
0000
,
0001
0000
0010
0000
,
1000
0000
1000
0000
,
0010
0000
0100
0000
,
0002
0000
1003
0000
,
0000
0001
1000
0000
,
2000
0000
3001
0000
,
0000
1000
0001
0000
,
0020
0000
0130
0000
,
0000
0010
0100
0000
,
0200
0000
0310
0000
,
0100
0000
0001
0000
,
2000
3000
0000
0000
;

//--------------- dance-single - Mad Guns22 ----------------
#NOTES:
     dance-single:
     Mad Guns22:
     Medium:
     6:
     0.337,0.367,0,0.223,0.219:
0000
0000
0000
0000
,
0000
0000
0000
0000
,
0020
0230
2300
3002
,
0023
0230
0302
0203
,
1300
0001
0020
2000
0000
0000
3030
0000
,
0001
0100
2000
0002
0000
0000
3003
0000
,
0010
1000
0200
0020
0000
0000
0330
0000
,
0100
0001
0020
0200
0000
0000
0330
0000
,
1000
0100
0000
0000
0001
0010
0000
0000
0000
0000
0001
0010
0100
0000
0000
0000
,
0100
0001
0000
0000
0010
1000
0000
0000
0000
0000
0010
1000
0001
0000
0000
0000
,
0002
1000
0000
0000
1000
1000
0000
0000
0003
0000
1000
0010
0100
0000
0000
0000
,
1000
0001
0010
0100
0001
0100
1000
0000
,
0010
0000
0100
0000
0010
0000
0010
0100
,
0010
0100
0010
1000
,
1000
0000
0001
0000
1000
0000
0001
0100
,
0001
0000
1000
0000
0001
0000
0100
1000
,
0100
0000
0001
1000
0001
0000
0100
1000
,
0100
0000
0010
1000
0010
0000
1000
0001
,
1000
0000
0001
0100
0001
0000
1000
0010
,
1000
0100
1000
0010
1000
0100
1000
0000
,
0001
0000
0000
0001
0000
0000
2000
0000
0000
3000
0000
0000
0010
0000
0010
0000
,
0001
0000
0000
0001
0000
0000
0002
0000
0000
0003
0000
0000
0000
0000
0000
0000
,
1000
0000
0000
1000
0000
0000
0002
0000
0000
0003
0000
0000
0100
0000
0100
0000
,
1000
0000
0000
1000
0000
0000
2000
0000
0000
3000
0000
0000
0000
0000
0000
0000
,
1000
0000
0000
1000
0000
0000
0020
0000
0000
0030
0000
0000
0100
0000
0100
0000
,
1000
0000
0000
1000
0000
0000
2000
0000
0000
3000
0000
0000
0000
0000
0000
0000
,
0001
0000
0000
0001
0000
0000
0200
0000
0000
0300
0000
0000
0010
0000
0010
0000
,
0001
0000
0000
0001
0000
0000
0002
0000
0000
0003
0000
0000
0000
0000
0000
0000
,
0010
0000
0000
0100
0000
0000
1000
0000
0000
0001
0000
0000
0001
0000
0000
0000
,
1000
0000
0000
0100
0000
0000
0010
0000
0000
0001
0000
0000
0010
0000
0000
0000
,
0100
0000
0000
0100
0000
0000
0100
0000
0000
0100
0000
0000
1000
0000
0000
0000
,
0001
0000
0000
0010
0000
0000
0100
0000
0000
1000
0000
0000
0100
0000
0000
0000
,
0100
0000
0000
1000
0000
0000
0010
0000
0000
0001
0000
0000
0001
0000
0000
0000
,
0010
0000
0000
1000
0000
0000
0100
0000
0000
0001
0000
0000
0100
0000
0000
0000
,
1000
0000
0000
1000
0000
0000
1000
0000
0000
1000
0000
0000
0010
0000
0000
0000
,
0001
0000
0000
0100
0000
0000
1000
0000
0000
0010
0000
0000
1000
0000
0000
0000
,
0100
0000
0000
1000
0000
0000
0010
0000
0000
0001
0000
0000
0001
0000
0000
0000
,
0010
0000
0000
1000
0000
0000
0100
0000
0000
0001
0000
0000
0100
0000
0000
0000
,
1000
0000
0000
1000
0000
0000
1000
0000
0000
1000
0000
0000
0010
0000
0000
0000
,
0001
0000
0000
0100
0000
0000
1000
0000
0000
0010
0000
0000
1000
0000
0000
0000
,
1000
0000
0000
0010
0000
0000
0100
0000
0000
0001
0000
0000
0001
0000
0000
0000
,
0100
0000
0000
0010
0000
0000
1000
0000
0000
0001
0000
0000
1000
0000
0000
0000
,
0010
0000
0000
0010
0000
0000
0010
0000
0000
0010
0000
0000
0100
0000
0000
0000
,
0001
0000
0000
1000
0000
0000
0010
0000
0000
0100
0000
0000
0010
0000
0100
0000
,
0010
0000
0000
1000
0000
0000
0010
0000
0000
0100
0000
0000
0100
0000
0000
0000
,
0010
0000
0000
1000
0000
0000
0001
0000
0000
0100
0000
0000
0001
0000
0000
0000
,
1000
0000
0000
1000
0000
0000
1000
0000
0000
1000
0000
0000
0010
0000
0000
0000
,
0100
0000
0000
0001
0000
0000
1000
0000
0000
0010
0000
0000
1000
0000
0000
0000
,
1000
0000
0000
0010
0000
0000
0001
0000
0000
0100
0000
0000
0100
0000
0000
0000
,
0001
0000
0000
0010
0000
0000
1000
0000
0000
0100
0000
0000
1000
0000
0000
0000
,
0010
0000
0000
0010
0000
0000
0010
0000
0000
0010
0000
0000
0001
0000
0000
0000
,
0100
0000
0000
1000
0000
0000
0010
0000
0000
0002
0000
0000
0010
0003
0000
0000
,
1000
0000
0100
0000
0001
0010
0001
0000
,
1000
0000
0010
0000
0001
0010
0100
0000
,
0010
0000
0001
0000
0100
0010
1000
0000
,
1000
0000
0001
0000
0001
0010
1000
0000
,
0010
0000
0010
0000
0001
0100
0001
0000
,
0010
0000
0100
0000
0001
0100
1000
0000
,
0100
0000
0001
0000
1000
0100
0010
0000
,
0010
0000
0001
0000
0001
0100
0010
0000
,
1000
2000
0000
0000
3001
0002
0000
0000
,
0003
0000
1000
0100
0010
0000
0000
0000
,
0001
0002
0000
0000
0013
0020
0000
0000
,
0030
0000
1000
0010
0100
0000
0000
0000
,
0010
0020
0000
0000
0130
0200
0000
0000
,
0000
0300
0010
0100
0001
0000
0000
0000
,
1000
0000
0100
0000
0010
0000
0010
0001
,
0000
0010
0000
2000
0000
0000
0000
0000
,
3000
0000
0000
0000
;

//--------------- dance-single - Mad Guns22 ----------------
#NOTES:
     dance-single:
     Mad Guns22:
     Hard:
     8:
     0.434,0.551,0,0.358,0.304:
0000
0000
0000
0000
,
0000
0000
0000
0000
,
0200
2300
3020
0032
,
0203
2300
3002
2003
,
3010
0001
1000
0000
0001
0100
0020
0000
0000
0000
0100
0100
0100
0000
0030
0000
,
0001
1000
0100
0000
1000
0100
0002
0000
0000
0000
0010
0010
0013
0000
0100
0100
,
0001
0010
0100
0000
1000
0001
0020
0000
0000
0000
0100
0100
0100
0030
0001
0010
,
0100
1000
1000
0000
0010
0100
0020
0000
0000
0000
0100
0100
0130
0000
1000
0100
,
0010
0001
0000
0000
0100
0010
0000
0000
0000
0000
0001
0100
1000
0000
0000
0000
,
1000
0001
0000
0000
0100
0010
0000
0000
0000
0000
0100
0010
0001
0000
0000
0000
,
0002
0010
0000
0000
0010
0010
0000
0000
0003
0000
0010
0100
1000
0000
0000
0000
,
0010
0000
0001
0000
0100
0000
1000
0100
0000
0000
0001
0000
0010
0000
0000
0000
,
0100
0000
1000
0000
0100
0000
0100
1000
,
0001
0100
0010
0001
,
0010
0000
0001
0000
0010
0000
0001
1000
,
0001
0000
0010
0000
0001
0000
1000
0010
,
1000
0010
0001
0010
0001
0010
1000
0010
,
1000
0010
0100
0010
0100
0001
0010
0001
,
0010
1000
0001
1000
0001
1000
0010
0100
,
0010
1000
0010
0100
0010
1000
0010
0000
,
0001
0000
0000
0001
0000
0000
0020
0000
0000
0130
0000
0000
0100
0000
0100
0000
,
0001
0000
0000
0001
0000
0000
0002
0000
0000
0013
0000
0000
0100
0000
0100
0000
,
0010
0000
0000
0010
0000
0000
0002
0000
0000
0013
0000
0000
1000
0000
1000
0000
,
0010
0000
0000
0010
0000
0000
0020
0000
0000
0130
0000
0000
1000
0000
0001
0000
,
0010
0000
0000
0010
0000
0000
0200
0000
0000
1300
0000
0000
1000
0000
1000
0000
,
0010
0000
0000
0010
0000
0000
0020
0000
0000
0031
0000
0000
0100
0000
0010
0000
,
0001
0000
0000
0001
0000
0000
2000
0000
0000
3001
0000
0000
0100
0000
0100
0000
,
0001
0000
0000
0001
0000
0000
0002
0000
0000
1003
0000
0000
0010
0000
0001
0000
,
0200
0000
0000
1000
0000
0000
0010
0000
0300
0001
0000
0000
0001
0000
0001
0000
,
0020
0000
0000
1000
0000
0000
0100
0000
0030
0001
0000
0000
0100
0000
0100
0000
,
0002
0000
0000
1000
0000
0000
1000
0000
0003
1000
0000
0000
0010
0000
0010
0000
,
0002
0000
0000
0100
0000
0000
1000
0000
0003
0010
0000
0000
1000
0000
1000
0000
,
2000
0000
0000
0010
0000
0000
0100
0000
3000
0001
0000
0000
0001
0000
0001
0000
,
0200
0000
0000
0010
0000
0000
1000
0000
0300
0001
0000
0000
1000
0000
1000
0000
,
0002
0000
0000
0010
0000
0000
0010
0000
0003
0010
0000
0000
0100
0000
0100
0000
,
0002
0000
0000
1000
0000
0000
0010
0000
0003
0100
0000
0000
0010
0000
0010
0000
,
2000
0000
0000
0010
0000
0000
0100
0000
3000
0001
0000
0000
0001
0000
0001
0000
,
0200
0000
0000
0010
0000
0000
1000
0000
0300
0001
0000
0000
1000
0000
1000
0000
,
0200
0000
0000
0010
0000
0000
0010
0000
0300
0010
0000
0000
0100
0000
0100
0000
,
0002
0000
0000
1000
0000
0000
0010
0000
0003
0100
0000
0000
0010
0000
0010
0000
,
0020
0000
0000
0100
0000
0000
1000
0000
0030
0001
0000
0000
0001
0000
0001
0000
,
2000
0000
0000
0100
0000
0000
0010
0000
3000
0001
0000
0000
0010
0000
0010
0000
,
0002
0000
0000
0100
0000
0000
0100
0000
0003
0100
0000
0000
1000
0000
1000
0000
,
0002
0000
0000
0010
0000
0000
0100
0000
0003
1000
0000
0000
0100
0000
0100
1000
,
0200
0000
0000
0010
0000
0000
0001
0000
0300
1000
0000
0000
1000
0000
1000
0000
,
0200
0000
0000
0010
0000
0000
0001
0000
0300
1000
0000
0000
0001
0000
0001
0000
,
2000
0000
0000
0010
0000
0000
0010
0000
3000
0010
0000
0000
0100
0000
0100
0000
,
2000
0000
0000
0001
0000
0000
0010
0000
3000
0100
0000
0000
0010
0000
0010
0000
,
0020
0000
0000
0100
0000
0000
0001
0000
0030
1000
0000
0000
1000
0000
1000
0000
,
0002
0000
0000
0100
0000
0000
0010
0000
0003
1000
0000
0000
0010
0000
0010
0000
,
2000
0000
0000
0100
0000
0000
0100
0000
3000
0100
0000
0000
0001
0000
0001
0000
,
1000
0000
0000
0010
0000
0000
0100
0000
0000
0002
0000
0000
0100
0003
0000
0000
,
0010
1000
0010
0000
0001
0100
0001
0000
,
0010
1000
0100
0000
0001
0100
1000
0000
,
0100
1000
0001
0000
1000
0100
0010
0000
,
0010
1000
0001
0000
0001
0100
0010
0000
,
0100
0010
0100
0000
0001
1000
0001
0000
,
0100
0010
1000
0000
0001
1000
0010
0000
,
1000
0010
0001
0000
0010
1000
0100
0000
,
0100
0010
0001
0000
0001
1000
0100
0000
,
0010
0020
0000
0000
0031
0002
0000
0000
,
0003
0000
0010
1000
0100
0000
0000
0000
,
0001
0002
0000
0000
0103
0200
0000
0000
,
0300
0000
0010
0100
1000
0000
0000
0000
,
0100
0200
0000
0000
1300
2000
0000
0000
,
0000
3000
0100
1000
0001
0000
0000
0000
,
0010
0000
1000
0000
0100
0000
0100
0001
,
0000
0100
0000
0020
0000
0000
0200
0000
,
0330
0000
0000
0000
;
