#TITLE:Outerlimits;
#SUBTITLE:;
#ARTIST:InEffect & Miss Special K feat. Andy L;
#TITLETRANSLIT:;
#SUBTITLETRANSLIT:;
#ARTISTTRANSLIT:;
#GENRE:Hardcore;
#CREDIT:Mad Guns22;
#MUSIC:Outerlimits.mp3;
#BANNER:Project default banner.png;
#BACKGROUND:Project default background.png;
#CDTITLE:MadGuns22Icon.png;
#SAMPLESTART:87.771;
#SAMPLELENGTH:12.000;
#SELECTABLE:YES;
#OFFSET:-0.022;
#BPMS:0.000=175.000
,28.000=350.000
,32.000=175.000
,128.000=87.500
,160.000=175.000
,223.000=350.000
,224.000=175.000
;
#STOPS:28.000=0.686
,223.000=0.171
;
#DISPLAYBPM:175.000;
#BGCHANGES:;
#FGCHANGES:;

//--------------- dance-single - Mad Guns22 ----------------
#NOTES:
     dance-single:
     Mad Guns22:
     Beginner:
     2:
     0.172,0.234,0.128,0.135,0:
0000
0000
0000
0000
,
0000
0000
0000
0000
,
0000
0000
0000
0000
,
0000
0000
0000
0000
,
0010
0000
0000
0000
,
0001
0000
0000
0000
,
0100
0000
0000
0000
,
0002
0000
0000
0003
,
0001
0000
1000
0000
,
0100
0000
0000
0000
,
1000
0000
0100
0000
,
0010
0000
0000
0000
,
1000
0000
0010
0000
,
0010
0000
0000
0000
,
0010
0000
1000
0000
,
0010
0000
0000
0000
,
0010
0000
0010
0000
,
0001
0000
0000
0000
,
0100
0000
0100
0000
,
0001
0000
0000
0000
,
1000
0000
1000
0000
,
0100
0000
0000
0000
,
0001
0000
0001
0000
,
0100
0000
0000
0000
,
0010
0000
0010
0000
,
0100
0000
0000
0000
,
1000
0000
1000
0000
,
0100
0000
0000
0000
,
0001
0000
0001
0000
,
1000
0000
0000
0000
,
0100
0000
0100
0000
,
0020
0000
0000
0030
,
2000
0000
0000
3000
,
0020
0000
0000
0030
,
2000
0000
0000
3000
,
0002
0000
0000
0003
,
0200
0000
0000
0300
,
0020
0000
0000
0030
,
0200
0000
0000
0300
,
2000
0000
0000
3000
,
1100
0000
1000
0000
,
0010
0000
0010
0000
,
0100
0000
1000
0000
,
0200
0000
0000
0300
,
1010
0000
1000
0000
,
0010
0000
0100
0000
,
0001
0000
0010
0000
,
0200
0000
0000
0300
,
0110
0000
0000
0000
,
1001
0000
0000
0000
,
1100
0000
0000
0000
,
0101
0000
0000
0000
,
1001
0000
0000
0000
,
0101
0000
0000
0000
,
0100
0010
0100
0010
,
0200
0000
0300
0010
,
0100
0000
1000
0000
,
0010
0000
0001
0000
,
0001
0000
1000
0020
,
0000
0000
0000
0030
,
0001
0000
0010
0000
,
1000
0000
0100
0000
,
0100
0000
0010
2000
,
0000
0000
0000
3000
,
0010
0010
0010
0000
,
1000
0000
0000
0000
,
0001
0001
0001
0000
,
0100
0000
0000
0000
,
0100
0100
0100
0000
,
0001
0000
0000
0000
,
0010
0010
0010
0000
,
2000
0000
0000
3000
,
0100
0000
0001
0000
,
0010
0000
0000
0000
,
0001
0000
1000
0000
,
0100
0000
0000
0000
,
0010
0000
0100
0000
,
1000
0000
0000
0000
,
0100
0000
0010
0000
,
0001
0000
0000
0000
,
1100
0000
0000
0000
,
0101
0000
0000
0000
,
0110
0000
0000
0000
,
0011
0000
0000
0000
,
1001
0000
0000
0000
,
0101
0000
0000
0000
,
1010
0000
0000
0000
,
0011
0000
0000
0000
,
2020
0000
0000
0000
,
3030
0000
0000
0000
;

//--------------- dance-single - Mad Guns22 ----------------
#NOTES:
     dance-single:
     Mad Guns22:
     Easy:
     5:
     0.311,0.298,0.301,0.098,0:
0000
0000
0000
0000
,
0000
0000
0000
0000
,
0000
0000
0000
0000
,
0000
0000
0000
0000
,
0010
0100
0001
0010
,
0100
1000
0001
0010
,
1001
0000
1010
0000
,
0200
0000
0000
0300
,
0100
1000
0001
0000
,
0010
0100
0010
0000
,
0001
0010
1000
0000
,
0100
0001
0100
0000
,
0001
1000
0000
0101
,
0000
0100
0000
0011
,
0000
0100
0001
1000
,
0010
1000
0000
1010
,
1010
0001
0010
0001
,
0100
0001
1000
0010
,
1000
1100
0000
0100
,
0000
0101
0000
0100
,
0110
1000
0010
1000
,
0001
1000
0100
0010
,
0100
0101
0000
0001
,
0000
1001
0000
0001
,
1000
0001
1000
0100
,
0010
1000
0100
0001
,
0010
1001
0000
0001
,
0000
0110
0000
0010
,
0000
0101
0000
0001
,
1000
0001
0100
1000
,
0002
0000
0000
0000
,
0003
0000
0000
0000
0000
0000
0020
0030
,
0200
0000
0000
0000
,
0302
0000
0000
0000
,
0203
0000
0000
0000
,
2300
0000
0000
0000
,
3001
0000
0100
0000
,
0010
0000
0100
0000
,
0020
0000
0000
0030
0200
0000
0000
0300
,
2000
0000
3000
0000
,
1010
0000
1000
0100
,
0001
1000
0001
0001
,
0000
0000
1000
0100
,
0020
0000
0000
0030
0000
0000
0000
0000
,
1001
0000
1000
0100
,
0001
1000
0010
0000
,
0100
0010
0001
0010
,
0000
0000
0000
0000
,
1001
0000
0100
0000
,
1010
0000
0001
0000
,
0011
0000
0010
0000
,
0101
0000
0100
0000
,
1100
0000
1010
0000
,
0011
0000
1010
0000
,
0001
0010
0001
0010
,
0101
0000
0000
0010
,
0100
1000
0001
1000
,
0010
0001
0100
1000
,
0100
0010
0001
0020
,
0000
0000
0000
0030
,
0100
0100
0010
0100
,
0001
0010
1000
0100
,
1000
0001
0010
0002
,
0000
0000
0000
0003
,
0010
0100
0010
1001
,
0000
0001
0000
0110
,
0001
0100
0001
1010
,
0000
1000
0000
0110
,
0001
1000
0001
0101
,
0000
0010
0000
1100
,
0010
0100
1000
0011
,
0000
0001
0000
0001
,
0010
1000
0100
0010
,
0010
0100
1000
0001
,
0100
0010
0001
1000
,
1000
0001
0010
0100
,
0001
0100
1000
0001
,
0001
1000
0100
0010
,
1000
0001
0010
0100
,
0100
0010
0001
1000
,
1000
0010
0001
1100
,
0000
0001
0000
1100
,
1000
0010
0100
0011
,
0000
0001
0000
0011
,
0100
1000
0100
0101
,
0000
0100
0000
1010
,
0001
0010
0010
0110
,
1000
1000
1000
1000
,
1001
0000
0000
0000
;

//--------------- dance-single - Mad Guns22 ----------------
#NOTES:
     dance-single:
     Mad Guns22:
     Medium:
     7:
     0.392,0.397,0.226,0.128,0:
0000
0000
0000
0000
,
0000
0000
0000
0000
,
0000
0000
0000
0000
,
0000
0000
0000
0000
,
0010
0100
0010
0000
0100
0001
0010
0000
,
1000
0100
1000
0000
0100
0001
0010
0000
,
0110
1000
0001
1000
,
2000
0000
0000
3000
,
1000
0010
0001
0000
0100
0000
0100
0000
,
0001
0100
1000
0000
0010
0000
0010
0000
,
0100
1000
0010
0000
0001
0000
0001
0000
,
0010
0001
0100
0000
1000
0000
1000
0000
,
0100
1000
0001
0000
0010
0000
0110
0000
,
0010
0001
1000
0000
0100
0000
0110
0000
,
0010
0001
1000
0000
0100
1000
0001
0000
,
0010
0001
1000
0011
,
0010
0100
0010
0100
,
1000
0100
0001
0010
,
0001
1001
0000
1000
,
1000
1100
0000
1000
,
0100
0010
0100
0010
,
0001
0010
1000
0100
,
1000
1001
0000
0001
,
0001
0000
0011
0000
0000
0000
0001
1000
,
0010
0110
0001
1000
,
0010
0001
1000
0100
,
0010
0101
0000
0100
,
0010
1010
0000
0010
,
1010
0100
1000
0100
,
0001
0100
1000
0001
,
0200
0000
0000
0000
,
0300
0000
0000
0000
0000
0000
0020
0030
,
0002
0000
2003
0000
,
3002
0000
0203
0000
,
2300
0000
3200
0000
,
0302
0000
2003
0000
,
3010
0001
0100
0000
,
0010
0100
1000
0000
,
0020
0000
0000
0030
2000
0000
0000
3000
,
0002
0000
0003
0000
,
0011
0000
0000
0000
0001
1000
0001
0000
,
0100
0001
0100
0100
,
0000
0000
0001
1000
,
0020
0000
0000
0030
0000
0000
0000
0000
,
0101
0000
0000
0000
0001
1000
0001
0000
,
0100
0001
0010
0000
,
1000
0000
0010
0000
0100
0001
0100
0000
,
0000
0000
0000
0000
,
0100
0001
0100
0101
,
0010
1000
0010
1010
,
0100
0010
0100
0110
,
0001
0101
0011
1100
,
1010
0001
0010
0010
,
0001
0001
0010
0100
,
0400
0000
0000
0000
,
0300
0000
0000
1001
,
0001
0010
0001
0000
0100
1000
0001
0000
,
0010
0100
1000
0001
,
1000
0100
0010
0000
0100
0001
0020
0000
,
0000
0000
0000
0030
,
1000
0100
1000
0000
0010
0001
1000
0000
,
0100
0010
0001
1000
,
0001
0010
0100
0000
0010
1000
0200
0000
,
0000
0000
0000
0300
,
0010
0100
0010
0000
0010
0000
0100
0000
,
0100
0010
0100
0000
0100
0000
0010
0000
,
1000
0001
1000
0000
1000
0000
0001
0000
,
0001
1000
0001
0000
0001
0000
1000
0000
,
0001
1000
0001
0000
0001
0000
1000
0000
,
1000
0001
1000
0000
1000
0000
0001
0000
,
0010
0100
0010
0000
0010
0000
0100
0000
,
0100
0010
0100
0000
0100
0000
0010
0000
,
0100
0000
0001
0000
1000
0000
0010
0100
,
0010
1000
0001
0100
,
1000
0000
0010
0000
0100
0000
0001
1000
,
0001
0100
0010
1000
,
0010
0000
1000
0000
0001
0000
0100
0010
,
0100
0001
1000
0010
,
0001
0000
0100
0000
0010
0000
1000
0001
,
1000
0010
0100
0001
,
0001
0010
0100
1001
,
1000
0100
0010
1001
,
0001
0010
1000
0110
,
1000
0100
0001
0110
,
1000
0001
1000
1100
,
0001
1000
0001
0011
,
0100
0000
0010
0100
0010
0000
1010
0000
,
1000
1000
0001
0001
,
1001
0000
0000
0000
;

//--------------- dance-single - Mad Guns22 ----------------
#NOTES:
     dance-single:
     Mad Guns22:
     Hard:
     8:
     0.475,0.562,0.256,0.105,0.162:
0000
0000
0000
0000
,
0000
0000
0000
0000
,
0000
0000
0000
0000
,
0000
0000
0000
0000
,
0001
0100
0001
0100
0001
0010
0001
1000
,
0100
1000
0100
0001
1000
0100
0001
0100
,
1001
0100
1100
1000
,
0020
0000
0000
0030
,
0100
0010
0100
0010
1000
0001
1000
0100
,
0010
0100
0010
0100
0001
1000
0001
0010
,
1000
0001
1000
0001
0010
0100
0010
1000
,
0001
1000
0001
1000
0100
0010
0100
0001
,
1000
0100
0010
0001
0010
0000
1001
0000
,
0001
0010
0100
1000
0100
0000
1001
0000
,
0001
0010
0100
0000
1000
0100
0010
0000
,
0001
0010
0100
0011
,
0010
0000
0100
0000
0010
0100
0000
1000
,
0000
0100
0000
0001
0000
0010
0000
0001
,
0000
0000
0000
0000
1001
0000
0000
0000
0001
0000
0000
1000
0000
0000
0010
0000
,
0001
0000
0000
0000
0011
0000
0000
0000
0010
0000
0000
0001
0000
0000
1000
0000
,
0001
0000
0011
0000
0010
1000
0000
0100
,
0000
0001
0000
0010
0000
0100
0000
2000
,
0000
0000
3000
0000
0000
0000
0000
0000
0100
0000
0000
1000
0000
0000
0010
0000
,
0100
0000
0000
0000
0110
0000
0000
0000
0010
0000
0000
0100
0000
0000
1000
0000
,
0010
0000
0110
0000
0001
1000
0000
0010
,
0000
0001
0000
1000
0000
0100
0000
2000
,
0000
0000
3000
0000
0000
0000
0000
0000
0010
0000
0000
0100
0000
0000
1000
0000
,
0010
0000
0000
0000
1010
0000
0000
0000
1000
0000
0000
0010
0000
0000
0100
0000
,
0010
0000
1010
0000
1000
0100
0000
0001
,
0000
0100
0000
1000
0000
0001
0000
0200
,
0000
0000
0000
0300
0010
0100
0010
0100
,
1001
0000
0000
0000
0000
0000
0200
0300
,
0001
0000
0000
0100
0000
0000
0000
0000
0001
0000
0000
0010
0000
0000
0000
0000
,
0010
0000
0000
0001
0000
0000
0001
0000
0000
0000
0000
0000
0000
0000
0001
0000
,
0010
0000
0000
1000
0000
0000
0000
0000
1000
0000
0000
0010
0000
0000
0000
0000
,
0010
0000
0000
0001
0000
0000
0100
0000
0000
0000
0000
0000
0000
0000
2000
0000
,
3001
0000
0000
0100
0000
0000
0000
0000
1000
0000
0000
0001
0000
0000
0000
0000
,
0001
0000
0000
1000
0000
0000
0100
0000
0000
0000
0000
0000
0000
0000
1000
0000
,
0002
0000
0000
0003
0200
0000
0000
0300
,
0020
0000
0030
0000
,
0011
0000
0000
0000
0001
1000
0001
0000
,
0100
0000
0001
0100
0000
0100
0000
0000
,
0000
0000
0000
0000
0001
1000
0000
0000
,
0020
0000
0000
0030
0000
0000
0000
0000
,
0101
0000
0000
0000
0001
1000
0001
0000
,
0100
0000
0001
0100
0000
0000
0000
0000
,
1000
0000
0010
0000
0100
0001
0000
0200
,
0000
0300
0000
0000
,
1100
1010
0011
0001
,
0110
1001
1100
1000
,
0110
0101
1100
0100
,
1001
0110
0011
0100
,
1001
0100
0010
0100
0001
1000
0001
1000
,
0010
0100
0010
0100
0001
1000
0001
1000
,
0040
0000
0000
0000
,
0032
0000
0003
1001
,
0001
0010
0001
1000
0100
1000
0001
0000
,
0001
0000
0100
0010
0000
0010
0000
0000
,
1000
0100
0010
0001
0000
0001
0000
0200
,
0000
0000
0000
0300
0000
0100
0000
0001
,
0000
0100
0000
0001
0010
0001
1000
0000
,
1000
0000
0010
0100
0000
0100
0000
0000
,
0001
0010
0100
1000
0000
1000
0000
0020
,
0000
0000
0000
0000
0000
0130
1000
0001
,
0100
0000
0000
0010
0000
0000
0100
0000
0000
0000
0010
0000
0000
0000
0001
0000
,
0010
0000
0000
0100
0000
0000
0010
0000
0000
0000
0100
0000
0000
0000
1000
0000
,
0001
0000
0000
1000
0000
0000
0001
0000
0000
0000
1000
0000
0000
0000
0010
0000
,
1000
0000
0000
0001
0000
0000
1000
0000
0000
0000
0001
0000
0000
0000
0100
0000
,
1000
0000
0000
0001
0000
0000
1000
0000
0000
0000
0001
0000
0000
0000
0100
0000
,
0001
0000
0000
1000
0000
0000
0001
0000
0000
0000
1000
0000
0000
0000
0010
0000
,
0001
0000
0000
0100
0000
0000
0001
0000
0000
0000
0001
0000
0000
0000
0010
0000
,
0001
0000
0000
0010
0000
0000
0010
0000
0000
0000
0100
0000
0000
0000
0001
0000
,
0100
0000
0000
0001
0000
0000
0001
0000
1000
0000
0000
0010
0000
0000
0010
0000
,
0001
0000
0000
1000
0000
0000
1000
0000
0010
0000
0000
0001
0000
0000
0001
0000
,
0100
0000
0000
1000
0000
0000
1000
0000
0010
0000
0000
0100
0000
0000
0100
0000
,
1000
0000
0000
0001
0000
0000
0001
0000
0100
0000
0000
1000
0000
0000
1000
0000
,
0010
0000
0000
0001
0000
0000
0001
0000
0100
0000
0000
0010
0000
0000
0010
0000
,
0001
0000
0000
0100
0000
0000
0100
0000
1000
0000
0000
0001
0000
0000
0001
0000
,
0010
0000
0000
0100
0000
0000
0100
0000
0010
0000
0000
1000
0000
0000
1000
0000
,
0100
0000
0000
0001
0000
0000
0001
0000
1000
0000
0000
0100
0000
0000
0100
0000
,
0001
0000
0000
0010
0000
0000
0010
0000
0100
0000
0000
0000
0001
0000
0000
0000
,
0100
0000
0000
0100
0000
0000
0100
0000
0010
0000
0000
0000
1000
0000
0000
0000
,
0100
0000
0000
0100
0000
0000
0100
0000
0010
0000
0000
0000
0100
0000
0000
0000
,
0010
0000
0000
0010
0000
0000
0010
0000
0100
0000
0000
0000
0010
0000
0000
0000
,
1010
0000
0010
0001
0010
0100
0010
0000
,
0101
0000
0100
1000
0100
0010
0100
0000
,
1010
0000
0010
0100
0010
0000
1010
0000
,
1000
0100
0001
0010
,
1001
0000
0000
0000
;

//--------------- dance-single - Mad Guns22 ----------------
#NOTES:
     dance-single:
     Mad Guns22:
     Challenge:
     10:
     0.58,0.662,0.391,0.143,0.365:
0000
0000
0000
0000
,
0000
0000
0000
0000
,
0000
0000
0000
0000
,
0000
0000
0000
0000
,
0010
0100
0000
0001
0010
0000
0001
0100
0000
0000
1000
0000
0000
1000
0000
0000
,
0001
0100
0000
0010
0001
0000
0010
0100
0000
0000
1000
0000
0000
1000
0000
0000
,
0110
0001
0010
1000
0101
0010
0100
0001
,
22M0
000M
00M0
000M
00M0
000M
33M0
0000
,
0001
1000
0000
1000
0100
0000
0100
0010
0000
0000
0001
0000
0000
1000
0000
0000
,
0010
0100
0000
0100
0001
0000
0001
1000
0000
0000
0010
0000
0000
0100
0000
0000
,
0001
0010
0000
0010
0100
0000
0100
1000
0000
0000
0010
0000
0000
1000
0000
0000
,
0100
0010
0000
0010
0001
0000
0001
0100
0000
0000
0010
0000
0000
1000
0000
0000
,
1000
0001
0000
0001
0010
0000
0010
0100
0000
0000
1000
0000
0000
0001
0000
0000
,
0100
0010
0000
0010
1000
0000
1000
0001
0000
0000
0100
0000
0000
0010
0000
0000
,
1000
0100
0000
0100
0010
0000
0010
0001
0000
0000
0100
0000
0000
0001
0000
0000
,
1000
0100
0010
1010
,
0100
0000
0000
0000
0110
0000
0000
0000
0100
0000
0000
0010
0000
0000
0001
0000
,
0100
0000
0000
0000
0101
0000
0000
0000
0001
0000
0000
0100
0000
0000
0010
0000
,
0100
0000
0000
0000
0110
0000
0000
0000
0010
0000
0000
0100
0000
0000
1000
0000
,
0010
0000
0000
0000
1010
0000
0000
0000
1000
0000
0000
0010
0000
0000
0100
0000
,
0010
0000
0000
0000
1010
0000
0000
0000
0010
0000
0000
1000
0000
0000
0100
0000
,
0010
0000
0000
0000
0110
0000
0000
0000
0100
0000
0000
0010
0000
0000
1000
0000
,
0010
0000
0000
0000
1010
0000
0000
0000
1000
0000
0000
0010
0000
0000
0001
0000
,
1000
0000
0000
0000
1001
0000
0000
0000
0001
0000
0000
1000
0000
0000
0010
0000
,
0001
0000
0000
0000
1001
0000
0000
0000
0001
0000
0000
1000
0000
0000
0010
0000
,
0001
0000
0000
0000
0011
0000
0000
0000
0010
0000
0000
0001
0000
0000
1000
0000
,
0001
0000
0000
0000
1001
0000
0000
0000
1000
0000
0000
0001
0000
0000
0100
0000
,
1000
0000
0000
0000
1100
0000
0000
0000
0100
0000
0000
1000
0000
0000
0001
0000
,
1000
0000
0000
0000
1100
0000
0000
0000
1000
0000
0000
0100
0000
0000
0001
0000
,
1000
0000
0000
0000
1001
0000
0000
0000
0001
0000
0000
1000
0000
0000
0100
0000
,
1000
0100
1000
0100
0010
0100
0010
0100
,
1001
0000
0000
0000
0000
0000
0200
0300
,
0010
0000
0M00
0001
0000
0000
M000
0000
0010
0000
000M
1000
0000
0000
0M00
0000
,
1000
0000
000M
0010
0000
0000
0M10
0000
0000
0000
M000
0000
0000
0000
0M10
0000
,
1000
0000
000M
0100
0000
0000
00M0
0000
0100
0000
0M00
1000
0000
0000
00M0
0000
,
1000
0000
000M
0010
0000
0000
M001
0000
0000
0000
0M00
0000
0000
0000
020M
0000
,
0310
0000
0M00
0001
0000
0000
M000
0000
0100
0000
000M
0010
0000
0000
0M00
0000
,
0010
0000
M000
0100
0000
0000
00M1
0000
0000
0000
000M
0000
0000
0000
M100
0000
,
0020
0M00
0000
M000
0002
0M00
0000
M000
,
2000
0M00
0000
0M00
3033
0M00
00M0
000M
,
1100
0000
0000
0000
0010
0100
0010
0000
,
0001
0000
0010
0001
0000
0001
0000
0000
,
0000
0000
0000
0000
0010
0100
0000
0000
,
2000
0000
0000
3000
0000
0000
0000
0000
,
0011
0000
0000
0000
0010
0100
0010
0000
,
0001
0000
0010
0001
0000
0000
0000
0000
,
0100
0000
1000
0000
0001
0010
0000
0002
,
0000
0003
0000
0000
,
0011
0000
0101
0000
1100
0000
1010
0010
,
0110
0000
0000
0000
1001
0000
0000
0000
0011
0000
0000
1000
0110
0000
0100
0000
,
1100
0000
1010
0000
0011
0000
0101
0100
,
0110
0000
0000
0000
1001
0000
0000
0000
1100
0000
0001
0010
0100
0000
1000
0100
,
0011
0001
0010
0001
1100
1000
0100
1000
,
0110
0010
0100
0010
1001
0001
1000
0001
,
1000
0100
0010
0001
1000
0100
0010
0001
1000
0100
0010
0001
1000
0100
0010
0001
,
2000
0000
3000
1001
,
1000
0100
1000
0001
0010
0001
1000
0100
,
1000
0001
0010
0100
0010
0001
1000
0100
,
0010
0001
0010
1000
0100
1000
0001
0010
,
0001
1000
0100
0010
0001
0010
0100
1000
,
0001
0010
0001
1000
0100
1000
0001
0010
,
0001
1000
0100
0010
0100
1000
0001
0010
,
0100
1000
0100
0001
0010
0001
1000
0100
,
1000
0001
0010
0100
1000
0100
0010
0001
,
0010
0000
0000
0200
0000
0000
0010
0000
0000
0000
0010
0000
0300
0000
1000
0000
,
0100
0000
0000
0020
0000
0000
0100
0000
0000
0000
0100
0000
0030
0000
0001
0000
,
1000
0000
0000
0002
0000
0000
1000
0000
0000
0000
1000
0000
0003
0000
0100
0000
,
0001
0000
0000
2000
0000
0000
0001
0000
0000
0000
0001
0000
3000
0000
0010
0000
,
0100
0000
0000
0020
0000
0000
0100
0000
0000
0000
0100
0000
0030
0000
0001
0000
,
0010
0000
0000
0200
0000
0000
0010
0000
0000
0000
0010
0000
0300
0000
1000
0000
,
0001
0000
0000
2000
0000
0000
0001
0000
0000
0000
0001
0000
3000
0000
0010
0000
,
1000
0000
0000
0002
0000
0000
1000
0000
0000
0000
1000
0000
0003
0000
0100
0000
,
0001
0000
0000
0001
0000
0000
0001
0000
0010
0000
0000
0010
0000
0000
0010
0000
,
1000
0000
0000
1000
0000
0000
1000
0000
0001
0000
0000
0001
0000
0000
0001
0000
,
1000
0000
0000
1000
0000
0000
1000
0000
0100
0000
0000
0100
0000
0000
0100
0000
,
0001
0000
0000
0001
0000
0000
0001
0000
1000
0000
0000
1000
0000
0000
1000
0000
,
0010
0000
0000
1000
0000
0000
1000
0000
0100
0000
0000
0100
0000
0000
0010
0000
,
0100
0000
0000
1000
0000
0000
0100
0000
0010
0000
0000
0100
0000
0000
0010
0000
,
0100
0000
0000
0100
0000
0000
0100
0000
0001
0000
0000
0010
0000
0000
0001
0000
,
1000
0000
0000
0100
0000
0000
1000
0000
0010
0000
0100
0000
0010
0000
1000
0000
,
0010
0000
0000
0010
0000
0000
0010
0000
0100
0000
0000
0000
0011
0000
0000
0000
,
0100
0000
0000
0100
0000
0000
0100
0000
0010
0000
0000
0000
1100
0000
0000
0000
,
0100
0000
0000
0100
0000
0000
0100
0000
0010
0000
0000
0000
1100
0000
0000
0000
,
0010
0000
0000
0010
0000
0000
0010
0000
0100
0000
0000
0000
0011
0000
0000
0000
,
1010
0001
0010
0100
0010
0000
0011
0000
,
0101
0010
1000
0001
1000
0000
0011
0000
,
0100
0001
1010
0000
0001
0100
1010
0000
,
0002
0000
0010
0000
0100
0000
1000
0003
,
0110
0000
0000
0000
;
