#TITLE:Ode To The Bouncer;
#SUBTITLE:;
#ARTIST:Studio Killers;
#TITLETRANSLIT:;
#SUBTITLETRANSLIT:;
#ARTISTTRANSLIT:;
#GENRE:;
#CREDIT:Mad Guns22;
#MUSIC:Ode To The Bouncer.mp3;
#BANNER:Project default banner.png;
#BACKGROUND:Project default background.png;
#CDTITLE:MadGuns22Icon.png;
#SAMPLESTART:50.711;
#SAMPLELENGTH:12.000;
#SELECTABLE:YES;
#OFFSET:-0.042;
#BPMS:0.000=123.000;
#STOPS:;
#DISPLAYBPM:123.000;
#BGCHANGES:0.000=Ode to the Bouncer.mpeg=1.000=1=0=1===CrossFade==,
300.000=Project default background.png=1.000=1=0=1===CrossFade==,
99999.000=-nosongbg-=1.000=0=0=0=StretchNoLoop====
;
#FGCHANGES:;

//--------------- dance-single - Mad Guns22 ----------------
#NOTES:
     dance-single:
     Mad Guns22:
     Medium:
     5:
     0.28,0.305,0.021,0.165,0.021:
0000
0000
0000
0000
,
0000
0000
0000
0000
,
0000
0000
0000
0000
,
0000
0000
0000
0000
,
0020
0000
0030
0010
,
0100
0010
0001
0010
,
0100
1000
0000
0100
,
2000
0000
3100
0000
,
1000
0100
0100
1000
,
0100
0000
0001
0000
0010
1000
0010
0000
,
1000
0000
0000
0000
0010
1000
0010
1000
,
0010
0000
0000
0100
1000
0100
1000
0100
,
1000
0100
0200
0300
,
2000
3000
0002
0003
,
0100
0000
0000
0000
0100
1000
0100
1000
,
0100
0000
0000
0100
0010
0100
1000
0100
,
0100
0000
0000
0000
1000
0100
1000
0001
,
1000
0000
0000
0000
1000
0100
1000
0100
,
1000
0100
0000
0000
0001
0100
0001
0000
,
0001
0000
0010
0001
0010
0001
0010
0001
,
0010
1000
0100
0010
,
0100
0010
0100
1000
,
0010
1000
0100
1000
,
0000
0000
0010
1000
0010
0000
0001
0000
,
0020
0000
0000
0000
0100
0000
0000
0030
,
0200
0000
0000
0000
1000
0000
0000
0300
,
0002
0000
0000
0000
0000
0003
0010
1000
,
0010
0010
0100
1000
,
0001
1000
0010
0000
0000
0000
0010
0000
,
0200
0000
0000
0300
,
0002
0000
0000
0000
0003
0100
1000
0001
,
0010
0001
1000
0100
,
1000
0100
1000
0000
0000
0000
1000
0000
,
0001
0000
0000
0001
0002
0000
0003
0000
,
0011
0000
0010
0000
0000
0000
0000
0100
,
0001
0000
0200
0300
0000
0000
0000
0000
,
0010
1000
0000
0000
,
0010
0000
0000
0010
0001
0000
0000
0010
0001
0000
0000
0000
0100
0000
0000
0000
,
0002
0000
0003
0100
,
0010
0100
1000
0100
,
0001
0100
0001
0000
0010
1000
0010
0000
,
0100
0000
0000
1000
0100
0000
0000
1000
0100
0000
0000
0000
1000
0000
0000
0000
,
0002
0000
0000
0000
0000
0003
0001
0000
,
0001
0100
1000
0001
,
0020
0000
0000
0000
,
0000
0000
0000
0030
,
2000
0000
0000
0000
0000
3000
0010
0000
,
0010
1000
0100
0010
,
0002
0000
0000
0000
,
0000
0000
0000
0003
,
0010
0000
0000
0010
1000
0010
1000
0010
,
1000
0000
0000
0100
0001
0100
0001
0100
,
0001
0000
0000
0000
1000
0100
1000
0100
,
0000
0000
0010
1000
0010
0100
0010
1000
,
0000
0000
0000
0100
1000
0100
1000
0100
,
1000
0000
0000
0000
0001
0100
0001
1000
,
0001
0100
0001
0000
0010
0001
0100
2000
,
0000
0000
0000
3000
,
2000
0000
0000
0000
0000
3000
0100
0001
,
0100
0100
0010
0001
,
1000
0001
0100
0000
0000
0000
0100
0000
,
0020
0000
0000
0030
,
2000
0000
0000
0000
3000
0010
0001
1000
,
0100
1000
0001
0010
,
0001
0010
0001
0000
0000
0000
0001
0000
,
1000
0000
0000
1000
2000
0000
3000
0000
,
1100
0000
0100
0000
0000
0000
0000
0010
,
1000
0000
0020
0030
0000
0000
0000
0000
,
0100
0001
0000
0000
,
0100
0000
0000
0100
1000
0000
0000
0100
1000
0000
0000
0000
0010
0000
0000
0000
,
2000
0000
3000
0010
,
0100
0010
0001
0010
,
1000
0010
1000
0000
0100
0001
0100
0000
,
0010
1000
0100
0001
,
0110
0000
0000
0000
;

//--------------- dance-single - Mad Guns22 ----------------
#NOTES:
     dance-single:
     Mad Guns22:
     Hard:
     6:
     0.41,0.435,0.144,0.385,0.089:
0000
0000
0000
0000
,
0000
0000
0000
0000
,
0000
0000
0000
0000
,
0000
0000
0000
0000
,
2000
0000
0000
0000
3000
1000
0001
1000
,
0010
1000
0001
0100
,
0010
0100
0020
0000
0000
0030
0020
0030
,
0200
0000
0000
0010
0310
0000
0000
0000
,
1100
0000
0000
1000
0000
0000
0000
0000
0001
0000
0010
0000
0100
0000
1000
0000
,
0011
0000
0001
0000
1000
0100
0020
0030
,
1100
0000
1000
0000
1000
0100
0010
0001
,
0100
0000
0000
0010
0010
0100
1000
0100
,
0010
0000
0010
0100
0020
0000
0031
2000
,
0100
0000
3100
0020
0001
0000
0031
0001
,
0010
0000
0000
0100
0010
0010
0001
1000
,
0100
0000
0000
0010
1000
0100
0100
0001
,
0010
0000
0000
0000
0100
0010
0010
0001
,
0200
0000
0000
0000
0310
0000
0000
0000
1000
0000
0000
0010
0100
0000
0010
0000
,
0001
0000
0001
0000
0000
0000
1000
0000
0100
0000
0000
0010
0000
0000
0001
0010
,
0001
0000
0000
0000
1000
0000
0100
0000
0001
0000
0001
0000
0100
0000
0000
0010
,
0100
0000
0000
0000
0100
0000
0010
0000
0100
0000
0000
0010
0000
0000
0100
0000
,
0001
0000
0000
0000
0010
0000
0000
0100
0000
0000
0010
0000
0000
0010
0000
0000
,
0000
0000
1000
0000
0100
0000
0100
0010
0000
0000
0010
0000
0100
0000
1000
0000
,
0000
0000
0000
0000
1000
0000
0100
0000
0001
0000
0000
0010
0000
0000
0001
0000
,
2000
0000
0010
0000
0010
0000
0010
3000
,
0020
0000
0100
0000
0100
0100
0130
0100
,
2000
0000
0000
0000
0000
3000
0001
0010
,
0100
1000
0010
0110
,
0001
0010
0200
0000
0000
0300
1000
0000
,
0020
0000
0000
0100
0100
0000
0030
0000
,
0002
0000
0000
0000
0003
0010
0100
0001
,
1000
0001
0100
0010
,
0010
0010
0020
0000
0000
0030
0100
0000
,
0200
0000
0000
0001
0302
0000
0003
0000
,
1100
0000
0020
0030
1000
0001
1000
0010
,
0011
0000
0020
0030
0000
0010
0100
0010
,
1100
0200
0300
0001
,
1100
0000
0000
0001
0100
0000
0000
1000
0100
0000
0000
0000
0110
0000
0000
0000
,
0002
0000
0000
0000
0003
0010
0010
0010
,
1100
0010
0100
0010
,
0001
0000
0001
0000
0002
0000
0000
0000
1003
0000
1000
0000
2000
0000
0000
3000
,
0010
0000
0000
0100
0010
0000
0000
0010
0100
0000
0000
0000
2002
0000
3003
0000
,
0022
0000
0000
0000
0000
0033
0001
0010
,
0002
0023
0230
0302
,
1000
1000
1000
0000
0000
0000
0000
0003
,
0200
0000
0000
0000
0000
0000
0000
0300
,
2200
0000
0000
0000
0000
3300
1000
0100
,
2000
3200
0320
2030
,
0001
0001
0001
0000
0000
0000
0000
3000
,
0020
0000
0000
0000
0000
0000
0100
0130
,
1100
0000
0000
1000
0100
0100
0100
1000
,
2000
0000
3100
0001
0010
0010
0001
0001
,
0020
0000
0000
0000
0130
0000
0000
0010
0100
0000
0010
0000
1000
0000
0001
0000
,
0000
0000
0000
0001
1000
0000
0100
0000
0010
0100
0010
0000
0001
0000
0010
0000
,
0000
0000
0000
1000
0100
0010
0010
0001
,
0010
0000
0000
0100
0000
0000
1000
0000
0010
0000
0100
0000
0010
0000
0001
0000
,
0010
0000
0010
0000
0010
0000
0000
0000
1000
0000
0100
0000
0010
0001
0000
1000
,
0000
0100
0010
0000
0000
0000
0001
0010
0100
0000
0000
0010
0000
0000
0100
0000
,
2000
0000
0000
0000
0000
3000
0010
1000
,
0001
0100
1000
1001
,
0010
1000
0002
0000
0000
0003
0100
0000
,
2000
0000
0000
0001
0001
0000
3000
0000
,
0020
0000
0000
0000
0030
1000
0001
0010
,
0100
0010
0001
1000
,
1000
1000
2000
0000
0000
3000
0001
0000
,
0002
0000
0000
0010
0013
0000
0010
0000
,
0101
0000
2000
3000
0100
0000
0100
1000
,
1010
0000
2000
3000
0000
1000
0001
1000
,
0101
0000
0002
0000
0003
0010
0100
0010
,
0101
0000
0000
0010
0001
0000
0000
0100
1000
0000
0000
0000
1001
0000
0000
0000
,
0020
0000
0000
0000
0030
1000
1000
1000
,
0101
1000
0001
1000
,
0010
0000
0010
0000
0020
0000
0000
0000
0130
0000
0100
0000
0200
0000
0000
0300
,
0010
0001
0010
0000
1000
0100
2000
3000
,
0020
0000
0030
0000
;
