#TITLE:Move Your Body;
#SUBTITLE:;
#ARTIST:Eiffel 65;
#TITLETRANSLIT:;
#SUBTITLETRANSLIT:;
#ARTISTTRANSLIT:;
#GENRE:EuroPop;
#CREDIT:Mad Guns22;
#MUSIC:Move Your Body.ogg;
#BANNER:Project default banner.png;
#BACKGROUND:Project default background.png;
#CDTITLE:MadGuns22Icon.png;
#SAMPLESTART:33.923;
#SAMPLELENGTH:12.000;
#SELECTABLE:YES;
#OFFSET:0.008;
#BPMS:0.000=130.000;
#STOPS:36.000=1.846;
#DISPLAYBPM:130.000;
#BGCHANGES:;
#FGCHANGES:;

//--------------- dance-single - Mad Guns22 ----------------
#NOTES:
     dance-single:
     Mad Guns22:
     Beginner:
     1:
     0.137,0.16,0.247,0.034,0:
0000
0000
0000
0000
,
0100
0000
0000
0000
,
0010
0000
0000
0000
,
1000
0000
0000
0000
,
0010
0000
0000
0000
,
0100
0000
0000
0000
,
0001
0000
0000
0000
,
1000
0000
0000
0000
,
1000
0000
0000
0000
,
0010
0000
0020
0030
,
0100
0000
0000
0000
,
0010
0000
0000
0000
,
0001
0000
0000
0000
,
0010
0000
0000
0000
,
1000
0000
0000
0000
,
1000
0000
0000
0000
,
0001
0000
0000
0000
,
0200
0000
0300
0000
,
0011
0000
0001
0000
,
0110
0000
0000
0000
,
0011
0000
0100
0000
,
1100
0000
0000
0000
,
0011
0000
1000
0000
,
0101
0000
0000
0000
,
0101
0000
1000
0000
,
0100
0000
0000
0000
,
0011
0000
1000
0000
,
0110
0000
0000
0000
,
1010
0000
1000
0000
,
0011
0000
0000
0000
,
0110
0000
0001
0000
,
1010
0000
0000
0000
,
1010
0000
1000
0000
,
0101
0000
0000
0000
,
1100
0000
1010
0000
,
0101
0000
0000
0000
,
0110
0000
0101
0000
,
1100
0000
0000
0000
,
0101
0000
0110
0000
,
0101
0000
0000
0000
,
0101
0000
1001
0000
,
0011
0000
0000
0000
,
0020
0000
0000
0000
,
0030
0000
0000
0000
,
0100
0000
0000
0000
,
1000
0000
0000
0000
,
0100
0000
0001
0000
,
0010
0000
1000
0000
,
0010
0000
0000
0000
,
1000
0000
0000
0000
,
0001
0000
0001
0000
,
0001
0000
0000
0000
,
1000
0000
0000
0000
,
1000
0000
0000
0000
,
0100
0000
0000
0000
,
0100
0000
0100
0000
,
0100
0000
0000
0000
,
1000
0000
0010
0000
,
1000
0000
1000
0000
,
0020
0000
0030
0000
,
1100
0000
0100
0000
,
1001
0000
0000
0000
,
1100
0000
0001
0000
,
0011
0000
0000
0000
,
1100
0000
0010
0000
,
0101
0000
0000
0000
,
0101
0000
0010
0000
,
0001
0000
0000
0000
,
0100
0000
0000
0000
,
0001
0000
0000
0000
,
1010
0000
0000
0000
,
0100
0000
0000
0000
,
0001
0000
0000
0000
,
1000
0000
0000
0000
,
1010
0000
0000
0000
,
0001
0000
0010
0000
,
0020
0000
0000
0000
,
0000
0000
0000
0000
,
0030
0000
0000
0000
;

//--------------- dance-single - Mad Guns22 ----------------
#NOTES:
     dance-single:
     Mad Guns22:
     Easy:
     4:
     0.281,0.321,0.295,0.021,0:
0000
0000
0000
0000
,
1000
0000
1000
1000
,
0100
0000
0001
0001
,
0010
0000
0100
0100
,
0010
0000
1000
0001
,
1000
0000
0010
0010
,
0100
0000
0001
0001
,
0010
0000
1000
1000
,
0100
0000
0001
0001
,
0010
0000
0010
0100
,
0010
0010
1000
0001
,
0100
0010
1000
0100
,
0001
0010
0010
0010
,
0100
0010
1000
0001
,
0010
0001
0001
1000
,
0010
0100
1000
0100
,
0001
0010
1000
0100
,
0010
0100
1000
1000
,
0110
0000
0001
1000
,
0110
0000
0010
0100
,
0101
0000
1000
0100
,
1100
0000
0001
0010
,
0110
0000
0010
0100
,
0110
0000
0010
0100
,
1001
0001
0010
0100
,
1000
0010
0100
0010
,
0101
0000
0010
0001
,
1100
0000
0001
1000
,
0110
0000
0010
0100
,
0101
0000
1000
0100
,
1100
0000
0001
0010
,
0110
0000
0010
0100
,
0110
0000
0010
0100
,
1001
0001
0010
0100
,
1010
0000
0110
0011
,
1100
0000
0110
0101
,
1100
0000
1001
0101
,
1010
0000
1000
0100
,
1001
0000
1100
0110
,
1001
0000
1100
1010
,
1001
0000
0011
1010
,
0101
0000
0001
1000
,
0201
0000
0000
0000
,
0300
0000
0000
0000
,
1000
0100
1000
0000
,
0000
0010
0010
0000
,
1000
0000
0001
0000
,
0100
0100
0010
0100
,
1000
0001
1000
0000
,
0000
0010
0010
1000
,
0001
1000
0001
0000
,
0001
1000
0001
1000
,
0010
0010
0010
0000
,
0000
0100
0010
0100
,
1000
0000
0100
0000
,
1000
1000
1000
0000
,
0001
0010
0100
0000
,
0000
1000
0100
1000
,
0010
0100
0010
0001
,
0100
0000
0001
0001
,
0110
0000
1000
0001
,
0110
0000
0100
0010
,
1010
0000
0001
0010
,
0011
0000
1000
0100
,
0110
0000
0100
0010
,
0110
0000
0100
0010
,
1001
1000
0100
0010
,
0001
0100
0010
0001
,
1000
0100
0010
0100
,
0001
1000
0010
0010
,
0010
0100
0010
0001
,
1000
0001
0100
0100
,
0010
0100
0010
0010
,
0100
0010
1000
0001
,
0010
0100
0001
0010
,
0001
1000
0200
0300
,
0020
0000
0000
0000
,
0000
0000
0000
0000
,
0030
0000
0000
0000
;

//--------------- dance-single - Mad Guns22 ----------------
#NOTES:
     dance-single:
     Mad Guns22:
     Medium:
     6:
     0.425,0.401,0.411,0.274,0:
0000
0000
0000
0000
,
0010
0001
0000
0100
1000
0000
0000
0000
,
1000
0001
0000
0010
0001
0000
1000
0000
,
0010
0000
0001
1000
0001
0000
0001
0000
,
0100
0010
0000
0000
0100
0000
0001
0000
,
0100
0010
0000
0000
0001
0000
0000
0000
,
0001
1000
0000
0100
1000
0000
0001
0000
,
0100
0000
1000
0001
1000
0000
1000
0000
,
0010
0100
0000
0000
0010
0000
2000
0000
,
0000
3000
0001
0001
,
0002
0013
0010
0010
,
0020
0031
0001
0100
,
2000
0000
3001
0000
1000
0000
1000
0001
,
0200
0301
0100
0100
,
0002
0013
0100
1000
,
2000
3010
0010
0001
,
0020
0000
1030
0000
1000
0100
0010
0100
,
2000
0000
3001
0000
2000
0000
3200
0300
,
1001
0000
1001
0000
0100
0010
0100
0000
,
1001
1001
0020
0031
,
0110
0000
0110
0001
1000
0000
1000
0000
,
0020
0031
1100
1100
,
0002
0013
1100
1100
,
0002
0013
1001
1001
,
0020
0000
1030
0001
1000
0000
0010
0000
,
2000
3001
0020
0130
,
0011
0000
0011
0000
1000
0100
1000
0000
,
0011
0011
0200
0310
,
1001
0000
1001
0010
0001
0000
0001
0000
,
0200
0310
1001
1001
,
0020
0130
0011
0011
,
0020
0130
0011
0011
,
0200
0000
0301
0010
0001
0000
0100
0000
,
0002
0000
0013
1000
0100
0000
0100
1000
,
0011
0000
1000
0010
0101
0000
0101
0000
,
0101
0000
1000
0100
0010
0000
1000
0100
,
1000
0000
0001
1000
0010
0000
1100
0000
,
1100
0000
0001
1000
0100
0000
0100
1000
,
0001
0000
0001
0100
0001
0000
1010
0000
,
1010
0000
0010
1000
0010
0000
1000
0100
,
1000
0000
0001
0100
1000
0000
0101
0000
,
0101
0000
0010
0100
0001
0000
0001
0100
,
0000
0010
0000
0100
0000
0010
0000
0100
,
0000
1000
0000
0001
0000
1000
0000
0010
,
0001
1000
0001
0000
0010
0000
0000
0000
,
0000
0001
1000
0100
0000
0010
0000
0000
,
1100
0000
0000
1000
1000
0000
0000
0001
,
1000
0100
0001
0000
0010
0000
0010
0000
,
1000
0001
1000
0000
0001
0000
0000
0000
,
0000
0000
0100
1000
0010
0000
0001
0000
,
0100
0000
0010
0001
1000
0000
0000
0001
,
0010
0100
0010
0001
,
1000
0001
1000
0000
0100
0000
0000
0000
,
0000
1000
0001
0010
0100
0000
0000
0000
,
0011
0000
0000
0001
0001
0000
0000
1000
,
0001
0010
1000
0000
0100
0000
0100
0000
,
0001
1000
0001
0000
1000
0000
0000
0000
,
0000
1000
0100
0010
0001
0010
0000
0000
,
0100
0000
0100
1000
0001
0000
1000
0200
,
0000
0000
0310
0100
,
0011
0000
0011
0000
1000
0100
1000
0000
,
0011
0011
0200
0310
,
1100
0000
1100
0010
0001
0000
0001
0000
,
0200
0310
1001
1001
,
0020
0130
1001
1001
,
0020
0130
0011
0011
,
0200
0000
0301
0010
0001
0000
0100
0000
,
0002
0013
0200
1300
,
0110
0000
0110
0000
0001
1000
0001
0000
,
0110
0110
2000
3100
,
0011
0000
0011
0100
0010
0000
0010
0000
,
2000
3100
0011
0011
,
0200
1300
0110
0110
,
0200
1300
0110
0110
,
2000
0000
3010
0100
0010
0000
1000
0000
,
0020
0130
2000
3000
,
0020
0000
0000
0000
,
0000
0000
0000
0000
,
0030
0000
0000
0000
;

//--------------- dance-single - Mad Guns22 ----------------
#NOTES:
     dance-single:
     Mad Guns22:
     Hard:
     7:
     0.48,0.428,0.411,0.288,0:
0000
0000
0000
0000
,
0001
1000
0000
0010
0100
0000
0100
0000
,
0100
1000
0000
0001
1000
1000
0100
0010
,
0001
0000
1000
0100
1000
0000
1000
0000
,
0010
0001
0000
0001
0010
0001
0100
1000
,
0010
0100
0000
0001
1000
0000
1000
0000
,
0100
0010
0000
1000
0100
0100
0001
0010
,
0001
0000
0100
1000
0100
0000
0010
0000
,
1000
0100
0000
1000
0100
1000
0010
0200
,
0000
0300
0000
0000
0000
0000
0000
0000
1000
0000
0000
0000
1000
0000
0000
0000
,
2000
0000
3001
0000
0001
0100
0001
0010
,
0002
1003
1000
0010
,
0200
0000
1300
0001
0100
0010
0100
1000
,
0020
1030
0010
0010
,
2000
3001
0010
0100
,
0200
0301
0001
1000
,
0002
0000
0103
1000
0100
0010
0001
0010
,
0200
0000
1300
0000
0200
0000
0320
0030
,
1100
0000
1100
0000
0010
0001
0010
0001
,
1100
1100
0002
1003
,
0011
0000
0011
1000
0100
0010
0100
1000
,
0002
1003
0110
0110
,
2000
3001
0110
0110
,
2000
3001
1100
1100
,
0002
0000
0103
1000
0100
0010
0001
0010
,
0200
1300
0002
0013
,
1001
0000
1001
0000
0100
0010
0100
0010
,
1001
1001
0020
0031
,
1100
0000
1100
0001
1000
0100
1000
0001
,
0020
0031
1100
1100
,
0002
0013
1001
1001
,
0002
0013
1001
1001
,
0020
0000
1030
0001
1000
0100
0010
0100
,
2000
0000
3001
0100
0010
0001
0010
0100
,
1001
0000
0100
0001
1010
0000
1010
0000
,
1010
0000
0100
0010
0001
0000
0100
0010
,
0100
0000
1000
0100
0001
0000
0110
0000
,
0110
0000
1000
0100
0010
0001
0010
0100
,
1000
0000
1000
0010
1000
0000
0101
0000
,
0101
0000
0001
0100
0001
0000
0100
0010
,
0100
0000
1000
0010
0100
0000
1010
0000
,
1010
0000
0001
0010
1000
0100
1000
0010
,
0000
0001
0000
0010
0000
0001
0000
0010
,
0000
0100
0000
1000
0000
0100
0000
1000
,
1000
0100
1000
0010
0001
0000
0000
0000
,
0000
1000
0100
0010
1000
0001
0000
0000
,
0110
0000
0000
0100
0100
0000
0000
1000
,
0100
0010
1000
0100
0001
0000
0001
0000
,
0100
1000
0100
0010
1000
0000
0000
0000
,
0000
0001
0010
0100
0010
0001
1000
0010
,
0100
0000
0001
1000
0100
0000
0000
1000
,
0001
0010
0100
0010
0001
0000
1000
0000
,
0010
0100
0010
0001
0010
0000
0000
0000
,
0000
1000
0100
1000
0001
0010
0000
0000
,
1100
0000
0000
0010
0010
0000
0000
1000
,
0100
1000
0001
0010
0100
0000
0010
0000
,
0001
0010
0001
0010
0100
0000
0000
0000
,
0000
1000
0010
0100
1000
0001
0000
0000
,
1000
0000
0001
0010
1000
0000
0001
0200
,
0000
0000
0000
0300
2000
0000
3200
0300
,
1001
0000
1001
0000
0100
0010
0100
0010
,
1001
1001
0020
0031
,
0110
0000
0110
0001
1000
0100
1000
0001
,
0020
0031
0110
0110
,
0002
0013
1100
1100
,
0002
0013
1100
1100
,
0020
0000
1030
0001
1000
0100
0010
0100
,
2000
3001
0020
0130
,
0011
0000
0011
0000
1000
0100
1000
0100
,
0011
0011
0200
0310
,
1100
0000
1100
0010
0001
1000
0001
0010
,
0200
0310
1100
1100
,
0020
0130
0011
0011
,
0020
0130
0011
0011
,
0200
0000
0301
0010
1000
0100
0010
0100
,
2000
3001
0020
0000
,
0032
0000
0000
0000
,
0000
0000
0000
0000
,
0003
0000
0000
0000
;

//--------------- dance-single - Mad Guns22 ----------------
#NOTES:
     dance-single:
     Mad Guns22:
     Challenge:
     9:
     0.565,0.592,0.562,0.171,0.014:
0000
0000
0000
0000
,
1000
0100
0000
0001
0010
0000
0010
0000
,
0010
0100
0000
1000
0100
0100
0010
0001
,
1000
0000
0100
0010
0100
0000
0100
0000
,
0001
1000
0000
1000
0001
1000
0010
0100
,
0001
0010
0000
1000
0100
0000
0100
0000
,
0010
0001
0000
0100
0010
0010
1000
0001
,
1000
0000
0010
0100
0010
0000
0001
0000
,
0100
0010
0000
0100
0010
0100
0001
0020
,
0000
0030
0000
0000
0000
0000
0000
0000
1000
0000
0000
0000
1000
0000
0000
0000
,
0011
0100
1000
0100
1000
0010
1000
0100
,
0001
0010
0001
0100
0001
0010
0001
1000
,
0010
0100
0010
1000
0010
0100
0010
0001
,
0100
0010
0100
0001
0100
0010
0100
1000
,
0101
0100
0101
0000
1010
0000
1010
0000
,
0110
0010
0110
0000
1000
0000
0001
0000
,
1001
0001
1001
1000
0100
0010
0001
0010
,
1100
0100
1100
0010
0100
1000
0100
0010
,
0101
0010
0100
1000
0110
0010
1001
0100
,
1001
0010
0001
0100
0001
1000
0100
0010
,
0001
0100
1000
0100
1010
0100
0011
0100
,
1001
0010
0001
1000
0100
0001
0100
0010
,
0200
0310
0101
0110
,
0002
0103
1010
0101
,
1100
0010
0101
0010
0100
0001
0100
1000
,
0200
0310
1100
1001
,
1010
0100
1010
0001
1000
0100
0001
1000
,
0011
0100
0011
1000
0010
0001
1000
0100
,
0011
1000
0101
1000
0001
1000
0100
1000
,
0011
0100
1010
0001
1000
0010
1000
0100
,
2000
3100
1010
1100
,
0020
1030
0101
1010
,
1001
0100
1010
0100
1000
0010
1000
0001
,
2000
0000
3100
0010
0100
1000
0100
0010
,
0101
0010
0100
0001
0110
0001
1010
0100
,
1010
0001
0100
0010
1001
0100
0110
0001
,
1100
0010
0001
0010
1100
0001
1010
0100
,
1001
0100
0001
1000
0100
1000
0100
0010
,
1001
0100
0010
1000
0110
1000
0101
0010
,
0101
1000
0010
0100
1001
0010
0101
1000
,
0011
0100
1000
0100
0011
1000
0101
0010
,
1001
0010
1000
0001
0010
0001
0010
0100
,
0010
0100
0000
0100
0000
0100
0000
0100
,
0000
0010
0000
0001
0000
0010
0000
0001
,
1000
0100
1000
0010
0001
0000
0000
0000
,
0000
1000
0100
0010
1000
0001
0000
0000
,
0110
0000
0000
0100
0101
0000
0000
1000
,
0100
0010
1000
0100
0001
0000
0001
0000
,
1000
0010
1000
0010
0100
0000
0010
0000
1000
0000
0000
0000
0000
0000
0000
0000
,
0000
0001
0010
0100
0010
0001
1000
0010
,
0100
0000
0001
1000
0100
0000
0000
1000
,
0001
0010
0100
0010
0001
0000
1000
0000
,
0010
0100
0010
0001
0010
0000
0000
0000
,
0000
1000
0100
1000
0001
0010
0000
0000
,
1100
0000
0000
0010
1010
0000
0000
1000
,
0100
1000
0001
0010
0100
0000
0010
0000
,
0001
0010
0001
0010
0001
0000
0010
0000
0100
0000
0000
0000
0000
0000
0000
0000
,
0000
1100
0010
0100
1000
0001
0000
0000
,
1100
0000
0001
0010
1100
0000
0001
2200
,
0000
0000
0000
3300
0001
0000
0010
0000
,
0101
1000
0101
0010
0001
1000
0010
0001
,
0110
1000
0110
0001
0100
0010
0001
1000
,
0110
0001
1010
0001
0010
0001
1000
0001
,
0110
1000
0101
0010
0001
0100
0001
1000
,
0002
1003
0101
1001
,
0200
0301
1010
0101
,
0011
1000
0101
1000
0001
0100
0001
0010
,
0002
1003
1000
0002
,
1003
0000
0010
0000
0100
0010
1000
0001
,
0010
0100
0010
0001
,
2000
0000
3001
0010
0100
1000
0100
0010
,
0001
0001
2000
3020
,
0230
0301
0002
0203
,
2300
3001
0200
0320
,
2030
0000
3001
0100
0010
1000
0001
0010
,
0200
0310
0010
0100
,
2000
0100
0100
0100
,
0100
0000
0000
0000
,
0000
0000
3000
0000
;
