#TITLE:Models are Ugly;
#SUBTITLE:;
#ARTIST:Dougal & Gammer;
#TITLETRANSLIT:;
#SUBTITLETRANSLIT:;
#ARTISTTRANSLIT:;
#GENRE:HardCore;
#CREDIT:Mad Guns22;
#MUSIC:Models Are Ugly.mp3;
#BANNER:Models Are Ugly.png;
#BACKGROUND:Models Are Ugly-bg.png;
#CDTITLE:MadGuns22Icon.png;
#SAMPLESTART:52.000;
#SAMPLELENGTH:21.333;
#SELECTABLE:YES;
#OFFSET:-0.026;
#BPMS:0.000=180.000
,64.000=360.000
,80.000=720.000
,112.000=180.000
,306.000=360.000
,310.000=180.000
;
#STOPS:64.000=0.333
,66.000=0.333
,68.000=0.333
,70.000=0.333
,72.000=0.333
,74.000=0.333
,76.000=0.333
,78.000=0.333
,80.000=0.167
,82.000=0.167
,84.000=0.167
,86.000=0.167
,88.000=0.167
,90.000=0.167
,92.000=0.167
,94.000=0.167
,96.000=0.167
,98.000=0.167
,100.000=0.167
,102.000=0.167
,104.000=0.083
,105.000=0.083
,106.000=0.083
,107.000=0.083
,108.000=0.083
,109.000=0.083
,110.000=0.083
,111.000=0.083
,140.000=0.333
,141.000=0.333
,306.000=0.083
,306.500=0.083
,307.000=0.083
,307.500=0.083
,308.000=0.083
,308.500=0.083
,309.000=0.083
,309.500=0.083
,340.500=0.333
;
#DISPLAYBPM:180.000;
#BGCHANGES:;
#FGCHANGES:;

//--------------- dance-single - Mad Guns22 ----------------
#NOTES:
     dance-single:
     Mad Guns22:
     Beginner:
     2:
     0.185,0.271,0.227,0.191,0:
0000
0000
0000
0000
,
0000
0000
0000
0000
,
0000
0000
0000
0000
,
0000
0000
0000
0000
,
1000
0000
0000
0000
,
0100
0000
0100
0000
,
0001
0000
0000
0000
,
1000
0000
1000
0000
,
0020
0000
0000
0000
,
0030
0000
0000
0000
,
0002
0000
0000
0000
,
0003
0000
0000
0000
,
0200
0000
0000
0000
,
0300
0000
0000
0000
,
2000
0000
0000
0000
,
3000
0000
0000
0000
,
0002
0000
0000
0000
,
0003
0000
0000
0000
,
0020
0000
0000
0000
,
0030
0000
0000
0000
,
0002
0000
0000
0000
,
0003
0000
0000
0000
,
0020
0000
0000
0000
,
0030
0000
0000
0000
,
0002
0000
0000
0000
,
0003
0000
0000
0000
,
0020
0000
0000
0000
,
0030
0000
0000
0000
,
1000
0000
0100
0000
,
0001
0000
0010
0000
,
0100
0000
1000
0000
,
0020
0000
0030
0000
,
0001
0000
0010
0000
,
1000
0000
0100
0000
,
0010
0000
0001
0000
,
0200
0300
0001
0000
,
0010
0000
1000
0000
,
0010
0000
0001
0000
,
0001
0000
0200
0000
,
0300
0000
1000
0000
,
0100
0000
0001
0000
,
0100
0000
1000
0000
,
1000
0000
0020
0000
,
0030
0000
1001
0000
,
0000
0000
0110
0000
,
0000
0000
1001
0000
,
1000
0000
0001
0000
,
1000
0000
1001
0000
,
0000
0000
0110
0000
,
0000
0000
1001
0000
,
0001
0000
1000
0000
,
0001
0000
0101
0000
,
0000
0000
1010
0000
,
0000
0000
0101
0000
,
0100
0000
0001
0000
,
0100
0000
0101
0000
,
0000
0000
1010
0000
,
0000
0000
0101
0000
,
0001
0000
0100
0000
,
0001
0000
0202
0000
,
0000
0000
0303
0000
,
0000
0000
0020
0000
,
0000
0000
0030
0000
,
0000
0000
2000
0000
,
0000
0000
3000
0000
,
0000
0000
0200
0000
,
0000
0000
0300
0000
,
0000
0000
0002
0000
,
0000
0000
0003
0000
,
0000
0000
0020
0000
,
0000
0000
0030
0000
,
0000
0000
0002
0000
,
0000
0000
0003
0000
,
0000
0000
0020
0000
,
0000
0000
0000
0000
,
0000
0000
0030
0000
,
0000
0000
0200
0000
,
0300
0000
1000
0000
,
0000
0000
1000
0000
,
0001
0000
0100
0000
,
0000
0000
0001
0000
,
0010
0000
0110
0000
,
0000
0000
0001
0000
,
1000
0000
0001
0000
,
0000
0000
0200
0000
,
0300
0011
0000
0001
,
0000
1000
0000
0000
,
0000
0010
0000
0010
,
0000
0001
0000
0000
,
0000
1010
0000
0010
,
0000
0001
0000
0000
,
0000
1000
0000
0001
,
0000
0020
0000
0030
,
0000
1100
0000
1100
,
0000
0010
0000
0000
,
0000
0101
0000
0101
,
0000
1000
0000
0000
,
0000
0110
0000
0110
,
0000
0001
0000
0000
,
0000
1100
0000
1100
,
0000
0010
0000
0000
,
0000
1001
0000
1001
,
0000
0010
0000
0000
,
0000
0110
0000
0110
,
0000
0001
0000
0000
,
0000
0110
0000
0110
,
0000
0001
0000
0000
,
0000
0101
0000
1010
,
0000
2000
0000
0000
,
3000
0000
0000
0000
;

//--------------- dance-single - Mad Guns22 ----------------
#NOTES:
     dance-single:
     Mad Guns22:
     Easy:
     4:
     0.304,0.501,0.369,0.227,0:
0000
0000
0000
0000
,
0000
0000
0000
0000
,
0000
0000
0000
0000
,
0000
0000
0000
0000
,
1000
0000
1000
0000
,
0200
0000
0000
0300
,
0001
0000
0001
0000
,
2000
0000
0000
3000
,
0020
0000
0000
0000
,
0030
0000
0000
0000
,
2000
0000
0000
0000
,
3000
0000
0000
0000
,
0002
0000
0000
0000
,
0003
0000
0000
0000
,
0200
0000
0000
0000
,
0300
0000
0000
0000
,
2000
0000
0000
0000
,
3000
0000
0000
0000
,
0002
0000
0000
0000
,
0003
0000
0000
0000
,
2000
0000
0000
0000
,
3000
0000
0000
0000
,
0002
0000
0000
0000
,
0003
0000
0000
0000
,
2000
0000
0000
0000
,
3000
0000
0000
0000
,
0002
0000
0003
0000
,
2000
0000
3000
0000
,
1000
1000
1000
0000
,
0001
0001
0001
0000
,
1000
1000
1000
0000
,
0020
0000
0030
0000
,
0100
0100
0100
0000
,
0001
0001
0001
0000
,
1000
1000
1000
0000
,
2000
3001
1000
0100
,
1000
0000
0010
0100
,
0010
0000
0001
1000
,
0001
0000
0200
0000
,
0300
0000
1000
0010
,
1000
0000
0001
0100
,
0001
0000
0010
0100
,
0010
0000
2000
0000
,
3000
0000
1001
0000
,
0110
0000
1001
0000
,
0110
0000
1000
1000
,
1000
0100
0001
0001
,
0001
0000
0011
0000
,
1100
0000
0011
0000
,
1100
0000
0010
0010
,
0010
0100
1000
1000
,
1000
0000
0011
0000
,
0011
0000
1100
0000
,
1100
0000
0001
1000
,
0001
1000
0010
0100
,
0010
0000
1100
0000
,
1001
0000
1100
0000
,
1001
0000
1000
0100
,
0001
0010
1000
0100
,
0001
0010
2002
0000
,
0000
0000
3003
0000
,
0000
0000
0200
0000
,
0000
0000
0300
0000
,
0000
0000
0020
0000
,
0000
0000
0030
0000
,
0000
0000
2000
0000
,
0000
0000
3000
0000
,
0000
0000
0002
0000
,
0000
0000
0003
0000
,
0000
0000
0200
0000
,
0000
0000
0300
0000
,
0000
0000
0002
0000
,
0000
0000
0003
0000
,
0000
0000
0200
0000
,
0000
0000
0000
0000
,
0000
0000
0300
0000
,
0000
0000
0100
0000
,
0100
0000
1000
1000
,
1000
0000
0001
0001
,
0001
0000
0100
0100
,
0100
0000
0010
0010
,
0010
0000
0110
0010
,
0010
0000
0001
0001
,
0001
0000
1000
0001
,
1000
0000
0200
0000
,
0300
0011
0010
0001
,
0000
1000
0001
1000
,
0000
0010
0100
0010
,
0000
0001
0010
0001
,
0000
1010
1000
0010
,
0000
0001
0100
0010
,
0000
1000
0001
1000
,
0000
0020
0000
0030
,
0000
1010
1010
1010
,
1010
0100
0100
0100
,
0100
1001
1001
1001
,
1001
0010
0010
0010
,
0000
1100
1100
1100
,
1100
0001
0001
0001
,
0001
1010
1010
1010
,
1010
0100
0100
0100
,
0000
0000
0000
0000
0000
0000
0000
0000
0000
0000
0000
0000
0000
0000
0000
0000
2002
3003
0000
0000
0000
0000
0000
0000
0000
0000
0000
0000
0000
0000
0000
0000
1001
0000
0000
0000
0000
0000
0000
0000
0000
0000
0000
0000
0000
0000
0000
0000
1001
0000
0000
0000
0000
0000
0000
0000
0000
0000
0000
0000
0000
0000
0000
0000
,
1001
0100
0010
0100
,
0010
1100
1100
1100
,
1100
0001
0010
0001
,
0000
1100
1100
1100
,
1100
0001
0010
0001
,
0010
1001
0110
1001
,
0110
0000
0000
0000
0000
0000
0000
0000
0000
0000
0000
0000
0000
0000
0000
0000
2000
0000
0000
0000
0000
0000
0000
0000
0000
0000
0000
0000
0000
0000
0000
0000
0000
0000
0000
0000
0000
0000
0000
0000
0000
0000
0000
0000
0000
0000
0000
0000
0002
3003
0000
0000
0000
0000
0000
0000
0000
0000
0000
0000
0000
0000
0000
0000
;

//--------------- dance-single - Mad Guns22 ----------------
#NOTES:
     dance-single:
     Mad Guns22:
     Medium:
     6:
     0.464,0.618,0.546,0.496,0:
0000
0000
0000
0000
,
0000
0000
0000
0000
,
0000
0000
0000
0000
,
0000
0000
0000
0000
,
0001
0010
0100
1000
,
0004
0000
0000
0000
,
0013
0001
1000
0010
,
4000
0000
0000
3000
,
0002
0000
0003
0000
,
2000
0000
3000
0000
,
0020
0000
0030
0000
,
0200
0000
0300
0000
,
0002
0000
0003
0000
,
0200
0000
0300
0000
,
2000
0000
3000
0000
,
0020
0000
0030
0000
,
0002
0000
0003
0000
,
2000
0000
3000
0000
,
0020
0000
0030
0000
,
0200
0000
0300
0000
,
0002
0000
0003
0000
,
2000
0000
3000
0000
,
0002
0000
0003
0000
,
2000
0000
3000
0000
,
0002
0000
0003
0000
,
2000
0000
3000
0000
,
0002
0003
0020
0030
,
0002
0003
0020
0030
,
0011
0000
0110
0000
,
1001
0100
0010
0100
,
1100
0000
0011
0000
,
2000
3000
0020
0030
,
0011
0000
1100
0000
,
0010
0001
1000
0010
,
1100
0000
0011
0000
,
0002
0000
0203
0300
0011
0000
0000
0000
,
1010
0000
0001
0010
,
0001
1000
0110
0000
,
1001
0000
0002
0003
,
2000
0000
3000
0010
0100
0000
0000
0000
,
1001
0000
1000
0100
,
0010
0100
1001
0000
,
1100
0000
0002
2003
,
3001
1000
0001
0000
1001
0000
1001
0000
,
1000
0002
1003
0000
0001
0000
0010
0000
,
1000
0100
0011
0011
,
0011
0011
0010
0001
,
0100
1000
0101
0101
,
0001
0200
0301
0000
0001
0000
0010
0000
,
0001
1000
1010
1010
,
1010
1010
0100
0001
,
1000
0010
0110
1001
,
0110
2000
3001
0000
0001
0000
0010
0000
,
0100
1000
1001
0110
,
1001
0110
0001
0010
,
0001
1000
1100
1100
,
0001
0020
0031
0000
0001
0000
0001
0000
,
1000
1000
0011
0011
,
1100
0000
1100
0000
0001
1000
0001
1000
,
0001
1000
0001
1000
0202
0000
0000
0000
,
0000
0303
2000
0000
,
0000
3000
0022
0000
,
0000
0033
2000
0000
,
0000
3000
0202
0000
,
0000
0303
0020
0000
,
0000
0030
2200
0000
,
0000
3300
0020
0000
,
0000
0030
2002
0000
,
0000
3003
2000
0000
,
0000
3000
0022
0000
,
0000
0033
0200
0000
,
0000
0300
2020
0000
,
0000
3030
0002
0000
,
0000
0003
2020
0000
,
0000
3030
0002
0000
,
0000
0000
0003
0000
,
0000
0000
0100
0100
,
0100
0100
1001
0010
,
0001
0000
1000
0000
0010
1000
0010
0000
,
0010
1000
0010
0000
0001
0000
0010
0000
,
0001
0000
1000
0000
0010
0001
0010
0000
,
0010
0001
0010
0000
1001
0000
0100
0000
,
0010
0000
0100
0000
0001
1000
0001
0000
,
1000
0010
1000
0000
0010
0000
0001
0000
,
1000
0000
0100
0000
0002
0003
2000
3000
,
0020
0030
1001
0000
0010
0000
0001
0000
,
1000
0000
0010
1000
0010
0000
0010
1000
,
0010
0001
0010
0001
,
1000
0000
0010
0001
0010
0000
0010
0001
,
0010
1001
0100
0010
,
0100
0000
0001
1000
0001
0000
1000
0010
,
1000
0010
0001
1000
,
0100
0000
0002
0003
0020
0030
0100
0010
,
0100
0000
0011
0000
0011
0000
0001
0020
,
0031
0100
0010
1000
,
0100
0011
0011
0011
,
1001
0001
1000
0100
,
0010
0000
1100
0000
1100
0000
1000
0200
,
1300
0001
0010
0001
,
1000
1010
1010
1010
,
1001
0100
0001
1000
,
0010
0000
0110
0000
0110
0000
0100
0020
,
0130
1000
0001
0100
,
0010
0110
0110
0110
,
0101
1000
0001
1000
,
0001
0000
0011
0000
0011
0000
0001
0020
,
0031
0010
0010
0100
,
0100
1010
1010
1010
,
1100
0000
0002
0003
2000
3000
0020
0030
;

//--------------- dance-single - Mad Guns22 ----------------
#NOTES:
     dance-single:
     Mad Guns22:
     Hard:
     8:
     0.488,0.618,0.66,0.426,0:
0000
0000
0000
0000
,
0000
0000
0000
0000
,
0000
0000
0000
0000
,
0000
0000
0000
0000
,
1000
0100
0010
0001
,
1000
0001
1000
0001
1000
0001
1000
0001
,
0100
1000
0001
0100
,
1000
0100
1000
0100
1000
0100
1000
0100
,
2000
0000
3000
0000
,
0002
0000
0003
0000
,
0200
0000
0300
0000
,
0020
0000
0030
0000
,
2000
0000
3000
0000
,
0020
0000
0030
0000
,
0002
0000
0003
0000
,
0200
0000
0300
0000
,
2000
0000
3000
0000
,
0002
0000
0003
0000
,
0200
0000
0300
0000
,
0020
0000
0030
0000
,
2000
0000
3000
0000
,
0002
0000
0003
0000
,
0200
0000
0300
0000
,
0020
0000
0030
0000
,
2000
0000
3000
0000
,
0002
0000
0003
0000
,
0200
0300
0020
0030
,
2000
3000
0002
0003
,
1100
0000
0110
0000
,
1001
0010
0100
0010
,
0011
0000
1100
0000
,
0002
0003
0200
0300
,
1100
0000
0011
0000
,
0100
1000
0001
0100
,
0011
0000
1100
0000
,
2000
0000
3020
0030
1100
0000
0000
0000
,
0101
0000
1000
0100
,
1000
0001
0110
0000
,
1001
0000
2000
3000
,
0002
0000
0003
1000
0110
0000
0000
0000
,
1001
0000
0001
0010
,
0100
0010
1001
0000
,
0011
0000
2000
3002
,
0103
0100
0100
0100
1001
0000
1001
0000
,
1001
0001
1001
0000
1000
0000
0100
0000
,
0001
0010
1100
1100
,
1100
1100
0100
1000
,
0010
0001
1010
1010
,
1010
0010
1010
0000
1000
0000
0100
0000
,
1000
0001
0101
0101
,
0101
0101
0010
1000
,
0001
0100
0110
1001
,
0110
0001
1001
0000
1000
0000
0100
0000
,
0010
0001
1001
0110
,
1001
0110
1000
0100
,
1000
0001
0011
0011
,
1100
0100
1100
0000
1000
0000
1000
0000
,
0001
0001
1100
1100
,
0011
0000
0011
0000
1000
0001
1000
0001
,
1000
0001
1000
0001
2020
0000
0000
0000
,
0000
3030
0002
0000
,
0000
0003
2200
0000
,
0000
3300
0002
0000
,
0000
0003
2020
0000
,
0000
3030
0200
0000
,
0000
0300
0022
0000
,
0000
0033
0200
0000
,
0000
0300
2002
0000
,
0000
3003
0002
0000
,
0000
0003
2200
0000
,
0000
3300
0020
0000
,
0000
0030
0202
0000
,
0000
0303
2000
0000
,
0000
3000
0202
0000
,
0000
0303
2000
0000
,
0000
0000
3000
0000
,
0000
0000
0010
0010
,
0010
0010
1001
0100
,
1000
0000
0001
0000
0100
0001
0100
0000
,
0100
0001
0100
0000
1000
0000
0100
0000
,
1000
0000
0001
0000
0100
1000
0100
0000
,
0100
0010
0100
0000
1001
0000
0010
0000
,
0100
0000
0010
0000
1000
0001
1000
0000
,
0001
0100
0001
0000
0100
0000
1000
0000
,
0001
0000
0010
0000
2000
3000
0002
0003
,
0100
0100
1001
0000
0100
0000
1000
0000
,
0001
0000
0100
0001
0100
0000
0100
0001
,
0100
1000
0100
1000
,
0001
0000
0100
1000
0100
0000
0100
0010
,
0100
1001
0010
0100
,
0010
0000
1000
0001
1000
0000
0001
0100
,
0001
0100
1000
0001
,
0010
0000
2000
3000
0200
0300
0010
0010
,
0010
0010
1100
0000
1100
0000
1100
0100
,
1001
0010
0100
0001
,
0010
1100
1100
1100
,
1001
1000
0001
0010
,
0100
0000
0011
0000
0011
0000
0011
0010
,
1010
1000
0100
1000
,
0001
0101
0101
0101
,
1001
0010
1000
0001
,
0100
0000
0110
0000
0110
0000
0110
0100
,
0101
0001
1000
0010
,
0100
0110
0110
0110
,
1010
0001
1000
0001
,
1000
0000
1100
0000
1100
0000
1100
0100
,
0101
0100
0100
0010
,
0010
0101
0101
0101
,
0011
0000
2000
3000
0002
0003
0100
0100
;

//--------------- dance-single - Mad Guns22 ----------------
#NOTES:
     dance-single:
     Mad Guns22:
     Challenge:
     10:
     0.7,1,0.972,0.482,0.057:
0000
0000
0000
0000
,
0000
0000
0000
0000
,
0000
0000
0000
0000
,
0000
0000
0000
0000
,
1000
1000
0001
0001
1000
0001
1000
0001
,
0100
0010
0010
0010
0010
0010
0010
0010
,
1000
0100
0001
1000
0100
0010
0100
1000
,
0001
1000
1000
1000
1000
1000
1000
1000
,
0002
0000
0203
0000
,
0320
0000
2030
0000
,
3002
0000
0203
0000
,
0320
0000
2030
0000
,
3002
0000
0203
0000
,
0320
0000
2030
0000
,
3002
0000
0203
0000
,
0320
0000
2030
0000
,
3200
0000
2300
0000
,
3002
0000
0023
0000
,
0230
0000
2300
0000
,
3002
0000
0023
0000
,
2030
0000
3002
0000
,
0203
0000
0320
0000
,
2030
0000
3002
0000
,
2003
0000
3020
0000
,
0230
0000
0320
0000
,
0032
0000
0203
0000
,
2300
3002
0203
0320
,
2030
0000
3200
0000
0320
0000
0032
0003
,
1100
0110
0011
1100
,
0001
0010
0100
1000
0100
1000
0100
0010
,
0101
1010
0101
1001
,
2000
0000
0000
3000
0002
0000
0000
0003
,
0101
0110
1001
0011
,
1000
0100
0010
0001
0010
0001
0010
0100
,
1010
0110
1100
1001
,
2000
0000
0000
0000
0002
0000
0000
3003
1100
0000
0000
0000
0110
0000
0000
0000
,
0011
0000
1100
0000
0100
0001
1000
0010
,
0001
0010
1000
0001
1100
0000
0101
0000
,
1100
0000
0110
0000
2000
0000
0000
3000
,
0002
0000
0000
1003
0101
0000
1001
0000
,
0110
0000
1010
0000
1000
0100
0010
0100
,
1000
0100
0010
0001
1010
0000
0101
0000
,
1100
0000
0110
0001
1000
0100
0000
0100
,
1000
1000
1000
1000
1100
0000
0110
0000
,
1000
0010
0101
0000
1010
0000
0101
0000
,
0110
1001
1001
0011
,
0110
1100
0110
0101
,
1100
0101
0011
1001
,
0100
1000
0011
0000
1100
0000
1010
0000
,
0110
1001
0110
0101
,
1001
1010
0110
0101
,
1100
0101
1010
1001
,
0010
0001
1100
0000
1010
0000
0101
0000
,
0110
1001
0110
1010
,
1001
0101
1001
1100
,
1010
0000
1100
0000
1000
0001
1000
0001
,
1000
0001
1000
0001
1000
0100
0010
0001
,
1000
0000
0100
0000
0010
0000
0001
0000
1000
0001
1000
0001
1000
0001
1000
0001
,
1000
0001
1000
0001
1000
0001
1000
0001
1000
0001
1000
0001
1000
0001
1000
0001
,
1000
0001
1000
0001
1000
0001
1000
0001
2000
0000
0000
0000
0000
0000
0100
0000
,
0000
0010
3002
0000
,
0000
0000
1000
0000
0203
0000
0000
0010
,
0000
1000
0302
0000
,
0000
0000
0000
0000
2003
0000
0000
0100
,
0000
0010
3020
0000
,
0000
0000
0001
0000
0032
0000
0000
0010
,
0000
1000
0203
0000
,
0000
0000
0000
0000
2300
0000
0000
0010
,
0000
0100
3200
0000
,
0000
0000
0001
0000
0320
0000
0000
1000
,
0000
0100
0032
0000
,
0000
0000
0023
0000
,
0000
0000
2030
0000
,
0000
0000
0200
0000
,
0000
0000
3020
0000
,
0000
0000
0000
0000
0000
0000
0000
0000
0000
0000
0000
0000
0000
0000
0000
0000
0000
0000
0000
0000
0000
0000
0000
0000
0000
0000
0000
0000
0000
0000
0000
0000
0000
0000
0000
0000
0000
0000
0000
0000
0000
0000
0000
0000
0000
0000
0000
0000
0000
0000
0000
0000
0000
0000
0000
0000
0000
0000
0000
0000
0000
0000
0000
0000
0000
0000
0000
0000
0000
0000
0000
0000
0000
0000
0000
0000
0000
0000
0000
0000
0000
0000
0000
0000
0000
0000
0000
0000
0000
0000
0000
0000
0000
0000
0000
0000
0030
0300
0000
0000
0000
0000
0000
0000
0000
0000
0000
0000
0000
0000
0000
0000
0000
0000
0000
0000
0000
0000
0000
0000
0000
0000
0000
0000
0000
0000
0000
0000
0000
0000
0000
0000
0000
0000
0000
0000
0000
0000
0000
0000
0000
0000
0000
0000
0000
0000
0000
0000
0000
0000
0000
0000
0000
0000
0000
0000
0000
0000
0000
0000
0000
0000
0000
0000
0000
0000
0000
0000
0000
0000
0000
0000
0000
0000
0000
0000
0000
0000
0000
0000
0000
0000
0000
0000
0000
0000
0000
0000
0000
0000
0000
0000
,
0000
0000
0000
0000
0100
0100
0100
0100
,
0100
0100
0100
0100
1001
0010
0100
0001
,
0010
0100
0010
1000
0010
0001
0001
0001
,
0001
0001
0001
0001
1000
0010
0100
1000
,
0001
0010
0100
0010
1000
0100
0100
0100
,
0100
0100
0100
0100
0011
0100
1000
0100
,
0010
0001
1000
0100
0010
0001
0001
0001
,
0001
0001
0001
0001
1000
0100
1000
0001
,
0010
0100
1000
0100
0010
1000
0000
0010
,
0200
0000
0000
0000
0320
0030
0000
0000
1001
0000
0000
0000
0010
0000
0000
0000
0100
0000
0000
0000
0001
0000
0000
0000
0100
0000
0000
0000
1000
0000
0000
0000
,
0001
0100
0010
1000
1000
1000
1000
1000
,
1000
1000
0100
0010
0001
1000
0001
0100
,
0010
1000
0001
0100
0100
0100
0100
0100
,
0100
0100
0011
1000
0100
0010
0001
1000
,
0100
0010
0001
0100
0100
0100
0100
0100
,
0100
0100
0001
0100
1000
0001
0100
1000
,
0001
0100
0010
1000
0001
1000
0010
0010
,
0010
0010
1100
0000
0110
0000
1000
0010
,
0101
1010
0101
0110
,
1001
1001
0011
0110
,
1100
1001
1100
1010
,
1100
0000
0101
0000
0110
0000
1000
0010
,
0101
1010
0011
1001
,
0110
1001
1100
0110
,
0011
1001
1100
1010
,
1100
0000
1100
0000
0110
0000
1000
0010
,
0101
1100
0011
1001
,
0110
0110
1010
1001
,
0101
1001
1100
1010
,
1100
0000
0101
0000
0110
0000
1000
0010
,
0101
1010
0011
1001
,
0110
1001
1100
0110
,
0011
0000
1000
0010
0000
0001
0100
0010
;
