#TITLE:Mix Your Sex [Radio Mix];
#SUBTITLE:;
#ARTIST:Dougal & Gammer;
#TITLETRANSLIT:;
#SUBTITLETRANSLIT:;
#ARTISTTRANSLIT:;
#GENRE:Happy Hardcore;
#CREDIT:Mad Guns22;
#MUSIC:Mix Your Sex.ogg;
#BANNER:Project default banner.png;
#BACKGROUND:Project default background.png;
#CDTITLE:MadGuns22Icon.png;
#SAMPLESTART:111.592;
#SAMPLELENGTH:12.000;
#SELECTABLE:YES;
#OFFSET:0.000;
#BPMS:0.000=170.000;
#STOPS:;
#DISPLAYBPM:170.000;
#BGCHANGES:;
#FGCHANGES:;

//--------------- dance-single - Mad Guns22 ----------------
#NOTES:
     dance-single:
     Mad Guns22:
     Hard:
     8:
     0.551,0.535,0.33,0.302,0.007:
0000
0000
0000
0000
,
0000
0000
0000
0000
,
0000
0000
0000
0000
,
0000
0000
0000
0000
,
2000
3000
0000
1000
0010
0100
0001
0000
,
0002
0003
0000
0001
0100
0000
0010
0000
,
2000
3000
0000
0001
0100
0010
1000
0000
,
2000
3000
0001
0010
0100
1000
0001
0000
,
2002
3003
0000
0001
0100
0010
1000
0000
,
2002
3003
0000
1000
0010
0000
0100
0000
,
0202
0303
0000
1000
0010
0100
0001
0000
,
2020
3030
0000
1000
0010
0000
0100
0000
,
2200
3300
0000
1000
0010
0100
0001
0000
,
0022
0033
0000
0001
0100
0000
0010
0000
,
2020
3030
0000
0001
0100
0010
1000
0000
,
1000
0000
0000
1000
0100
0000
0010
0000
,
1000
0000
1001
0000
0010
0100
1000
0000
,
0010
0101
1000
0110
,
0001
0000
0101
0000
1000
0001
0010
0000
,
1000
1010
0100
0010
,
0001
0000
1001
0000
0100
0010
0001
0000
,
0100
1010
0001
0110
,
1000
0000
1010
0000
0001
1000
0100
0000
,
0001
0101
0010
0100
,
2000
0000
3001
1000
,
0002
0000
0000
0000
1003
0000
0010
0010
,
0002
0000
1003
0001
,
2000
0000
0000
0000
3001
0000
0100
0100
,
0000
0000
0010
0010
0000
0000
1000
1000
,
0000
0000
0001
0001
0000
0000
1000
0001
,
1000
0100
1000
0001
1000
0010
1000
0100
,
4000
0004
0000
0000
0000
0000
0000
0000
0000
0000
3000
0003
0000
0000
0000
0000
,
1100
0000
0000
0001
1000
0010
0100
0000
,
0001
1000
0001
1000
1000
0000
0001
0000
,
0011
0000
0000
1000
0001
0100
0010
0000
,
1000
0001
1000
0001
0001
0000
1000
0000
,
0011
0000
0000
1000
0001
0100
0010
0000
,
1000
0001
1000
0001
0001
0000
1000
0000
,
1100
0000
0000
0001
1000
0010
0100
0000
,
0001
1000
0001
1000
1000
0000
0001
0000
,
0110
0000
0000
1000
0100
0010
0001
0000
,
1000
0100
0000
0010
0010
0000
0100
0000
,
0010
0000
0000
0001
0010
0100
1000
0000
,
0001
0100
0000
0100
0100
0000
0010
0000
,
0100
0001
0000
0001
1000
0010
0100
0000
,
0001
1000
0000
1000
1000
0000
0001
0000
,
0001
0010
0000
1000
0001
0100
0010
0000
,
1000
0000
0000
1000
0002
0000
0000
0003
,
1001
0010
0100
0001
,
1001
0000
0100
0010
0020
0000
0130
0000
,
1001
0010
0100
0001
,
1001
0000
0001
1000
2000
0000
3001
0000
,
1001
0100
0010
1000
,
1001
0000
0010
0100
0200
0000
0310
0000
,
1001
0100
0010
1000
,
1001
0000
1000
0001
0002
0000
1003
0000
,
0001
1000
0020
1030
,
0001
1000
0200
1300
,
0001
1000
0020
1030
,
0001
1000
0200
1300
,
0001
1000
0200
0301
,
1000
0001
0020
0031
,
1000
0001
0200
0301
,
1000
0001
0020
0031
,
1100
0000
0000
1000
0001
0100
0001
0000
,
0100
0000
0000
1000
1001
0000
0101
0000
,
0011
0000
0000
0001
1000
0010
1000
0000
,
0010
0000
0000
0001
1001
0000
1010
0000
,
0011
0000
0000
0001
1000
0010
1000
0000
,
0010
0000
0000
0001
1001
0000
1010
0000
,
1100
0000
0000
1000
0001
0100
0001
0000
,
0100
0000
0000
1000
1001
0000
0101
0000
,
0020
0000
0000
0030
0200
0000
0000
0300
,
0002
0000
0000
0003
0200
0000
0001
0301
,
0002
0000
0000
0003
0200
0000
0000
0300
,
0020
0000
0000
0030
0002
0000
1000
1003
,
0000
0000
0100
0100
0000
0000
1000
1000
,
0000
0000
0001
0001
0000
0000
0010
0010
,
0100
0010
0100
0010
1000
0001
1000
0001
,
4000
0004
0000
0000
0000
0000
0000
0000
0000
0000
3000
0003
0000
0000
0000
0000
,
1100
0000
0000
0001
1000
0010
0100
0000
,
0001
1000
0001
1000
1000
0000
0001
0000
,
0011
0000
0000
1000
0001
0100
0010
0000
,
1000
0001
1000
0001
0001
0000
1000
0000
,
0011
0000
0000
1000
0001
0100
0010
0000
,
1000
0001
1000
0001
0001
0000
1000
0000
,
1100
0000
0000
0001
1000
0010
0100
0000
,
0001
1000
0001
1000
1000
0000
0001
0000
,
0110
0000
0000
1000
0100
0010
0001
0000
,
1000
0100
0000
0010
0010
0000
0100
0000
,
0010
0000
0000
0001
0010
0100
1000
0000
,
0001
0100
0000
0100
0100
0000
0010
0000
,
0100
0001
0000
0001
1000
0010
0100
0000
,
0001
1000
0000
1000
1000
0000
0001
0000
,
0001
0010
0000
1000
0001
0100
0010
0000
,
1000
0010
0000
0100
0000
1000
0001
1000
,
0110
0000
0000
0001
0010
0100
1000
0000
,
0001
0010
0000
0100
0100
0000
0010
0000
,
0100
0000
0000
1000
0100
0010
0001
0000
,
1000
0010
0000
0010
0010
0000
0100
0000
,
0010
1000
0000
1000
0001
0100
0010
0000
,
1000
0001
0000
0001
0001
0000
1000
0000
,
1000
0100
0000
0001
1000
0010
0100
0000
,
0001
0000
0000
1000
0002
0000
0003
0000
;
