#TITLE:Micro Nē;
#SUBTITLE:;
#ARTIST:Cube Hard;
#TITLETRANSLIT:;
#SUBTITLETRANSLIT:;
#ARTISTTRANSLIT:;
#GENRE:;
#CREDIT:Mad Guns22;
#MUSIC:Micro N^2.mp3;
#BANNER:Project default banner.png;
#BACKGROUND:Project default background.png;
#CDTITLE:MadGuns22Icon.png;
#SAMPLESTART:56.430;
#SAMPLELENGTH:12.000;
#SELECTABLE:YES;
#OFFSET:-0.025;
#BPMS:0.000=85.000
,48.000=170.000
;
#STOPS:;
#BGCHANGES:;
#FGCHANGES:;

//--------------- dance-single - Mad Guns22 ----------------
#NOTES:
     dance-single:
     Mad Guns22:
     Hard:
     9:
     0.735,0.641,0.195,0.106,0.355:
0000
0000
0000
0000
,
0000
0000
0000
0000
,
0000
0000
0000
0000
,
0000
0000
0000
0000
,
1001
0000
0000
0000
0100
0000
0000
0000
0010
0000
0000
0000
0100
0000
1000
0010
,
0000
0000
0000
0000
0000
0000
0010
1000
0000
0000
0000
0000
0000
0000
0100
0001
,
0000
0000
0000
0000
0001
0000
0000
0000
0100
0000
1000
0000
0010
0000
0100
0001
,
0000
0000
0000
0000
1000
0000
0001
0010
0000
0000
0000
0000
0001
0000
1000
0000
,
0001
0000
0000
0000
0010
0000
0000
0000
0100
0000
0000
0000
0010
0000
0001
0100
,
0000
0000
0000
0000
0000
0000
0100
0001
0000
0000
0000
0000
0000
0000
0010
1000
,
0000
0000
0000
0000
1000
0000
0000
0000
0010
0000
0001
0000
0100
0000
0010
1000
,
0200
0000
0000
0000
0000
0000
0000
0000
0000
0000
0000
0000
0000
0000
0300
0020
,
0031
0000
0100
0000
0010
0000
0000
0100
0000
0000
0010
0000
0000
0101
0000
0000
,
0100
0000
1000
0000
0010
0000
0000
0100
0000
0000
0001
0000
0000
0110
0000
0000
,
1000
0000
0010
0000
0100
0000
0000
0010
0000
0000
0100
0000
0000
1010
0000
0000
,
0010
0000
0001
0000
0100
0000
0000
0010
0000
0000
1000
0000
0000
0101
0000
0000
,
1000
0000
0001
0000
0010
0000
0000
0001
0000
0000
0010
0000
0000
0101
0000
0000
,
1000
0000
0100
0000
0010
0000
0000
0001
0000
0000
1000
0000
0000
1010
0000
0000
,
0100
0000
0010
0000
0001
0000
0000
0010
0000
0000
0001
0000
0000
0110
0000
0000
,
0100
0000
1000
0000
0001
0000
0000
0010
0000
0000
0100
0000
0000
0011
0200
0000
,
1300
0000
0001
0000
0010
0000
0000
0001
0000
0000
0110
0000
0000
1001
0000
0000
,
0001
0000
0100
0000
0010
0000
0000
0001
0000
0000
1000
0000
0000
0011
0000
0000
,
0100
0000
0010
0000
0001
0000
0000
0010
0000
0000
1001
0000
0000
0110
0000
0000
,
0010
0000
1000
0000
0001
0000
0000
0010
0000
0000
0100
0000
0000
1001
0000
0000
,
0100
0000
1000
0000
0010
0000
0000
1000
0000
0000
0110
0000
0000
1001
0000
0000
,
0100
0000
0001
0000
0010
0000
0000
1000
0000
0000
0100
0000
0000
0110
0000
0000
,
0001
0000
0010
0000
1000
0000
0000
0010
0000
0000
1100
0000
0000
0011
0000
0000
,
0001
0000
0100
0000
1000
0000
0000
0010
0000
0000
0001
0000
0000
1010
0200
0000
,
0301
0010
0001
0000
1000
0100
1000
0010
,
0001
0010
0100
1000
0001
0010
0100
1000
,
0010
0000
0010
0100
0000
0100
1000
0000
,
1000
0010
0100
0001
1000
0010
0100
0001
,
1000
0100
1000
0000
0001
0010
0001
0100
,
1000
0100
0010
0001
1000
0100
0010
0001
,
0100
0000
0100
0010
0000
0010
0001
0000
,
0001
0100
0010
1000
0001
0100
0010
1000
,
0001
0100
0001
0000
0010
1000
0010
0100
,
0001
0100
1000
0010
0001
0100
1000
0010
,
0100
0000
0100
1000
0000
1000
0010
0000
,
0010
0100
1000
0001
0010
0100
1000
0001
,
0010
1000
0010
0000
0001
0100
0001
1000
,
0010
1000
0100
0001
0010
1000
0100
0001
,
1000
0000
1000
0100
0000
0100
0001
0000
,
0001
0000
1000
0000
0100
0000
0000
0001
0000
0000
0100
0000
0000
0010
0000
0000
,
1000
0000
0100
0000
0010
0000
0000
0001
0000
0000
0100
0000
0010
0000
0000
0000
,
0001
0000
0010
0000
0001
0000
0000
1000
0000
0000
0100
0000
0001
0000
0000
0000
,
1000
0000
0100
0000
0001
0000
0000
1000
0000
0000
0001
0000
0010
0000
0000
0000
,
0100
0000
0001
0000
0010
0000
0000
1000
0000
0000
0010
0000
0001
1000
0001
0000
,
0001
0000
0010
0000
0100
0000
0000
1000
0000
0000
0010
0000
0100
0000
0000
0000
,
1000
0000
0100
0000
1000
0000
0000
0001
0000
0000
0010
0000
1000
0000
0000
0000
,
0001
0000
0010
0000
1000
0000
0000
0001
0000
0000
1000
0000
0100
0000
0000
0000
,
0010
0000
1000
0000
0100
0000
0000
0001
0000
0000
0100
0000
1000
0001
2000
0000
,
3010
0000
0100
0000
0010
0000
0000
1000
0000
0001
1000
0000
0001
0000
0100
0000
,
0010
0000
0001
0000
1000
0000
0000
0001
0000
0000
0100
0000
0001
0000
1000
0000
,
0100
0000
0010
0000
0100
0000
0000
0001
0000
1000
0001
0000
1000
0000
0010
0000
,
0100
0000
1000
0000
0001
0000
0000
1000
0000
0000
0010
0000
1000
0001
1000
0000
,
0010
0000
0001
0000
0010
0000
0000
0100
0000
1000
0100
0000
1000
0000
0001
0000
,
0010
0000
1000
0000
0100
0000
0000
1000
0000
0000
0001
0000
1000
0000
0100
0000
,
0001
0000
0010
0000
0001
0000
0000
1000
0000
0100
1000
0000
0100
0000
0010
0000
,
0001
0000
0100
0000
1000
0000
0000
0100
0000
0000
0010
0000
0100
1000
0200
0000
,
0301
0000
1000
0000
0001
0000
0000
0010
0000
0100
0010
0000
0100
0000
1000
0000
,
0001
0000
0100
0000
0010
0000
0000
0100
0000
0000
1000
0000
0100
0000
0010
0000
,
1000
0000
0001
0000
1000
0000
0000
0100
0000
0010
0100
0000
0010
0000
0001
0000
,
1000
0000
0010
0000
0100
0000
0000
0010
0000
0000
0001
0000
0010
0100
0010
0000
,
1000
0000
0001
0000
1000
0000
0000
0100
0000
0010
0100
0000
0010
0000
0001
0000
,
1000
0000
0010
0000
0100
0000
0000
0010
0000
0000
0001
0000
0010
0000
0100
0000
,
0001
0000
1000
0000
0001
0000
0000
0010
0000
0100
0010
0000
0100
0000
1000
0000
,
0022
0000
0000
0000
0000
0000
0033
0200
,
0301
0010
0100
1000
0001
0010
0100
1000
,
0001
0010
0001
0100
0001
1000
0001
0100
,
1000
0100
0010
0100
0001
0100
0010
0100
,
0001
1000
0010
0100
0001
1000
0010
0100
,
1000
0100
0010
0001
1000
0100
0010
0001
,
1000
0100
1000
0010
1000
0001
1000
0010
,
0001
0010
0100
0010
1000
0010
0100
0010
,
1000
0001
0100
0010
1000
0001
0100
0020
,
1030
0010
0001
0100
1000
0010
0001
0100
,
1000
0010
1000
0001
1000
0100
1000
0001
,
0100
0001
0010
0001
1000
0001
0010
0001
,
1000
0100
0010
0001
1000
0100
0010
0001
,
0100
0001
0010
1000
0100
0001
0010
1000
,
0100
0001
0100
0010
0100
1000
0100
0010
,
1000
0010
0001
0010
0100
0010
0001
0010
,
0100
1000
0001
0010
0100
1000
0001
0020
,
0200
0000
0000
0000
,
0330
0000
0000
0000
;

//--------------- dance-single - Mad Guns22 ----------------
#NOTES:
     dance-single:
     Mad Guns22:
     Challenge:
     11:
     1,0.942,0.053,0.16,1:
0000
0000
0000
0000
,
0000
0000
0000
0000
,
0000
0000
0000
0000
,
0000
0000
0000
0000
,
1000
0000
0000
0000
0100
0000
0000
0000
0010
0000
0000
0000
0000
0000
0010
0100
,
1000
0000
0100
0010
0001
0000
0010
0100
0010
0000
0100
1000
0100
0000
1000
0001
,
1000
0001
0100
1000
0001
0100
0001
1000
,
0010
0100
0010
0000
1000
0100
0000
1000
0001
0000
1000
0000
0010
0000
0100
0000
,
1001
0000
0100
0010
0100
0000
0010
0100
0000
1000
0100
0010
0000
0001
0100
0010
,
0001
0000
0010
0100
1000
0000
0100
0010
0100
0000
0010
0001
0010
0000
0001
1000
,
0001
1000
0010
0001
1000
0010
1000
0001
,
0022
0000
0000
0000
0000
0000
0000
0000
0000
0000
0000
0000
0000
0033
0000
0200
,
1300
0000
0100
0001
0100
0000
1000
0010
0000
1000
0001
0000
1000
0100
0000
1000
,
0100
0000
0001
0010
1000
0000
0100
0001
0000
0100
0010
0000
0100
1000
0000
0100
,
0001
0000
0010
1000
0100
0000
1000
0001
0000
1000
0010
0000
1000
0100
0000
1000
,
0100
0000
0001
0100
0010
0000
0100
1000
0000
0100
0001
0000
0100
1000
0000
0001
,
0010
0000
0001
1000
0100
0000
0001
0100
0000
1000
0100
0000
0010
0100
0000
0010
,
0001
0000
1000
0010
1000
0000
0100
1000
0000
0001
1000
0000
0010
1000
0000
0100
,
0001
0000
0010
1000
0100
0000
0001
0100
0000
0010
0100
0000
1000
0100
0000
1000
,
0001
0000
0010
0001
0100
0000
0001
0010
0000
0001
1000
0000
0001
0000
2200
0000
,
3301
1000
0001
1000
0001
0000
0010
0001
0010
0001
0010
0000
0100
0000
0001
0000
,
0010
1000
0010
1000
0010
0000
0001
0010
0001
0010
0001
0000
0100
0000
1000
0000
,
0001
1000
0001
1000
0001
0000
0001
0010
0001
0010
0001
0000
0100
0000
0001
0000
,
0010
0100
0010
0100
0010
0000
0010
0001
0010
0001
0010
0000
0001
0000
1000
0000
,
0001
1000
0001
1000
0001
0000
0010
0001
0010
0001
0010
0000
0100
0000
0010
0000
,
0100
0001
0100
0001
0100
0000
0001
0010
0001
0010
0001
0000
0010
0000
1000
0000
,
0010
1000
0010
1000
0010
0000
0001
0010
0001
0010
0001
0000
0100
0000
1000
0000
,
0001
0010
0001
0000
0010
0000
0100
0010
0001
0000
1000
0000
0001
0000
0020
0000
,
0130
0000
1000
0001
0010
0000
0100
0001
0000
0001
0010
0000
0010
1000
0000
0010
,
0001
0000
0100
1000
0001
0000
0010
0001
0000
0001
0010
0000
0010
0100
0000
0100
,
0001
0000
0010
1000
0010
0000
0001
0100
0000
1000
0010
0000
0001
0100
0000
1000
,
0001
0010
0001
0010
0100
1000
0001
0010
,
0100
0000
0100
0001
0010
0000
0010
1000
0000
1000
0010
0000
0010
0001
0000
0001
,
0100
0000
0010
0001
1000
0000
0001
0010
0000
0100
0010
0000
0001
1000
0000
0001
,
0010
0000
0100
0001
0010
0000
1000
0010
0000
0001
0100
0000
1000
0100
0000
0010
,
0001
0000
1000
0000
0001
0000
0010
0000
0100
0000
0001
0000
0010
0000
0000
0010
,
1000
0000
0010
0001
0100
0000
1000
0010
0000
0001
0100
0000
1000
0001
0000
0010
,
0100
0000
1000
0001
0010
0000
0100
0001
0000
0010
1000
0000
0010
0001
0000
0100
,
1000
0000
0001
0010
0100
0000
1000
0100
0000
0001
0100
0000
1000
0010
0000
0001
,
0100
0000
1000
0001
0010
0000
0100
1000
0000
0001
0010
0000
0100
0000
0001
0000
,
0100
0000
1000
0000
0010
0000
0001
0000
0100
0000
1000
0010
0001
0000
0100
1000
,
0001
0000
0010
0000
0100
0000
1000
0000
0001
0000
0010
0100
0010
0000
0100
1000
,
0001
0000
1000
0000
0010
0000
0001
0100
0000
1000
0010
0000
0001
0100
0000
1000
,
0001
0000
0010
0000
0100
0000
0000
0010
0000
0000
0001
0000
0000
1000
0020
0000
,
1030
0001
1000
0001
1000
0000
0100
1000
0100
1000
0100
0000
0010
0000
1000
0000
,
0100
0001
0100
0001
0100
0000
1000
0100
1000
0100
1000
0000
0010
0000
0001
0000
,
1000
0001
1000
0001
1000
0000
1000
0100
1000
0100
1000
0000
0010
0000
1000
0000
,
0100
0010
0100
0010
0100
0000
0100
1000
0100
1000
0100
0000
1000
0000
0001
0000
,
1000
0001
1000
0001
1000
0000
0100
1000
0100
1000
0100
0000
0010
0000
0100
0000
,
0010
1000
0010
1000
0010
0000
1000
0100
1000
0100
1000
0000
0100
0000
0001
0000
,
0100
0001
0100
0001
0100
0000
1000
0100
1000
0100
1000
0000
0010
0000
0001
0000
,
1000
0100
1000
0000
0100
0000
0010
0100
1000
0000
0001
0000
1000
0000
0200
0000
,
1300
0000
0001
0100
1000
0000
0010
0001
0000
0010
0100
0000
1000
0000
0001
0000
,
1000
0000
0001
0010
1000
0000
0100
0001
0000
0100
1000
0000
0010
0000
0001
0000
,
0100
0000
0001
0010
0100
0000
1000
0001
0000
1000
0100
0000
0010
0000
1000
0000
,
0100
0000
0001
0100
1000
0000
0010
0001
0000
1000
0001
0000
0010
0000
0001
0000
,
0010
0000
1000
0010
0001
0000
0010
0100
0000
1000
0001
0000
0100
0000
1000
0000
,
0010
0000
0001
1000
0100
0000
1000
0001
0000
0010
1000
0000
0100
0000
0001
0000
,
0100
0000
1000
0010
0001
0000
1000
0100
0000
1000
0100
0000
0010
0000
1000
0000
,
0100
0000
0001
0100
1000
0000
0010
0001
0000
1000
0100
0000
0010
0000
0022
0000
,
1033
0000
0100
0010
0100
0000
1000
0001
0000
0010
0100
0000
0010
0000
1000
0000
,
0100
0000
0001
0100
1000
0000
0010
0001
0000
1000
0100
0000
0010
0000
0001
0000
,
0010
0000
1000
0010
0001
0000
0100
0001
0000
1000
0100
0000
1000
0000
0010
0000
,
1000
0000
0100
1000
0001
0000
0100
1000
0000
0100
0001
0000
0100
0000
1000
0000
,
0100
0000
0010
0100
1000
0000
0100
0001
0000
0010
0100
0000
1000
0000
0001
1000
,
0100
0000
0010
0100
1000
0000
0001
1000
0000
1000
0001
0000
0010
0000
1000
0000
,
0010
0000
0001
0010
0100
0000
0010
1000
0000
0010
0001
0000
0010
0000
2000
0000
,
0002
0000
0000
0000
0000
0000
3003
0200
,
1300
0000
0100
0010
1000
0000
0001
0100
0000
0001
0010
0000
1000
0000
0100
0000
,
1000
0000
0100
0001
1000
0000
0010
0100
0000
0010
1000
0000
0001
0000
0100
0000
,
0010
0000
0100
0001
0010
0000
1000
0100
0000
1000
0010
0000
0001
0000
1000
0000
,
0010
0000
0100
0010
1000
0000
0001
0100
0000
1000
0100
0000
0001
0000
0100
0000
,
0001
0000
1000
0001
0100
0000
0001
0010
0000
1000
0100
0000
0010
0000
1000
0000
,
0001
0000
0100
1000
0010
0000
1000
0100
0000
0001
1000
0000
0010
0000
0100
0000
,
0010
0000
1000
0001
0100
0000
1000
0010
0000
1000
0010
0000
0001
0000
1000
0000
,
0010
0000
0100
0010
1000
0000
0001
0100
0000
1000
0010
0000
0001
0000
0202
0000
,
0313
0000
1000
0010
0001
0000
0100
1000
0000
0100
0010
0000
0001
0000
1000
0000
,
0001
0000
1000
0100
0001
0000
0010
1000
0000
0010
0001
0000
0100
0000
1000
0000
,
0010
0000
1000
0100
0010
0000
0001
1000
0000
0001
0010
0000
0100
0000
0001
0000
,
0010
0000
1000
0010
0001
0000
0100
1000
0000
0001
1000
0000
0100
0000
1000
0000
,
0100
0000
0001
0100
1000
0000
0100
0010
0000
0001
1000
0000
0010
0000
0001
0000
,
0100
0000
1000
0001
0010
0000
0001
1000
0000
0100
0001
0000
0010
0000
1000
0000
,
0010
0000
0001
0100
1000
0000
0001
0010
0000
0001
0010
0000
0100
0000
0001
0000
,
0010
0000
1000
0010
0001
0000
0100
1000
0000
0001
0010
0000
0100
0000
2000
0000
,
3022
0000
0000
0000
,
0033
0000
0000
0000
;
