#TITLE:Me & You [Dirtyphonics Remix];
#SUBTITLE:;
#ARTIST:Nero;
#TITLETRANSLIT:;
#SUBTITLETRANSLIT:;
#ARTISTTRANSLIT:;
#GENRE:;
#CREDIT:Mad Guns22;
#MUSIC:Me & You [Dirtyphonics Remix].mp3;
#BANNER:Project default banner.png;
#BACKGROUND:Project default background.png;
#CDTITLE:MadGuns22Icon.png;
#SAMPLESTART:98.742;
#SAMPLELENGTH:12.000;
#SELECTABLE:YES;
#OFFSET:-0.023;
#BPMS:0.000=87.500
,56.000=175.000
,67.000=350.000
,70.000=175.000
,99.000=350.000
,102.000=175.000
,152.000=350.000
,153.000=175.000
,184.000=350.000
,185.000=175.000
,216.000=350.000
,217.000=175.000
,232.000=350.000
,233.000=175.000
,248.000=350.000
,249.000=175.000
,264.000=350.000
,265.000=175.000
,280.000=87.500
,288.000=175.000
,288.500=87.500
,292.000=175.000
,316.000=350.000
,317.000=175.000
;
#STOPS:49.500=1.371
,51.500=1.371
,53.500=1.371
,55.500=1.371
,67.000=0.057
,67.333=0.057
,67.667=0.057
,68.000=0.057
,68.333=0.057
,68.667=0.057
,69.000=0.057
,69.333=0.057
,69.667=0.057
,99.000=0.057
,99.333=0.057
,99.667=0.057
,100.000=0.057
,100.333=0.057
,100.667=0.057
,101.000=0.057
,101.333=0.057
,101.667=0.057
,152.000=0.171
,184.000=0.171
,216.000=0.171
,232.000=0.171
,248.000=0.171
,264.000=0.171
,288.000=0.171
,316.000=0.171
;
#DISPLAYBPM:87.500:175.000;
#BGCHANGES:;
#FGCHANGES:;

//--------------- dance-single - Mad Guns22 ----------------
#NOTES:
     dance-single:
     Mad Guns22:
     Hard:
     10:
     0.829,0.934,0.549,0.311,0.476:
0000
0000
0000
0000
,
0000
0000
0000
0000
,
0000
0000
0000
0000
,
0000
0000
0000
0000
0000
0000
0000
0000
0000
0000
0000
0000
1000
0001
1000
0001
,
0001
0100
0011
0100
1000
0010
0101
0100
,
0001
0000
0010
0000
1100
0000
0010
0000
1000
0000
0100
0000
0001
2000
0001
0000
,
0110
3000
0010
0000
1100
0000
0010
0000
0001
0000
0100
0000
1010
0000
0010
0000
,
1000
0100
0011
0100
0010
1000
0010
0001
,
0011
0100
0110
1000
0101
0010
0110
1000
,
0101
0010
0011
0100
1010
0100
1001
0010
,
0101
1000
1100
0010
1001
0100
1100
0010
,
1001
0100
0101
1000
0110
1000
0011
0100
,
1000
0100
0010
0001
0000
0000
0000
0000
0001
0010
0100
1000
0000
0000
0000
0000
,
1000
0100
0010
0001
0000
0000
0000
0000
0010
0100
0001
1000
0000
0000
0000
0000
,
1100
0001
0100
0010
0000
0000
0000
0000
,
0101
0010
0100
0000
0010
0100
0000
0010
,
0101
0000
0000
0001
0000
0000
0010
0000
0000
1000
0001
1000
,
0001
0000
1000
0000
0001
0000
1000
0000
0001
0000
1000
0000
0002
0000
0000
0000
0000
0000
0013
0000
0000
0100
0000
0000
,
1010
0100
0001
0010
0000
0000
0000
0000
,
0101
0010
1000
0000
0010
0100
0010
0000
,
0110
0000
0000
1000
0000
0000
0022
0000
,
0000
0030
0000
0003
,
1001
0010
0100
0001
0000
0000
0000
0000
,
1100
0010
0001
0000
0010
0100
0000
0000
,
0110
0000
0000
0001
0000
0000
0100
0000
0000
0001
0100
0001
,
0100
0000
0001
0000
0100
0000
0001
0000
0100
0000
0001
0000
0200
0000
0000
0000
0000
0000
0310
0000
0000
1000
0000
0000
,
0101
0010
0110
0001
,
1100
0010
0101
0010
,
0101
0001
0110
1000
,
0101
0010
1100
0010
,
1000
0010
0100
0001
1000
0100
1000
0001
,
0010
1000
0100
0010
0001
0010
0100
1000
,
0001
0100
0010
1000
0100
1000
0001
0010
,
0100
0001
0010
1000
0100
1000
0100
0010
,
0001
0100
0010
0100
1000
0100
1000
0001
,
0010
0100
1000
0100
0010
0100
0010
0001
,
1000
0100
0010
0100
0001
0010
0100
0001
,
1000
0010
1000
0010
1000
0010
1000
0010
1000
0010
1000
0010
,
0101
2000
0001
0010
,
0001
0000
0010
0000
3200
0000
0301
0010
,
1000
0100
1000
0010
0000
0000
0100
0000
0000
0001
1000
0001
,
0100
0010
0100
0010
0200
0000
0301
0010
,
1100
0010
0000
0001
0010
0001
0100
0010
0000
1000
0100
1000
,
0010
0000
0001
0000
0000
0000
0100
0000
1000
0000
0100
0000
0020
0000
0000
0000
0000
0000
0030
0000
0000
0100
0000
0000
,
0001
0010
0001
1000
0000
0000
0100
0010
0100
0001
0000
0000
,
1000
0100
0002
0000
1000
0000
0100
0003
,
1010
0002
1000
0100
,
1000
0000
0100
0000
0023
0000
1030
0100
,
0001
0010
0001
0100
0000
0000
0010
0000
0000
1000
0001
1000
,
0010
0100
0010
0100
0020
0000
1030
0100
,
0011
0100
0000
1000
0100
1000
0010
0100
0000
0001
0010
0001
,
0100
0000
1000
0000
0000
0000
0010
0000
0001
0000
0010
0000
0200
0000
0000
0000
0000
0000
0300
0000
0000
0010
0000
0000
,
1000
0100
1000
0001
0000
0000
0010
0100
0010
1000
0000
0000
,
0001
0010
2000
0000
0001
0000
0010
3000
,
0110
0000
1100
0010
0100
0001
0010
1000
,
0001
0100
0010
1000
0010
0100
1000
0001
,
0020
0000
0000
0000
0000
0000
0030
0000
0000
0200
0000
0000
0000
0000
0000
0300
0000
0000
0010
0000
0100
0000
0010
0000
,
0100
0000
0010
0000
0100
0000
0010
0000
0100
0000
0010
0000
0200
0000
0000
0000
0000
0000
0320
0000
0000
0031
0000
0000
,
2000
0000
3100
0010
0100
0001
0010
1000
,
0100
0010
0001
1000
0100
0001
0010
1000
,
0100
1000
0000
0010
0100
1000
0000
0100
,
0010
0100
0000
0001
0010
0100
0000
0000
,
1100
0000
1010
0100
1000
0001
0100
0010
,
0001
1000
0100
0010
0100
1000
0010
0001
,
0200
0000
0000
0000
0000
0000
0300
0000
0000
2000
0000
0000
0000
0000
0000
3000
0000
0000
0100
0000
1000
0000
0100
0000
,
1000
0000
0100
0000
1000
0000
0100
0000
1000
0000
0100
0000
2000
0000
0000
0000
0000
0000
3200
0000
0000
0301
0000
0000
,
0020
0000
1030
0100
1000
0001
0100
0010
,
1000
0100
0001
0010
1000
0001
0100
0010
,
1000
0010
0000
0000
1000
0010
0000
0000
,
0100
1000
0000
0000
0100
1000
0100
1000
,
0110
0011
0110
1001
,
0011
0000
1100
0000
0010
0000
0100
0010
,
1100
0000
0001
0010
0001
0010
1000
0100
0010
0001
0010
0100
1000
0001
0110
0000
,
0001
0010
0001
1000
0000
0000
0010
0000
0000
0100
0001
0100
,
0010
1000
0010
1000
0020
0000
0130
1000
,
0011
1000
0000
0100
1000
0100
0010
1000
0000
0001
0010
0001
,
1000
0000
0100
0000
0000
0000
0010
0000
0001
0000
0010
0000
2000
0000
0000
0000
0000
0000
3000
0000
0000
0010
0000
0000
,
0100
1000
0100
0001
0000
0000
0010
1000
0010
0100
0000
0000
,
0001
0010
0200
0000
0001
0000
0010
0300
,
1001
0200
0001
0010
,
0001
0000
0010
0000
2300
0000
3001
0010
,
0100
1000
0100
0010
0000
0000
1000
0000
0000
0001
0100
0001
,
1000
0010
1000
0010
2000
0000
3002
0000
,
2203
0000
0000
0000
,
0000
0000
0000
0000
,
3300
0000
0000
0000
;
