#TITLE:Make The Beat Drop;
#SUBTITLE:;
#ARTIST:Scott Brown;
#TITLETRANSLIT:;
#SUBTITLETRANSLIT:;
#ARTISTTRANSLIT:;
#GENRE:Hardcore;
#CREDIT:Mad Guns22;
#MUSIC:Make The Beat Drop.mp3;
#BANNER:Project default banner.png;
#BACKGROUND:Project default background.png;
#CDTITLE:MadGuns22Icon.png;
#SAMPLESTART:67.744;
#SAMPLELENGTH:12.000;
#SELECTABLE:YES;
#OFFSET:-0.050;
#BPMS:0.000=170.000
,128.000=85.000
,160.000=170.000
;
#STOPS:;
#DISPLAYBPM:170.000;
#BGCHANGES:;
#FGCHANGES:;

//--------------- dance-single - Mad Guns22 ----------------
#NOTES:
     dance-single:
     Mad Guns22:
     Beginner:
     1:
     0.11,0.161,0.044,0.044,0:
0000
0000
0000
0000
,
0000
0000
0000
0000
,
0000
0000
0000
0000
,
0000
0000
0000
0000
,
1000
0000
0000
0000
,
1100
0000
0000
0000
,
0001
0000
0000
0000
,
0011
0000
0000
0000
,
0010
0000
0000
0000
,
0100
0000
0000
0000
,
0001
0000
0000
0000
,
0010
0000
0000
0000
,
0100
0000
0000
0000
,
1000
0000
0000
0000
,
0010
0000
0000
0000
,
0200
0000
0300
0000
,
0010
0000
0000
0000
,
0100
0000
0000
0000
,
0001
0000
0000
0000
,
0010
0000
0000
0000
,
0010
0000
0000
0000
,
0100
0000
0000
0000
,
0001
0000
0000
0000
,
0010
0000
0000
0000
,
0100
0000
0000
0000
,
1000
0000
0000
0000
,
0010
0000
0000
0000
,
0100
0000
0000
0000
,
0001
0000
0000
0000
,
0010
0000
0000
0000
,
0100
0000
0000
0000
,
0020
0000
0030
0000
,
1000
0000
0010
0000
,
0100
0000
0010
0000
,
1000
0000
0010
0000
,
0100
0000
1000
0000
,
0001
0000
0100
0000
,
0010
0000
0100
0000
,
1000
0000
0100
0000
,
0010
0000
2000
3000
,
1010
0000
0000
0000
,
0100
0000
0000
0000
,
0010
0000
0000
0000
,
1000
0000
0000
0000
,
0001
0000
0000
0000
,
1000
0000
0000
0000
,
0001
0000
0000
0000
,
0010
0000
0000
0000
,
0110
0000
0000
0000
,
1000
0000
0000
0000
,
0100
0000
0000
0000
,
0010
0000
0000
0000
,
0001
0000
0000
0000
,
0010
0000
0000
0000
,
0001
0000
0000
0000
,
0200
0000
0300
0000
,
0110
0000
0000
0000
,
0001
0000
0000
0000
,
0010
0000
0000
0000
,
0100
0000
0000
0000
,
1000
0000
0000
0000
,
0100
0000
0000
0000
,
1000
0000
0000
0000
,
0010
0000
0000
0000
,
0011
0000
0000
0000
,
0100
0000
0000
0000
,
0001
0000
0000
0000
,
0010
0000
0000
0000
,
1000
0000
0000
0000
,
0010
0000
0000
0000
,
1000
0000
0000
0000
,
0002
0000
0003
0000
,
1000
0000
0000
0000
,
0001
0000
0000
0000
,
1000
0000
0000
0000
,
0010
0000
0000
0000
,
0001
0000
0000
0000
,
0100
0000
0000
0000
,
0010
0000
0000
0000
,
0010
0000
0000
0000
,
0001
0000
0000
0000
,
1000
0000
0000
0000
,
0001
0000
0000
0000
,
0100
0000
0000
0000
,
1000
0000
0000
0000
,
0010
0000
0000
0000
,
0100
0000
0000
0000
,
0020
0000
0030
0000
;

//--------------- dance-single - Mad Guns22 ----------------
#NOTES:
     dance-single:
     Mad Guns22:
     Easy:
     3:
     0.275,0.259,0.103,0.155,0:
0000
0000
0000
0000
,
0000
0000
0000
0000
,
0000
0000
0000
0000
,
0000
0000
0000
0000
,
0100
0100
0100
1100
,
0000
0000
0000
0000
,
0001
0001
0001
0011
,
0000
0000
0000
0000
,
0010
1000
0100
0000
,
1000
0001
0010
0000
,
0001
1000
0100
0000
,
1000
0001
0010
0000
,
0100
0001
0010
0000
,
0001
1000
0100
0000
,
1000
0001
0010
0000
,
0002
0000
0000
0003
,
0110
0010
0100
0000
,
0001
0000
1000
0000
,
0110
0010
0100
0000
,
0001
0000
1000
0000
,
1001
1000
0001
0000
,
0010
0000
0100
0000
,
1001
1000
0001
0000
,
0001
0000
1000
0000
,
1000
1000
0001
0000
,
0100
0100
0010
0000
,
0010
0010
1000
0000
,
1000
1000
0001
0000
,
0001
0001
0010
0000
,
0010
0010
1000
0000
,
1000
1000
0010
0000
,
0020
0000
0000
0030
,
0200
0000
0000
0300
0020
0000
0000
0030
,
2000
0000
0000
3000
0020
0000
0000
0030
,
0200
0000
0000
0300
0020
0000
0000
0030
,
2000
0000
0000
3000
0200
0000
0000
0300
,
0002
0000
0000
0003
2000
0000
0000
3000
,
0020
0000
0000
0030
2000
0000
0000
3000
,
0200
0000
0000
0300
2000
0000
0000
3000
,
0020
0000
0200
0330
,
0110
0000
0010
0100
,
1000
0000
0001
0100
,
0010
0000
0001
0010
,
0100
0000
0001
1000
,
0001
0000
0010
0100
,
1000
0000
0001
0100
,
0010
0000
0001
0010
,
0100
0000
0001
1000
,
1001
0010
0010
0000
,
1000
0001
1000
0000
,
1000
1000
1000
0000
,
0010
0100
0010
0000
,
0001
0001
0001
0000
,
0010
0100
0010
0000
,
0100
0100
0100
0000
,
2000
0000
0000
3000
,
1010
0010
0010
0010
,
0001
1000
0001
0000
,
0010
0010
0010
0010
,
1000
0100
1000
0000
,
0100
0100
0100
0100
,
1000
0010
1000
0000
,
0001
0001
0001
0001
,
0010
1000
0010
0000
,
0101
0100
0100
0100
,
1000
0001
1000
0000
,
0100
0100
0100
0100
,
0001
0010
0001
0000
,
0010
0010
0010
0010
,
0001
0100
0001
0000
,
1000
1000
1000
1000
,
0200
0000
0000
0300
,
1000
1000
1000
1010
,
0000
0000
0000
0000
,
0100
0100
0100
0110
,
0000
0000
0000
0000
,
0010
0010
0010
0011
,
0000
0000
0000
0000
,
1000
1000
1000
1100
,
0000
0000
0000
0000
,
0100
0001
0010
0000
,
0001
1000
0100
0000
,
1000
0001
0010
0000
,
0001
1000
0100
0000
,
0010
1000
0100
0000
,
1000
0001
0010
0000
,
0001
1000
0100
0000
,
2000
0000
0000
3000
;

//--------------- dance-single - Mad Guns22 ----------------
#NOTES:
     dance-single:
     Mad Guns22:
     Medium:
     6:
     0.437,0.389,0.207,0.148,0:
0000
0000
0000
0000
,
0000
0000
0000
0000
,
0000
0000
0000
0000
,
0000
0000
0000
0000
,
1000
0010
1000
0000
0010
0000
1001
0000
,
0010
0100
0010
0100
,
0001
0100
0001
0000
0100
0000
1001
0000
,
0001
1000
0001
1000
,
0010
0001
1000
0000
0001
0000
0100
0000
,
0001
0100
0010
1000
,
0100
1000
0001
0000
1000
0000
0010
0000
,
1000
0010
0100
0001
,
1000
0010
0100
0000
0010
0000
0001
0000
,
0010
0001
1000
0100
,
0001
0100
0010
0000
0100
0000
1000
0000
,
2000
0001
0000
3001
,
0110
0000
0010
0000
0100
0010
0100
0010
,
0100
1000
0001
1010
,
0010
0000
0100
0000
0010
0100
0010
0100
,
0010
0001
1000
0101
,
1010
0000
0100
0000
0001
0100
0001
0100
,
0001
1000
0010
1100
,
0100
0000
0001
0000
0100
0001
0100
0001
,
0100
0010
1000
0011
,
0110
0000
0100
0000
0010
0100
0010
0100
,
0010
0001
1000
0101
,
0100
0000
0010
0000
0100
0010
0100
0010
,
0100
1000
0001
1010
,
0101
0000
0010
0000
1000
0010
1000
0010
,
1000
0001
0100
0011
,
0010
0000
1000
0000
0010
1000
0010
1000
,
0020
0100
0100
1030
,
0200
0000
0010
0300
2000
0000
0000
3000
,
0020
0000
0100
0030
0002
0000
0000
0003
,
0020
0000
0100
0030
0002
0000
0000
0003
,
0200
0000
0010
0300
2000
0000
0000
3000
,
0200
0000
0001
0300
0002
0000
0010
0003
,
0020
0000
0001
0030
0002
0000
1000
0003
,
2000
0000
0001
3000
0002
0000
0010
0003
,
0020
0000
0100
0000
0100
0100
0130
0000
,
1010
0010
0010
1000
,
0001
0001
0100
1000
,
0010
0010
0100
0010
,
1000
1000
0100
0001
,
0100
0100
0010
1000
,
0001
0001
0100
1000
,
0010
0010
0100
0010
,
1000
1000
0100
0001
,
0101
0010
0010
1000
,
0001
0100
0001
0010
,
0001
0001
0001
1000
,
0010
1000
0010
0001
,
0100
0100
0100
1000
,
0010
1000
0010
0001
,
1000
1000
1000
0010
,
0002
1000
0000
1003
,
0011
0000
0010
0000
0010
0100
0010
0000
,
0100
0001
0100
0110
,
0010
0000
0010
0000
0010
0100
0010
0000
,
0001
1000
0001
0110
,
1000
0000
1000
0000
1000
0001
1000
0000
,
0001
0010
0001
1001
,
0100
0000
0100
0000
0100
0001
0100
0000
,
0010
0001
0010
1001
,
1100
0000
1000
0000
1000
0010
1000
0000
,
0001
0100
0001
0101
,
1000
0000
1000
0000
1000
0010
1000
0000
,
0100
0010
0100
0101
,
0010
0000
0010
0000
0010
0100
0010
0000
,
0100
1000
0100
1010
,
0001
0000
0001
0000
0001
0100
0001
0000
,
2000
0000
0000
3000
,
0010
0001
0010
0000
0001
0000
0110
0000
,
0001
1000
0001
1000
,
0100
1000
0100
0000
1000
0000
0110
0000
,
0100
0010
0100
0010
,
0100
1000
0100
0000
1000
0000
0110
0000
,
1000
0001
1000
0001
,
0010
0001
0010
0000
0001
0000
0110
0000
,
0010
0100
0010
0100
,
0001
0100
0010
0000
0100
0000
1000
0000
,
0100
1000
0001
0010
,
1000
0010
0100
0000
0010
0000
0001
0000
,
0010
0001
1000
0100
,
0010
0001
1000
0000
0001
0000
0100
0000
,
0001
0100
0010
1000
,
0100
1000
0001
0000
1000
0000
0010
0000
,
0020
0100
0100
0130
;

//--------------- dance-single - Mad Guns22 ----------------
#NOTES:
     dance-single:
     Mad Guns22:
     Hard:
     9:
     0.694,0.682,0.354,0.125,0.052:
0000
0000
0000
0000
,
0000
0000
0000
0000
,
0000
0000
0000
0000
,
0000
0000
0000
0000
,
1000
0001
1000
0010
0001
0000
0110
0000
,
0001
0100
1000
0000
0001
0010
1000
0000
,
0010
1000
0010
0100
1000
0000
0110
0000
,
0010
1000
0100
0000
0010
0001
0100
0000
,
0001
0010
0100
0001
0010
0000
1001
0000
,
0010
0100
1000
0000
0001
0010
0100
0000
,
1000
0100
0010
0001
0100
0000
1001
0000
,
0100
0010
0001
0000
1000
0100
0010
0000
,
0100
0001
1000
0010
0001
0000
0110
0000
,
0001
1000
0010
0000
0100
0001
1000
0000
,
0010
1000
0001
0100
1000
0000
0101
0000
,
0400
0000
0310
0000
0010
0010
0110
0000
,
1001
1000
0001
0100
1000
1000
1000
1000
,
0100
0010
0100
0001
0010
1000
0101
0000
,
0010
0100
1000
0010
0001
0001
0001
0001
,
0001
0010
0100
1000
0010
0100
1010
0000
,
1001
0000
1000
0010
0001
0001
0001
0001
,
0010
0100
0010
1000
0100
0001
1010
0000
,
0100
0010
0001
0100
1000
1000
1000
1000
,
1000
0100
0010
0001
0100
0010
0101
0000
,
0110
0100
0010
1000
0100
0100
0100
0100
,
1000
0001
1000
0010
0001
0100
1010
0000
,
0001
1000
0100
0001
0010
0010
0010
0010
,
0010
0001
1000
0100
0001
1000
0101
0000
,
0110
0010
0100
0001
0010
0010
0010
0010
,
0001
1000
0001
0100
1000
0010
0101
0000
,
1000
0001
0010
1000
0100
0100
0100
0100
,
1000
0100
1000
0000
0001
0010
0001
0000
1000
0000
1000
0000
1010
0000
0000
0000
,
2000
0000
0000
0001
0000
0000
0001
3000
0200
0000
0000
0010
0000
0000
0010
0300
,
0002
0000
0000
1000
0000
0000
1000
0003
0020
0000
0000
0100
0000
0000
0100
0030
,
0002
0000
0000
1000
0000
0000
0100
0003
0020
0000
0000
0100
0000
0000
1000
0030
,
2000
0000
0000
0001
0000
0000
0010
3000
0200
0000
0000
0010
0000
0000
1000
0300
,
2000
0000
0010
0000
0100
0000
0010
3000
0020
0000
0001
0000
0001
0000
1000
0030
,
0002
0000
0010
0000
0010
0000
0100
0003
0020
0000
0100
0000
0100
0000
1000
0030
,
0200
0000
0010
0000
0010
0000
0001
0300
0020
0000
0001
0000
0001
0000
0100
0030
,
0002
0000
1000
0000
0100
0000
0010
0003
4000
0000
3010
0000
0100
0100
0011
0000
,
1100
0010
0001
1000
0001
0010
0100
1000
,
0010
0001
0010
0100
1000
0010
0100
1000
,
0001
0010
0001
0100
1000
0010
0001
0010
,
0100
1000
0100
0001
1000
0100
0010
0001
,
1000
0100
1000
0010
0001
0010
0100
1000
,
0010
0100
0010
0001
1000
0010
0100
0010
,
0001
1000
0001
0010
1000
0100
0001
0010
,
0100
0001
0100
0010
1000
0001
0010
0100
,
1100
0001
0010
0100
0010
0001
1000
0100
,
0001
0010
0001
1000
0100
0001
1000
0100
,
0010
0001
0010
1000
0100
0001
0010
0001
,
1000
0100
1000
0010
0100
1000
0001
0010
,
0100
1000
0100
0001
0010
0001
1000
0100
,
0001
1000
0001
0010
0100
0001
1000
0001
,
0010
0100
0010
0001
0100
1000
0010
0001
,
1000
0100
1000
0000
0010
0000
0000
0000
0100
0000
0100
0000
1001
0000
0000
0000
,
0011
0001
0001
0010
1000
1000
1000
1000
,
0100
0010
0001
0100
1000
1000
1001
0000
,
0011
0001
0001
0010
1000
1000
1000
1000
,
0100
0010
0001
0100
1000
1000
1001
0000
,
1100
1000
1000
0100
0001
0001
0001
0001
,
0010
0100
1000
0010
0001
0001
1001
0000
,
1100
1000
1000
0100
0001
0001
0001
0001
,
0010
0100
1000
0010
0001
0001
1001
0000
,
0011
0010
0010
0001
0100
0100
0100
0100
,
1000
0001
0010
1000
0100
0100
0110
0000
,
0011
0010
0010
0001
0100
0100
0100
0100
,
1000
0001
0010
1000
0100
0100
0110
0000
,
1100
0100
0100
1000
0010
0010
0010
0010
,
0001
1000
0100
0001
0010
0010
0110
0000
,
1100
0100
0100
1000
0010
0010
0010
0010
,
0010
0100
0010
0000
1000
0000
0000
0000
0010
0000
0010
0000
1001
0000
0000
0000
,
0100
0010
0100
1000
0010
0000
1001
0000
,
0010
0001
0100
0000
0010
1000
0100
0000
,
1000
0100
1000
0001
0100
0000
1001
0000
,
1000
0100
0001
0000
1000
0010
0001
0000
,
0010
1000
0001
0010
1000
0000
0110
0000
,
1000
0001
0100
0000
0010
1000
0001
0000
,
0100
0001
1000
0010
0001
0000
0110
0000
,
0001
1000
0010
0000
0100
0001
1000
0000
,
1000
0001
1000
0010
0001
0000
0110
0000
,
0001
0100
1000
0000
0001
0010
1000
0000
,
0010
1000
0010
0100
1000
0000
0110
0000
,
0010
1000
0100
0000
0010
0001
0100
0000
,
0001
0010
0100
0001
0010
0000
1001
0000
,
0010
0100
1000
0000
0001
0010
0100
0000
,
1000
0100
0010
0001
0100
0000
1001
0000
,
0100
0010
0100
0000
0001
0000
0000
0000
1000
0000
1000
0000
0220
0000
0000
0000
,
0330
0000
0000
0000
;
