#TITLE:Made In Bahrain 2010;
#SUBTITLE:;
#ARTIST:Dan Stone;
#TITLETRANSLIT:;
#SUBTITLETRANSLIT:;
#ARTISTTRANSLIT:;
#GENRE:Trance;
#CREDIT:Mad Guns22;
#MUSIC:Made In Bahrain 2010.mp3;
#BANNER:Project default banner.png;
#BACKGROUND:Project default background.png;
#CDTITLE:MadGuns22Icon.png;
#SAMPLESTART:69.565;
#SAMPLELENGTH:12.000;
#SELECTABLE:YES;
#OFFSET:-0.025;
#BPMS:0.000=138.000;
#STOPS:;
#DISPLAYBPM:138.000;
#BGCHANGES:;
#FGCHANGES:;

//--------------- dance-single - Mad Guns22 ----------------
#NOTES:
     dance-single:
     Mad Guns22:
     Hard:
     8:
     0.52,0.69,0.073,0.102,0.196:
0000
0000
0000
0000
,
0000
0000
0000
0000
,
0000
0000
0000
0000
,
0000
0000
0000
0000
,
1000
0100
0010
0100
1000
0100
0010
0001
,
0010
0100
0010
0001
0010
0100
1000
0100
,
1000
0010
1000
0001
1000
0010
1000
0100
,
0001
0010
0001
1000
0001
0100
0001
1000
,
0110
1000
0100
1000
0001
0010
0001
1000
,
0010
1000
0001
0100
0001
1000
0100
1000
,
0001
0010
0001
0100
0010
0100
0001
1000
,
0010
1000
0010
0100
0001
0010
1000
0100
,
0010
0100
0001
1000
0001
0100
0010
0100
,
1000
0100
0010
0001
1000
0100
0010
0001
,
0010
0100
0010
0100
0001
1000
0001
1000
,
0001
0010
0100
1000
0001
0010
0100
1000
,
0001
0100
0010
0001
0010
0100
0010
1000
,
0001
0100
0001
0100
0010
1000
0100
1000
,
0001
0010
0100
0010
0001
1000
0100
0010
,
0100
1000
0001
0010
0100
1000
0100
0010
,
0001
1000
0100
0010
0100
1000
0001
0010
,
0100
0010
0001
1000
0100
1000
0001
0010
,
0100
0000
0000
0100
0000
0000
0100
0000
0000
0100
0000
0000
0100
0000
0100
0000
,
0110
0000
0000
0010
0000
0000
0010
0000
0000
0010
0000
0000
0010
0000
0010
0000
,
2200
0000
0000
0000
,
0300
0000
0000
0000
,
3002
0000
0000
0000
,
0200
0000
0000
0000
,
0323
0000
0000
0000
,
2000
0000
0000
0000
,
0032
0000
0000
0000
,
0023
0000
3000
0030
,
0101
0010
1000
0100
0010
0001
0001
0010
,
0100
1000
0001
0010
1000
0100
0010
0001
,
1100
0010
0100
0010
0001
1000
0100
0010
,
1000
0100
1000
0001
0010
0001
0010
0100
,
0110
0001
1000
0100
1000
0100
0001
0010
,
0001
0000
0010
0000
1000
0000
0100
0000
0010
0000
0001
0000
0100
0000
1000
0100
,
0010
1000
0001
1000
0001
1000
0001
1000
,
0001
1000
0001
1000
0001
1000
0001
1000
0001
1000
0001
1000
0001
1000
0001
1000
,
0110
0000
0000
0010
0000
0000
1000
0000
0010
0000
0100
0000
0001
0000
0100
0000
,
0010
0000
0000
0001
0000
0000
0010
0000
0100
0000
0010
0000
0100
0000
1000
0000
,
0001
0000
0000
0100
0000
0000
0001
0000
1000
0000
0100
0000
0010
0000
1000
0000
,
0100
0000
0000
0010
0000
0000
0100
0000
0001
0000
0010
0000
1000
0000
0001
0000
,
0010
0000
0000
1000
0000
0000
0001
0000
1000
0000
0010
0000
0100
0000
0010
0000
,
1000
0000
0000
0100
0000
0000
1000
0000
0010
0000
1000
0000
0010
0000
0001
0000
,
0100
0000
0000
0010
0000
0000
0100
0000
0001
0000
0010
0000
1000
0000
0001
0000
,
0010
0000
0000
1000
0000
0000
0010
0000
0100
0000
1000
0000
0001
0000
0100
0000
,
0001
0000
0010
0000
0001
0000
0100
0000
0001
0000
1000
0000
0001
0000
0001
0010
,
0001
0000
1000
0000
0001
0000
0100
0000
0001
0000
0010
0000
0001
0000
0001
0010
,
1000
0000
0100
0000
1000
0000
0010
0000
1000
0000
0001
0000
1000
0000
0010
0100
,
1000
0000
0001
0000
1000
0000
0010
0000
1000
0000
0100
0000
1000
0000
1000
0010
,
0100
0000
1000
0000
0100
0000
0010
0000
0100
0000
0001
0000
0100
0000
0010
1000
,
0100
0000
0001
0000
0100
0000
0010
0000
0100
0000
1000
0000
0100
0000
0010
1000
,
0001
0000
0010
0000
0001
0000
1000
0000
0001
0000
0100
0000
0001
0000
0100
0010
,
0001
0000
0100
0000
0001
0000
1000
0000
0001
0000
0010
0000
0001
0000
1000
0010
,
0100
0000
0000
0100
0000
0000
0100
0000
0000
0100
0000
0000
0010
0000
0100
0000
,
0010
0000
0000
0010
0000
0000
0010
0000
0000
0010
0000
0000
0100
0000
0010
0000
,
0001
0000
0000
0001
0000
0000
0001
0000
0000
0001
0000
0000
1000
0000
0001
0000
,
1000
0000
0000
1000
0000
0000
1000
0000
0000
1000
0000
0000
0010
0000
1000
0000
,
0010
0000
0000
0010
0000
0000
0010
0000
0000
0010
0000
0000
1000
0000
0010
0000
,
1000
0000
0000
1000
0000
0000
1000
0000
0000
1000
0000
0000
0100
0000
1000
0000
,
0100
0000
0000
0100
0000
0000
0100
0000
0000
0100
0000
0000
0001
0000
0100
0000
,
0001
0000
0000
0001
0000
0000
0001
0000
0000
0001
0000
0000
0001
0000
0001
0000
,
0001
0000
0000
1000
0000
0000
0100
0000
1000
0000
0001
0000
0010
0000
0001
0000
,
1000
0000
0000
0010
0000
0000
1000
0000
0001
0000
1000
0000
0001
0000
0100
0000
,
0010
0000
0000
0001
0000
0000
0010
0000
0100
0000
0001
0000
1000
0000
0100
0000
,
0001
0000
0000
1000
0000
0000
0001
0000
0010
0000
1000
0000
0100
0000
0010
0000
,
1000
0000
0000
0100
0000
0000
0010
0000
0100
0000
1000
0000
0001
0000
1000
0000
,
0100
0000
0000
0001
0000
0000
0100
0000
1000
0000
0100
0000
1000
0000
0010
0000
,
0001
0000
0000
1000
0000
0000
0001
0000
0010
0000
1000
0000
0100
0000
0010
0000
,
1000
0000
0000
0100
0000
0000
1000
0000
0001
0000
0100
0000
0010
0000
0001
0000
,
2002
0000
0000
0000
,
0000
0000
0000
3003
,
0020
0000
0000
0000
,
0000
0000
0000
0000
0030
0000
0000
0010
,
0220
0000
0000
0000
,
0000
0000
0000
0000
0000
0000
0000
0000
0330
0000
0000
0000
0000
0000
0001
0010
,
2000
0000
0000
0000
,
3101
0000
0000
0000
;
