#TITLE:If you don't know what to do just steal the amen break;
#SUBTITLE:;
#ARTIST:C418;
#TITLETRANSLIT:;
#SUBTITLETRANSLIT:;
#ARTISTTRANSLIT:;
#GENRE:IDM;
#CREDIT:Mad Guns22;
#MUSIC:If you dont know what.mp3;
#BANNER:Project default banner.png;
#BACKGROUND:Project default background.png;
#CDTITLE:MadGuns22Icon.png;
#SAMPLESTART:51.715;
#SAMPLELENGTH:12.000;
#SELECTABLE:YES;
#OFFSET:-0.020;
#BPMS:0.000=74.224
,16.000=148.448
,47.000=296.896
,49.000=148.448
,150.000=296.896
,154.000=148.448
;
#STOPS:49.000=-1.213
,116.000=-1.617
,154.000=-0.808
;
#DISPLAYBPM:148.448;
#BGCHANGES:;
#FGCHANGES:;

//--------------- dance-single - Mad Guns22 ----------------
#NOTES:
     dance-single:
     Mad Guns22:
     Edit:
     10:
     -1,-1,-1,-1,-1:
0000
0000
0000
0000
,
0000
0000
0000
0000
,
2000
0000
0000
0000
0000
0000
0000
3000
,
0020
0000
0000
0030
0200
0000
0000
0300
,
0011
0000
0100
0000
0001
0000
0100
0010
0001
1000
0100
0000
0010
0000
0001
0000
,
1100
0000
0010
0000
1000
0000
0010
0100
1000
0001
0010
0000
0100
0000
1000
0000
,
0110
0000
1000
0000
0010
0000
1000
0100
0010
0001
1000
0000
0100
0000
0010
0000
,
1001
0000
0100
0000
0001
0000
0100
1000
0001
0010
0100
0000
1000
0000
0001
0000
,
0110
0000
1000
0000
0010
0000
1000
0100
0010
0001
1000
0000
0100
0000
0010
0000
,
1001
0000
0100
0000
0001
0000
0100
1000
0001
0010
0100
0000
1000
0000
0001
0000
,
1100
0000
0001
0000
0100
0000
0001
1000
0100
0010
0001
0000
1000
0000
0100
0000
,
0011
0000
1000
0000
0010
0000
1000
0001
0010
0100
1000
0000
0002
0000
0000
0000
,
0000
0000
0000
0000
0000
0000
0000
0000
0000
0000
0000
0000
0000
0000
0000
0000
0000
0000
0000
0000
0000
0000
0000
0000
0003
0000
0000
0000
0000
0000
0000
0000
0000
0000
0000
0000
0000
0000
0000
0000
0000
0000
0000
0000
0000
0000
0000
0000
1000
0000
0000
0000
0000
0000
0000
0000
0000
0000
0000
0000
0000
0000
0000
0000
0100
0000
0000
0000
0000
0000
0000
0000
0000
0000
0000
0000
1000
0000
0000
0000
0010
0000
0000
0000
0000
0000
0000
0000
0000
0000
0000
0000
0000
0000
0000
0000
1000
0000
0000
0001
0000
0000
0000
0000
0000
0000
0000
0000
0010
0000
0000
0000
0000
0000
0000
0000
0000
0000
0000
0000
0110
0000
0000
0000
0000
0000
0001
0000
0000
0000
0000
0000
0100
1000
0000
0000
0000
0000
0000
0000
0100
0000
0000
0000
0000
0000
0000
0000
0000
0000
0000
0000
0000
0000
0000
0000
0000
0000
0000
0000
0000
0000
0000
0000
0000
0000
0000
0000
MMMM
0000
0000
0000
0000
0000
0000
0000
0000
0000
0000
0000
0000
0000
0000
0000
0000
0000
0000
0000
0000
0000
0000
0000
,
1000
0000
0100
0000
1000
0000
0010
0000
1000
0000
0001
0000
0010
0100
1000
0010
,
0001
0000
0010
0000
0001
0000
0100
0000
0001
0000
1000
0000
0100
0010
0001
0100
,
1000
0000
0001
0000
1000
0000
0100
0000
1000
0000
0010
0000
0100
0001
1000
0100
,
0010
0000
0100
0000
0010
0000
0001
0000
0010
0000
1000
0000
0001
0100
0010
0001
,
0100
0000
0001
0000
0100
0000
1000
0000
0100
0000
0010
0000
1000
0001
0100
1000
,
0010
0000
1000
0000
0010
0000
0001
0000
0010
0000
0100
0000
0001
1000
0010
0001
,
0100
0000
0010
0000
0100
0000
0001
0000
0100
0000
1000
0000
0001
0010
0100
0001
,
1000
0000
0001
0000
1000
0000
0010
0000
1000
0000
0100
0000
0010
0001
1000
0010
,
0001
0000
0010
0000
0001
0000
0100
0000
0001
0000
1000
0000
0100
0010
0001
0100
,
1000
0000
0100
0000
1000
0000
0010
0000
1000
0000
0001
0000
0010
0100
1000
0010
,
0001
0000
1000
0000
0001
0000
0010
0000
0001
0000
0100
0000
0010
1000
0001
0010
,
0100
0000
0010
0000
0100
0000
1000
0000
0100
0000
0001
0000
1000
0010
0100
1000
,
0010
0000
1000
0000
0010
0000
0001
0000
0010
0000
0100
0000
0001
1000
0010
0001
,
0100
0000
0001
0000
0100
0000
1000
0000
0100
0000
0010
0000
1000
0001
0100
1000
,
0010
0000
0100
0000
0010
0000
1000
0000
0010
0000
0001
0000
1000
0100
0010
1000
,
0001
1000
0001
0100
0002
0000
0013
0000
,
11MM
0000
0000
0000
0000
0000
0000
0000
0000
0000
0000
0000
0000
0000
0000
0000
0000
0000
0000
0000
0000
0000
0000
0000
0000
0000
0000
0000
0000
0000
0000
0000
0000
0000
0000
0000
0000
0000
0000
0000
0000
0000
0000
0000
0000
0000
0000
0000
0001
0000
0000
0000
0000
0000
0000
0000
0000
0000
0000
0000
0010
0000
0000
0000
0000
0000
0000
0000
0000
0100
0000
0000
0000
0000
0000
0000
0000
0000
0000
1000
0000
0000
0000
0000
0001
0000
0000
0000
0000
0000
0000
0010
0000
0000
0000
0000
0100
0000
0000
0000
0000
0000
0000
0000
0000
0000
0000
1000
1011
0000
1000
0000
0000
0000
0000
0000
0000
0000
0000
0000
0010
0000
0000
0000
0000
0000
0000
0000
0000
0100
0000
0100
0101
1101
0000
0000
0000
0000
0001
0000
0000
0000
0000
0000
0000
0000
0000
0000
0000
0000
0000
0000
0000
0000
0000
0000
0000
0000
0000
0000
0000
0000
0000
0000
0000
0000
0000
0000
MMMM
0000
0000
0000
0000
0000
0000
0000
0000
0000
0000
0000
0000
0000
0000
0000
0000
0000
0000
0000
0000
0000
0000
0000
,
1100
0000
0000
0000
0001
0000
0010
0100
1000
0000
0010
0001
0100
0000
0010
0100
,
0011
0000
1100
0000
0110
0000
1000
0000
0001
0010
0001
0010
0100
0000
1000
0000
,
0001
0000
0010
0000
0012
0000
0103
0000
1000
0000
0100
0000
0010
0000
0002
0013
,
1100
0000
1010
0000
0101
0000
0010
0000
1000
0100
1000
0001
0010
0000
0100
0000
,
0001
0000
0010
0000
1000
0000
0100
0010
0001
0000
0100
1000
0010
0000
0100
0010
,
1000
0000
0011
0000
0110
0000
0001
0000
1000
0100
1000
0100
0010
0000
0001
0000
,
1000
0100
1000
0000
1001
0100
1000
0000
0001
0010
0001
0000
0101
0010
0001
0000
,
0010
0101
1010
0100
0002
0003
0020
0030
,
0200
0000
0000
0000
0000
0000
0000
0000
0000
0000
0000
0000
0000
0000
0000
0000
0000
0000
0000
0000
0000
0000
0000
0000
0300
0000
0000
0000
0000
0000
0000
0000
0000
0000
0000
0000
0000
0000
0000
0000
0000
0000
0000
0000
0000
0000
0000
0000
0002
0000
0000
0000
0000
0000
0000
0000
0000
0000
0000
0000
0000
0000
0000
0000
0000
0000
0000
0000
0000
0000
0000
0000
0003
0000
0000
0000
0000
0000
0000
0000
0000
0000
0000
0000
0000
0000
0000
0000
0000
0000
0000
0000
0000
0000
0000
0000
0011
0000
0000
0000
0000
0000
0000
0000
M000
0000
0M00
0000
0000
0000
0000
0000
0000
0000
0000
00M0
0000
0000
0000
0000
1000
0000
0000
0000
0000
0M0M
0000
0000
0000
0000
0000
0000
0000
0000
00M0
0000
0000
0000
0000
0000
0000
0000
0000
0000
M100
0000
0000
0000
0001
0000
0010
0000
0000
0000
0M0M
0000
0000
0000
0000
0000
0000
0000
0000
0000
0000
0000
0000
0000
MMMM
0000
0000
0000
0000
0000
0000
0000
0000
0000
0000
0000
0000
0000
0000
0000
0000
0000
0000
0000
0000
0000
0000
0000
,
0011
0000
0000
1000
0000
0000
0100
0000
0000
0002
0000
0000
0023
0000
0000
0030
0002
0000
0000
0000
0003
0200
0000
0000
,
0320
0030
0200
0300
,
0000
0200
0320
0032
0000
0000
0000
0000
0000
0000
0000
0000
0023
0000
0000
0000
,
0230
0000
0000
0000
2300
0000
0000
0000
3020
0000
0000
0000
0031
0000
1000
0001
,
0200
0300
0000
0010
0100
1000
0010
0100
,
0002
0000
0020
0033
,
0001
0010
0100
2000
0000
0000
3000
0000
0100
0000
1000
0000
0000
0000
0100
0010
,
1000
0001
1000
0001
1000
0001
1000
0001
0020
0000
0000
0000
0200
0000
0330
0000
,
1001
0000
0000
0100
0000
0000
0010
0000
0000
0002
0000
0000
2003
0000
0000
3000
0002
0000
0000
0000
0003
0020
0000
0000
,
2030
3000
0020
0030
,
0020
0000
0030
0002
0000
0003
2000
0000
,
3020
0230
2300
3001
,
0010
0100
0001
1000
0010
0100
1000
0010
,
0002
0000
0000
1000
2000
0000
3003
0000
,
0001
1000
0010
0200
0000
0000
0300
0000
0010
0000
0100
0000
0000
0000
0010
1000
,
0100
0001
0100
0001
0100
0001
0100
0001
2000
0000
0000
0000
0020
0000
3030
0000
,
0100
0000
0010
0000
0100
0000
1000
0000
0010
0000
0001
0000
0100
0010
0001
1000
,
0100
0000
0001
0000
0010
0000
0100
0000
1000
0000
0100
0000
1000
0010
0001
0100
,
0010
0000
0100
0000
0010
0000
0001
0000
0100
0000
1000
0000
0010
0100
1000
0001
,
0010
0000
1000
0000
0100
0000
0010
0000
0001
0000
0010
0000
0001
0100
1000
0010
,
0000
0000
0100
0010
0001
0000
0010
0100
0001
0000
1000
0010
0100
0000
0001
1000
,
0100
0000
0010
0000
0100
0000
0010
0001
1000
0000
0001
0100
1000
0000
0010
0100
,
0001
0000
0010
0000
0001
1000
0000
0000
0100
0000
1000
0000
0100
0010
0000
0000
,
0001
0010
0001
0010
0001
0100
0001
0100
0010
0100
0010
0100
0010
1000
0010
1000
,
0011
0000
0100
0000
0001
0000
0010
0000
0100
0000
0010
0000
0101
0000
0100
0001
,
1000
0000
0100
0000
1000
0000
0001
0000
0100
0000
0010
0000
0100
0000
0010
0100
,
1001
0000
0100
0000
1000
0000
0001
0000
0100
0000
0001
0000
1100
0000
0100
1000
,
0010
0000
0100
0000
0010
0000
1000
0000
0100
0000
0001
0000
0100
0000
0001
0100
,
1000
0000
0010
0000
0110
0000
1000
0100
0010
0000
0100
0000
0001
0000
1000
0000
,
0010
0100
0001
0000
0010
0000
0100
0000
1010
0000
0001
0000
0100
1000
0010
0000
,
0100
0000
0001
0000
0010
0000
1000
0000
0100
0010
1000
0100
0010
0001
1000
0010
,
0100
0010
0100
0010
0100
0010
0100
0010
0200
0000
0000
0000
0020
0000
0330
0000
,
0110
0000
1000
0000
0100
0000
1000
0100
0010
0000
0100
0000
0001
0000
0010
0000
,
1000
0000
0010
0000
1000
0000
0100
0001
1000
0000
0010
0000
1000
0000
0001
0000
,
0010
0000
0001
0000
0100
0000
0010
0100
1000
0000
0100
0000
1000
0000
0001
0000
,
0010
0000
0100
0000
1000
0000
0001
0100
0010
0000
0100
0000
0010
0000
1000
0000
,
0110
0000
0001
0000
0010
0000
0001
1000
0100
0000
0010
0000
1000
0000
0100
0000
,
0001
0000
0100
0000
0001
0000
0010
0100
0001
0000
0100
0000
0001
0000
1000
0000
,
0100
0000
1000
0000
0010
0000
0100
1000
0001
0000
0010
0000
0001
0000
1000
0000
,
0100
0000
0010
0000
0001
0000
1000
0010
0100
0000
0010
0000
0100
0000
0001
0000
,
0010
0000
0100
0000
0110
0000
1000
0000
0100
0001
0010
0000
0100
0000
0010
0000
,
0100
0000
0010
0000
0110
0000
0001
0000
0010
1000
0100
0000
0010
0000
0100
0000
,
0100
0000
1000
0000
1100
0000
0001
0000
1000
0010
0100
0000
1000
0000
0100
0000
,
1000
0000
0100
0000
1100
0000
0010
0000
0100
0001
1000
0000
0100
0000
1000
0000
,
0001
0000
1000
0000
1001
0000
0010
0000
1000
0100
0001
0000
1000
0000
0001
0000
,
1000
0000
0001
0000
1001
0000
0100
0000
0001
0010
1000
0000
0001
0000
1000
0000
,
0100
0000
0010
0000
0110
0000
0001
0000
0010
1000
0100
0000
0010
0000
0100
0000
,
0010
0000
0100
0000
0110
0000
1000
0000
0100
0001
0010
0000
0100
0000
0010
0000
,
0100
0202
0000
0000
0303
0000
0000
0000
;
