#TITLE:Hypersonic;
#SUBTITLE:;
#ARTIST:UFO;
#TITLETRANSLIT:;
#SUBTITLETRANSLIT:;
#ARTISTTRANSLIT:;
#GENRE:Hardcore;
#CREDIT:Mad Guns22;
#MUSIC:Hypersonic.mp3;
#BANNER:Project default banner.png;
#BACKGROUND:Project default background.png;
#CDTITLE:MadGuns22Icon.png;
#SAMPLESTART:112.933;
#SAMPLELENGTH:12.000;
#SELECTABLE:YES;
#OFFSET:-0.025;
#BPMS:0.000=170.000
,224.000=340.000
,228.000=170.000
,239.000=340.000
,241.000=170.000
,257.000=340.000
,259.000=170.000
,263.500=340.000
,264.500=170.000
,265.000=340.000
,266.000=170.000
,267.000=340.000
,268.000=170.000
,274.000=340.000
,276.500=170.000
,288.000=340.000
,292.000=170.000
,316.000=85.000
,320.000=170.000
,415.000=340.000
,417.000=170.000
;
#STOPS:224.000=0.176
,224.500=0.088
,225.500=0.088
,226.000=0.088
,226.500=0.088
,227.000=0.088
,227.500=0.088
,274.000=0.265
,288.000=0.044
,288.250=0.044
,288.500=0.044
,288.750=0.044
,289.000=0.044
,289.250=0.044
,289.500=0.044
,289.750=0.044
,290.000=0.044
,290.250=0.044
,290.500=0.044
,290.750=0.044
,291.000=0.044
,291.250=0.044
,291.500=0.044
,291.750=0.044
;
#DISPLAYBPM:170.000;
#BGCHANGES:;
#FGCHANGES:;

//--------------- dance-single - Mad Guns22 ----------------
#NOTES:
     dance-single:
     Mad Guns22:
     Challenge:
     11:
     0.883,1,0.218,0.136,0.497:
0000
0000
0000
0000
,
0000
0000
0000
0000
,
0000
0000
0000
0000
,
0000
0000
0000
0000
0000
0000
0000
0010
,
1000
0100
1000
0100
1000
0001
1000
0010
,
1000
0001
1000
0100
1000
0010
1000
0010
,
0001
0100
0001
0100
0001
1000
0001
0100
,
0001
1000
0001
0100
0001
0010
0001
0010
,
1100
0000
0001
0000
0010
0000
0001
0000
0100
0000
1000
0000
0100
0010
0100
0000
,
1000
0001
0100
0010
0001
1000
0001
1000
,
0010
0000
1000
0000
0100
0000
1000
0000
0010
0000
0001
0000
0010
0100
0010
0000
,
0001
1000
0010
0100
1000
0001
1000
0001
,
0100
0000
0010
0000
1000
0000
0010
0000
0001
0000
0100
0000
0001
1000
0001
0000
,
0100
0010
0001
1000
0010
0100
0010
0100
,
0001
0000
0100
0000
0001
0000
0100
0000
1000
0000
0010
0000
1000
0001
1000
0000
,
0010
0000
0100
0000
1000
0000
0001
0000
0100
0010
0100
0010
0100
0010
0100
0000
,
1001
0000
0100
0000
1000
0000
0010
0000
1000
0000
0001
0000
1000
0010
0100
0010
,
0001
0000
0010
0000
0001
0000
0100
0000
0001
0000
1000
0000
0010
0100
0001
0000
,
1000
0000
0010
0000
0001
0000
0100
0000
0001
0000
1000
0000
0001
0100
0010
0100
,
1000
0000
0100
0000
1000
0000
0010
0000
1000
0000
0001
0000
0100
0010
0001
0000
,
1000
0000
0010
0000
0001
0000
0100
0000
0001
0000
1000
0000
0001
0100
0010
0100
,
1000
0000
0100
0000
1000
0000
0010
0000
1000
0000
0001
0000
0100
0010
1000
0000
,
0001
0000
0100
0000
1000
0000
0010
0000
1000
0000
0001
0000
1000
0010
0100
0010
,
0001
0000
0010
0000
0001
0000
0100
0000
0001
0000
1000
0000
0010
0100
1000
0000
,
0001
0000
0010
0000
0001
0000
0100
0000
0001
0000
1000
0000
0001
1000
0001
1000
,
0100
0000
0001
0000
1000
0000
0010
0000
1000
0000
0100
0000
1000
0001
1000
0000
,
0001
0000
0010
0000
0001
0000
0100
0000
0001
0000
1000
0000
0001
1000
0001
1000
,
0010
0000
0100
0000
1000
0000
0010
0000
1000
0000
0001
0000
1000
0001
1000
0000
,
0001
0000
0100
0000
1000
0000
0010
0000
1000
0000
0001
0000
1000
0001
1000
0001
,
0100
0000
1000
0000
0001
0000
0100
0000
0001
0000
0010
0000
0001
1000
0001
0000
,
1001
0000
0000
0000
1001
0000
0000
0011
0000
0000
0101
0000
0000
1100
0000
0000
,
1010
0000
0000
0011
0000
0000
1100
0000
0000
0110
0000
0000
1001
0000
0000
0000
,
1000
0100
1000
0010
1000
0001
1000
0010
1000
0100
1000
0010
1000
0001
1000
0100
,
1000
0010
0100
0001
0010
1000
0001
0100
0010
1000
0001
0100
0010
1000
0001
0100
,
0010
1000
0100
0010
0001
1000
0100
1000
0001
0010
0100
1000
0001
0010
0001
0100
,
0001
1000
0001
0100
0001
0010
1000
0100
0010
0001
1000
0100
0010
1000
0100
0010
,
0001
0010
0001
0100
0001
1000
0001
0100
0001
0010
0001
0100
0001
1000
0001
0010
,
0001
0100
0010
1000
0100
0001
1000
0010
0100
0001
1000
0010
0100
0001
1000
0010
,
0100
0001
0010
0100
1000
0001
0010
0001
1000
0100
0010
0001
1000
0100
1000
0010
,
1000
0001
1000
0010
1000
0100
0001
0010
0100
1000
0001
0010
0100
0001
0010
0100
,
1000
0100
1000
0010
1000
0001
1000
0100
,
1000
0010
1000
0001
1000
0100
0010
0100
,
0001
0010
0001
0100
0001
1000
0001
0010
,
0001
0100
0001
1000
0001
0010
0100
0010
,
1000
0100
0010
1000
0001
0010
0100
0001
,
1000
0100
0001
0010
1000
0100
0010
0001
,
2000
0000
0200
0000
,
0002
0000
0000
0000
0000
0000
0000
3303
,
0010
0100
0010
0000
1000
0000
0100
0000
0001
0000
0010
0000
1000
0000
0100
0000
,
0001
1000
0001
0000
0100
0000
0010
0000
1000
0000
0100
0000
0001
0000
0010
0000
,
0100
0010
0100
0000
0001
0000
0010
0000
1000
0000
0100
0000
0001
0000
0010
0000
,
1000
0001
1000
0000
0010
0000
0100
0000
0001
0000
0010
0000
1000
0000
0100
0000
,
0001
0010
0100
0000
1000
0000
0010
0000
0100
0000
0001
0000
0010
0000
0100
0000
,
1000
0100
0010
0000
0001
0000
0100
0000
0010
0000
1000
0000
0100
0000
0010
0000
,
1000
0100
0010
0000
0001
0000
0100
0000
0010
0000
1000
0000
0100
0000
0010
0000
,
0001
0010
0100
0000
1000
0000
0010
0000
0100
0000
0001
0000
0010
0000
0100
0000
,
1010
1010
0000
0100
0010
0400
0040
0330
,
0001
0010
1000
0100
1000
0001
0010
0001
,
1000
0100
1000
0000
0100
0000
0001
0000
0010
0000
0100
0000
1000
0000
0001
0000
,
0010
0001
0010
0001
1000
0000
0100
0000
0010
0000
0001
0000
4000
0000
0000
0000
,
0000
0000
0000
0000
3010
0100
0010
0100
0010
0000
0001
0000
0010
0000
0100
0000
,
0010
0000
0100
0000
1000
0001
1000
0001
0010
0000
1000
0000
0100
0000
1000
0000
,
0001
0000
0010
0000
0100
0010
1000
0000
0100
0000
1000
0000
0001
0000
0010
0000
,
0100
0000
1000
0000
0100
0010
0100
0010
0001
0000
0010
0000
0001
0000
0010
0000
,
0100
0001
2200
0000
0000
3300
0001
0010
,
0100
0000
1000
0000
0001
0000
0010
0000
1000
0100
1000
0100
1000
0000
0020
0000
,
0000
0000
0030
0000
0020
0000
0000
0000
0030
0000
1000
0100
0022
0000
0000
0000
,
0033
0100
1000
0001
0010
0001
0010
0001
,
1000
0100
1000
0100
0002
0000
0003
0220
,
0000
0000
0330
0000
1000
0000
0100
0000
1000
0000
0010
0000
1000
0100
0010
0001
,
1000
0100
1000
0010
1000
0100
0001
1000
,
0001
0010
0100
1000
0001
0000
0010
0000
0001
0000
1000
0000
0001
0000
0010
0000
,
1000
0100
1000
0100
1000
0100
1000
0100
0010
0001
1000
0100
0010
0001
1000
0100
,
0001
0000
0100
0000
0001
0000
0010
0000
0001
1000
0001
1000
0010
0000
0100
0000
,
1000
0000
0100
0000
1000
0000
0001
0000
1000
0010
1000
0010
0001
0000
0100
0000
,
0010
0000
0001
0000
1000
0000
0100
0000
0001
0010
0001
0010
1000
0000
0100
0000
,
0010
0000
0001
0000
1000
0000
0100
0000
0001
0100
0001
0100
1000
0000
0100
0000
,
0010
0000
0100
0000
1000
0000
0001
0000
0010
0100
0010
0100
1000
0000
0001
0000
,
1000
0000
0100
0000
0010
0000
0100
0000
1000
0001
1000
0001
0010
0000
0001
0000
,
0200
0000
0320
0000
,
1030
0100
0010
0001
1000
0100
0010
0001
,
1000
0100
0010
0100
0001
0010
0100
1000
,
0010
0100
0001
0010
1000
0100
0010
0001
,
0100
1000
0001
0010
1000
0100
0021
0000
,
0031
1000
0100
0010
0001
1000
0100
0010
,
0100
0010
0001
0010
0100
1000
0100
1000
,
0010
0100
0010
1000
0001
0010
0001
1000
,
0100
0010
0100
1000
0001
0010
1200
0000
,
0301
0100
0010
0100
0001
0010
0100
1000
,
0001
0010
0100
0010
1000
0100
0010
0001
,
0100
0010
1000
0100
0001
0010
0100
1000
,
0010
0001
1000
0100
0001
0010
1200
0000
,
1300
0001
0010
0100
1000
0001
0010
0100
,
0010
0100
1000
0100
0010
0001
0010
0001
,
0100
0010
0100
0001
1000
0100
1000
0001
,
0010
0100
0010
0001
2000
0000
0010
3000
,
0101
1100
0001
0110
,
0100
0000
0000
0010
0000
0000
0100
0000
,
1000
0110
0001
1100
,
0010
0101
0001
0210
,
0310
0110
1000
0011
,
1000
0000
0000
0010
0000
0000
0100
0000
,
0001
1100
0010
0101
,
1000
0000
0000
0010
0000
0000
0200
0000
,
0300
4004
0000
3003
;
