#TITLE:Harvest Moon [7 Skies Remix];
#SUBTITLE:;
#ARTIST:Dan Stone;
#TITLETRANSLIT:;
#SUBTITLETRANSLIT:;
#ARTISTTRANSLIT:;
#GENRE:Trance;
#CREDIT:Mad Guns22;
#MUSIC:Harvest Moon [7 Skies Remix].mp3;
#BANNER:Project default banner.png;
#BACKGROUND:Project default background.png;
#CDTITLE:MadGuns22Icon.png;
#SAMPLESTART:92.686;
#SAMPLELENGTH:12.000;
#SELECTABLE:YES;
#OFFSET:-0.023;
#BPMS:0.000=134.000
,207.000=268.000
,208.000=134.000
;
#STOPS:207.000=0.224;
#DISPLAYBPM:134.000;
#BGCHANGES:;
#FGCHANGES:;

//--------------- dance-single - Mad Guns22 ----------------
#NOTES:
     dance-single:
     Mad Guns22:
     Challenge:
     11:
     0.76,0.893,0.28,0.169,0.979:
0000
0000
0000
0000
,
0000
0000
0000
0000
,
0000
0000
0000
0000
,
0000
0000
0000
0000
,
1000
0000
0000
1000
0000
0000
0000
0010
0000
0100
0000
0000
0010
0000
0100
0000
,
0001
0000
0000
0001
0000
0000
0000
0100
0000
0010
0000
0000
0100
0000
0010
0000
,
1000
0000
0000
1000
0000
0000
0000
0010
0000
0100
0000
0000
0010
0000
0100
0000
,
0001
0000
0000
0001
0000
0000
0000
0100
0000
0010
0000
0000
0100
0000
0010
0000
,
1000
0100
0010
0001
1000
0100
0010
0100
1000
0001
0010
0100
1000
0001
0010
0100
,
1000
0100
0010
0001
1000
0100
0010
0100
1000
0001
0010
0100
1000
0001
0010
0100
,
1000
0100
0010
0001
0010
0100
0010
0001
0010
0100
1000
0001
0010
0100
1000
0100
,
1000
0100
0010
0001
0010
0100
0010
0001
0010
0100
1000
0001
0010
0100
1000
0100
,
0010
0100
0010
0100
0010
0100
0010
0100
0010
0100
1000
0001
0010
0100
1000
0001
,
0010
0100
0010
0100
0010
0100
0010
0100
0010
0100
1000
0001
0010
0100
1000
0001
,
0100
0010
0001
0010
0100
0010
0001
0010
0100
0010
0001
0010
0100
1000
0001
0010
,
0100
0010
0001
0010
0100
0010
0001
0010
0100
0010
0001
0010
0100
1000
0001
0010
,
0001
0010
0100
1000
0001
0010
0100
0010
0001
1000
0100
0010
0001
1000
0100
0010
,
0001
0010
0100
1000
0001
0010
0100
0010
0001
1000
0100
0010
0001
1000
0100
0010
,
0001
0010
0100
1000
0100
0010
0100
1000
0100
0010
0001
1000
0100
0010
0001
0010
,
0001
0010
0100
1000
0100
0010
0100
1000
0100
0010
0001
1000
0100
0010
0001
0010
,
0100
0010
0100
0010
0100
0010
0100
0010
0100
0010
0001
1000
0100
0010
0001
1000
,
0100
0010
0100
0010
0100
0010
0100
0010
0100
0010
0001
1000
0100
0010
0001
1000
,
0010
0100
1000
0100
0010
0100
1000
0100
0010
0100
1000
0100
0010
0001
1000
0100
,
0010
0100
1000
0100
0010
0100
1000
0100
0010
0100
1000
0100
0010
0001
0010
0100
,
0001
0010
0100
1000
0001
1000
0100
0010
0001
0010
0100
1000
0001
1000
0100
0010
,
0001
1000
0100
0010
0001
1000
0100
0010
0001
0010
0100
1000
0001
0010
0100
0010
,
1000
0100
0010
0001
1000
0001
0010
0100
1000
0100
0010
0001
1000
0001
0010
0100
,
1000
0001
0010
0100
1000
0001
0010
0100
1000
0100
0010
0001
1000
0100
0010
0100
,
0010
0000
0000
0010
0000
0000
0000
0100
0000
0001
0000
0000
0100
0000
0001
0000
,
1000
0000
0000
1000
0000
0000
0000
0001
0000
0100
0000
0000
0001
0000
0100
0000
,
0200
0000
0000
0000
,
0020
0000
0000
0000
0000
0000
0000
0000
0000
0000
0000
0330
,
0011
0000
0000
0010
0000
0000
0010
0000
,
0000
0010
0000
0000
0010
0000
0010
0100
,
0001
0000
0000
0001
0000
0000
0001
0000
,
0000
0001
0000
0000
0001
0000
0010
0000
,
0001
0000
0000
0010
0000
0000
0010
0000
,
0000
0010
0000
0000
0010
0000
0010
0100
,
0001
0000
0000
0001
0000
0000
0001
0000
,
0000
0001
0000
0000
0001
0000
0010
0000
,
1000
0010
1000
0010
1000
0010
1000
0010
,
1000
0100
1000
0100
1000
0100
1000
0100
,
0001
0010
0001
0100
0001
1000
0001
0100
,
0001
0010
0001
0100
0001
0010
0001
1000
,
0100
0001
0100
0001
0100
0001
0100
0001
0100
0001
0100
0001
0100
0001
0100
0001
,
0010
1000
0010
1000
0010
1000
0010
1000
0010
1000
0010
1000
0010
1000
0010
1000
,
0100
0001
0100
0001
0100
0001
0100
0001
0100
0001
0100
0001
0100
0001
0100
0001
,
1000
0001
1000
0001
1000
0001
1000
0001
1000
0001
1000
0001
1000
0001
1000
0001
,
0110
0000
0000
0200
0300
0020
0030
2000
,
3000
0200
0300
2000
3000
0200
0300
2000
,
3000
0002
0003
0020
0030
0200
0300
2000
,
3000
0000
0000
0000
0002
0000
0000
0000
0003
0000
0000
0000
0200
0000
0000
0000
0300
0000
0000
0000
2000
0000
0000
3000
0220
0000
0330
0000
0000
0000
0000
0000
,
1100
0000
0000
1001
0000
0000
1100
0000
,
0000
1010
0000
0000
1010
0000
1001
0100
,
0011
0000
0000
1001
0000
0000
0011
0000
,
0000
0101
0000
0000
0101
0000
1001
0000
,
0101
0000
0000
1100
0000
0000
1100
0000
,
0000
0110
0000
0000
0110
0000
0101
1000
,
0011
0000
0000
0011
0000
0000
1010
0000
,
0000
1001
0000
0000
1001
0000
0101
0000
,
1010
0000
0000
0110
0000
0000
0101
0000
,
0000
0101
0000
0000
0011
0000
0001
0000
,
1100
0000
0000
1100
0000
0000
1010
0000
,
0000
0101
0000
0000
0101
0000
0010
0000
,
2001
0000
0000
0010
0000
0000
0001
0000
,
3000
0200
0000
0000
0010
0000
0301
0000
,
2000
0000
0000
0100
0000
0000
0001
0000
,
3000
0020
0000
0000
0100
0000
1030
0000
,
0001
0010
0100
1000
0001
1000
0100
0010
0001
0010
0100
1000
0001
1000
0100
0010
,
0001
1000
0100
0010
0001
1000
0100
0010
0001
0010
0100
1000
0001
0010
0100
0010
,
1000
0100
0010
0001
1000
0001
0010
0100
1000
0100
0010
0001
1000
0001
0010
0100
,
1000
0001
0010
0100
1000
0001
0010
0100
1000
0100
0010
0001
1000
0100
0010
0100
,
1000
0100
0010
0001
1000
0001
0010
0100
1000
0100
0010
0001
1000
0001
0010
0100
,
1000
0001
0010
0100
1000
0001
0010
0100
1000
0100
0010
0001
1000
0100
0010
0100
,
0001
0010
0100
1000
0001
1000
0100
0010
0001
0010
0100
1000
0001
1000
0100
0010
,
0002
0000
1000
0000
0100
0000
1000
0003
;
