#TITLE:Hardcore Raver;
#SUBTITLE:;
#ARTIST:Stormtrooper feat. MC Knight;
#TITLETRANSLIT:;
#SUBTITLETRANSLIT:;
#ARTISTTRANSLIT:;
#GENRE:Happy Hardcore;
#CREDIT:Mad Guns22;
#MUSIC:Hardcore Raver.mp3;
#BANNER:Project default banner.png;
#BACKGROUND:Project default background.png;
#CDTITLE:MadGuns22Icon.png;
#SAMPLESTART:96.000;
#SAMPLELENGTH:12.000;
#SELECTABLE:YES;
#OFFSET:-0.042;
#BPMS:0.000=180.000
,128.000=90.000
,160.000=180.000
,252.000=360.000
,256.000=180.000
;
#STOPS:252.000=0.667;
#DISPLAYBPM:180.000;
#BGCHANGES:;
#FGCHANGES:;

//--------------- dance-single - Mad Guns22 ----------------
#NOTES:
     dance-single:
     Mad Guns22:
     Beginner:
     2:
     0.12,0.139,0.007,0.114,0:
0000
0000
0000
0000
,
0000
0000
0000
0000
,
0000
0000
0000
0000
,
0000
0000
0000
0000
,
1000
0000
0000
0000
,
0010
0000
0000
0000
,
1000
0000
0000
0000
,
0100
0000
0000
0000
,
0001
0000
0000
0000
,
0010
0000
0000
0000
,
0100
0000
0000
0000
,
0001
0000
0000
0000
,
0001
0000
0000
0000
,
0100
0000
0000
0000
,
0001
0000
0000
0000
,
0020
0000
0030
0000
,
1000
0000
0000
0000
,
0100
0000
0000
0000
,
0010
0000
0000
0000
,
0001
0000
0000
0000
,
1000
0000
0000
0000
,
0001
0000
0000
0000
,
0010
0000
0000
0000
,
0001
0000
0000
0000
,
1000
0000
1000
0000
,
1000
0000
0000
0000
,
0010
0000
0000
0000
,
0100
0000
0000
0000
,
0001
0000
0001
0000
,
0001
0000
0000
0000
,
1000
0000
0000
0000
,
0010
0000
0000
0000
,
0020
0000
0030
0000
,
0200
0000
0300
0000
,
0002
0000
0003
0000
,
0020
0000
0030
0000
,
0110
0000
2000
0000
,
3000
0000
0000
0000
,
0020
0000
0030
0000
,
0200
0000
0300
0000
,
1000
0000
1000
0000
,
0001
0000
0000
0000
,
0001
0000
0001
0000
,
0010
0000
0000
0000
,
0010
0000
0010
0000
,
0100
0000
0000
0000
,
0100
0000
0100
0000
,
0001
0000
0000
0000
,
0200
0000
0300
0000
,
0020
0000
0030
0000
,
0200
0000
0300
0000
,
0020
0000
0030
0000
,
2000
0000
3000
0000
,
0002
0000
0003
0000
,
2000
0000
3000
0000
,
0002
0000
0003
0000
,
0010
0000
0000
0000
,
0100
0000
0000
0000
,
0010
0000
0000
0000
,
0100
0000
0000
0000
,
1000
0000
0000
0000
,
0001
0000
0000
0000
,
1000
0000
0001
0000
,
1000
0000
0000
0000
,
1000
0000
0000
0000
,
0001
0000
0000
0000
,
0010
0000
0000
0000
,
0100
0000
0000
0000
,
0100
0000
0000
0000
,
0010
0000
0000
0000
,
0001
0000
0000
0000
,
1000
0000
0000
0000
,
0010
0000
0000
0000
,
1000
0000
0000
0000
,
0100
0000
0000
0000
,
0001
0000
0000
0000
,
0010
0000
0000
0000
,
0100
0000
0000
0000
,
1000
0000
0000
0000
,
0001
0000
0000
0000
,
0001
0000
0000
0000
,
1000
0000
0000
0000
,
0100
0000
0000
0000
,
0010
0000
0000
0000
,
0010
0000
0000
0000
,
0100
0000
0000
0000
,
1000
0000
0000
0000
,
0001
0000
0000
0000
,
0100
0000
0000
0000
,
0001
0000
0000
0000
,
0010
0000
0000
0000
,
1000
0000
0000
0000
,
0100
0000
0000
0000
,
0010
0000
0000
0000
,
0001
0000
0000
0000
,
1000
0000
0000
0000
,
0010
0000
0000
0000
,
0010
0000
0000
0000
,
0100
0000
0000
0000
,
0001
0000
0000
0000
,
0100
0000
0000
0000
,
0100
0000
0000
0000
,
0010
0000
0000
0000
,
2000
0000
0000
0000
,
3000
0000
0000
0000
;

//--------------- dance-single - Mad Guns22 ----------------
#NOTES:
     dance-single:
     Mad Guns22:
     Easy:
     4:
     0.312,0.278,0.074,0.295,0:
0000
0000
0000
0000
,
0000
0000
0000
0000
,
0000
0000
0000
0000
,
0000
0000
0000
0000
,
0100
0010
0100
0000
,
0001
0010
0001
0000
,
0100
0010
0001
0000
,
1000
0100
1000
0000
,
1000
0001
1000
0000
,
0100
0001
0100
0000
,
1000
0001
0100
0000
,
0010
1000
0010
0000
,
0010
0100
0010
0000
,
1000
0100
0010
0000
,
0010
0100
0010
0000
,
0002
0000
1003
0000
,
0100
0010
0001
0000
,
1000
0100
0010
0000
,
0001
1000
0001
0000
,
0010
0100
0010
1000
,
0100
1000
0010
0000
,
0010
0100
0001
0000
,
0001
1000
0001
0000
,
0100
0010
0100
0000
,
0100
0100
0100
0000
,
0010
0010
0001
0100
,
0010
0010
0010
0000
,
0100
0100
1000
0010
,
0100
0100
0100
0000
,
0010
0010
0001
0100
,
0110
0000
0110
0000
,
1001
0000
0000
0000
,
0002
0000
0003
0000
,
2000
0000
3200
0000
,
0320
0000
0030
0000
,
0002
0000
0003
0000
,
1001
0000
0200
0000
,
0320
0000
0030
0000
,
0002
0000
0203
0000
,
2300
0000
3000
0000
,
0100
0100
0100
0000
,
0010
0100
1000
0000
,
0010
0010
0010
0000
,
0001
0010
0100
0000
,
0001
0001
0001
0000
,
1000
0100
0010
0000
,
1000
1000
1000
0000
,
0010
0100
1000
0000
,
2000
0000
3001
0000
,
0002
0000
0013
0000
,
2000
0000
3100
0000
,
0002
0000
0103
0000
,
0200
0000
0301
0000
,
0020
0000
1030
0000
,
0200
0000
0310
0000
,
0020
0000
1030
0000
,
0001
0100
0010
0010
,
1000
0100
0010
0000
,
0001
0010
0001
0010
,
1000
1000
1000
0000
,
0110
0000
1000
0000
,
0110
0000
0001
0000
,
0110
0000
0110
0000
,
0202
0000
0000
0303
,
0100
1000
0100
0000
,
0010
0010
0001
0000
,
0001
0010
0100
0000
,
1000
1000
1000
0010
,
0001
0100
0001
0000
,
1000
1000
0010
0000
,
0010
1000
0001
0000
,
0100
0100
0100
1000
,
0010
0001
0010
0000
,
0100
0100
1000
0000
,
1000
0100
0010
0000
,
0001
0001
0001
0010
,
1000
0010
1000
0000
,
0001
0001
0100
0000
,
0100
0001
1000
0000
,
0010
0010
0010
0100
,
0200
0000
0320
0000
,
2030
3000
0010
0010
,
0002
0000
2003
0000
,
3200
0300
1000
1000
,
0020
0000
0230
0000
,
0302
0003
0100
0100
,
0200
0000
0320
0000
,
2030
3000
0010
0010
,
2000
0000
3002
0000
,
0203
0300
0001
0001
,
0020
0000
0230
0000
,
2300
3000
0100
0100
,
0002
0000
2003
0000
,
3020
0030
1000
1000
,
1001
0000
0011
0000
,
0200
0000
0000
0300
,
1000
0001
1000
0000
,
0010
0001
0010
0000
,
1000
0001
0010
0000
,
0100
1000
0100
0000
,
0100
0010
0100
0000
,
1000
0010
1000
0000
,
0100
0010
1000
0000
,
0001
0100
0001
0020
,
0030
0000
0000
0000
;

//--------------- dance-single - Mad Guns22 ----------------
#NOTES:
     dance-single:
     Mad Guns22:
     Medium:
     7:
     0.433,0.418,0.127,0.295,0:
0000
0000
0000
0000
,
0000
0000
0000
0000
,
0000
0000
0000
0000
,
0000
0000
0000
0000
,
0001
1000
0001
0010
,
0010
1000
0010
0010
,
0001
1000
0010
0100
,
0100
0001
0100
0100
,
0100
0010
0100
0001
,
0001
0010
0001
0001
,
0100
0010
0001
1000
,
1000
0100
1000
1000
,
1000
0001
1000
0010
,
0100
0001
1000
0010
,
1000
0001
1000
0100
,
0010
0010
0010
0020
,
0031
0000
1000
0000
0010
0000
0100
0010
,
0100
0000
0001
0000
1000
0000
0010
0100
,
0010
0000
0100
0000
0010
0000
1000
0010
,
1000
0000
0001
0000
1000
0000
0100
0010
,
0001
0000
0100
0000
1000
0000
1000
0001
,
1000
0000
0001
0000
0010
0000
0010
0100
,
0010
0000
0100
0000
0010
0000
1000
0001
,
0100
0000
0000
0000
1000
0000
0000
0000
0100
0000
0000
0000
0400
0000
0000
0300
,
0001
0010
0001
0000
0001
0000
0010
0000
,
1000
0000
1000
0100
0010
0000
0001
0000
,
1000
0000
1000
0000
1000
0000
0100
0010
,
0001
0001
0100
1000
,
0001
0001
0001
0010
,
1001
1000
0010
0001
,
1001
0000
1001
0000
,
0110
0000
0000
0000
,
0020
0000
0000
0000
0000
0000
0000
0030
0002
0000
0000
0000
0000
0000
0000
0003
,
0200
0000
0000
0000
0000
0000
0000
0000
0000
0000
0000
0000
0000
0000
0000
0300
,
2000
0000
0000
0000
0000
0000
0000
3000
0200
0000
0000
0000
0000
0000
0000
0300
,
0020
0000
0000
0000
0000
0000
0000
0030
,
0210
0000
0000
0000
0000
0000
0000
0300
0002
0000
0000
0000
0000
0000
0000
0000
,
2003
0000
0000
0000
0000
0000
0000
0000
0000
0000
0000
3000
0100
0000
0100
0000
,
0020
0000
0032
0000
,
0203
0000
0000
0000
0000
0000
0000
0300
,
1001
0001
0001
0010
,
1000
0001
0100
0001
,
1000
1000
1000
0100
,
0010
1000
0001
0100
,
0010
0010
0010
0001
,
0100
0001
1000
0010
,
0100
0100
0100
0001
,
1000
0000
0001
0010
0100
0000
0100
0010
,
0200
0000
0310
1000
,
0020
0000
1030
0001
,
0200
0000
0301
1000
,
0020
0000
0031
0100
,
0001
0001
0002
0013
,
2000
0100
3100
0010
,
0002
0000
1003
0010
,
1000
2000
3100
0001
,
0110
0001
1000
0100
,
1000
0100
0010
0001
1000
0010
0000
0000
,
0010
0100
0001
0000
0010
0000
0010
0000
,
0100
0010
1000
0000
0100
0000
0010
0000
,
1001
0010
0100
0010
,
1001
1000
0001
1000
,
1001
0110
1001
0110
,
0022
0000
0000
0033
,
0011
0000
0100
0000
0001
0000
0010
0100
,
1000
0000
0100
0000
0010
0000
0010
0100
,
0010
1000
0001
1000
,
0100
0010
1000
0001
0100
0000
1000
0100
,
0010
0000
0001
0000
0010
0000
0100
0010
,
0100
0000
0001
0000
1000
0000
1000
0100
,
1000
0100
0010
0100
,
0001
0010
0100
1000
0001
0000
0100
0010
,
1000
0000
0010
0000
1000
0000
0100
0010
,
0001
0000
0010
0000
0100
0000
0100
0010
,
0100
0001
1000
0001
,
0010
0100
0001
1000
0010
0000
0001
0010
,
0100
0000
1000
0000
0100
0000
0010
0100
,
0010
0000
1000
0000
0001
0000
0001
0010
,
0001
0010
0100
0010
,
1000
0100
0010
0001
1000
0000
0010
0100
,
0002
0000
0000
1000
2003
0000
0000
3200
,
0000
0000
0000
0000
1000
0000
1000
0300
,
0020
0000
0000
0230
0000
0000
0000
0302
,
0000
0000
0100
0100
,
2003
0000
0000
3001
0002
0000
0000
0023
,
0000
0000
0001
0001
,
0032
0000
0000
0003
2000
0000
0000
3200
,
0000
0000
0000
0000
1000
0000
1000
0300
,
2000
0000
0000
0001
3002
0000
0000
0023
,
0000
0000
0001
0000
0001
0000
0001
0030
,
0200
0000
0000
0320
0000
0000
0000
0030
,
2000
0000
0010
0000
0010
0000
0010
3000
,
0011
0100
0010
0001
,
1000
0000
0100
0010
0100
0000
0100
0000
,
1100
0100
0110
0010
,
0022
0000
0000
0000
0000
0000
0000
0033
,
0100
0010
0100
0010
,
1000
0010
1000
0001
,
0100
0010
1000
0100
,
0001
0100
0001
0100
,
0001
1000
0001
0010
,
0100
1000
0100
0010
,
0001
1000
0100
0010
,
0010
0001
0010
0200
,
0300
0000
0000
0000
;
