#TITLE:Guitar Hero;
#SUBTITLE:;
#ARTIST:Dougal & Gammer;
#TITLETRANSLIT:;
#SUBTITLETRANSLIT:;
#ARTISTTRANSLIT:;
#GENRE:;
#CREDIT:Mad Guns22;
#MUSIC:Guitar Hero.mp3;
#BANNER:Guitar Hero.png;
#BACKGROUND:Guitar Hero-bg.png;
#CDTITLE:MadGuns22Icon.png;
#SAMPLESTART:21.942;
#SAMPLELENGTH:12.000;
#SELECTABLE:YES;
#OFFSET:-0.025;
#BPMS:0.000=175.000
,126.000=350.000
,128.000=175.000
,380.000=350.000
,381.000=175.000
;
#STOPS:126.000=0.343
,322.500=0.343
,325.500=0.343
,328.500=0.343
,331.500=0.343
,380.000=0.171
;
#DISPLAYBPM:175.000;
#BGCHANGES:;
#FGCHANGES:;

//--------------- dance-single - Mad Guns22 ----------------
#NOTES:
     dance-single:
     Mad Guns22:
     Beginner:
     2:
     0.153,0.217,0.111,0.125,0:
0000
0000
0000
0000
,
0000
0000
0000
0000
,
0000
0000
0000
0000
,
0000
0000
0000
0000
,
2000
0000
0000
3000
,
0000
0000
0000
0000
,
0200
0000
0000
0000
0000
0000
0000
0300
,
0000
0000
0000
0000
,
0001
0000
0000
0000
,
0010
0000
0000
0000
,
0001
0000
0000
0000
,
1000
0000
0000
0000
,
0100
0000
0000
0000
,
0001
0000
0000
0000
,
0001
0000
0000
0000
,
0100
0000
0000
0000
,
1100
0000
0000
0000
,
0010
0000
0000
0000
,
1100
0000
0000
0000
,
0011
0000
0000
0000
,
1100
0000
0000
0000
,
0011
0000
0000
0000
,
0110
0000
0000
0000
,
1001
0000
0000
0000
,
0110
0000
0000
0000
,
1000
0000
0000
0000
,
0001
0000
0000
0000
,
1000
0000
0000
0000
,
0010
0000
0000
0000
,
0100
0000
0000
0000
,
0010
0000
0000
0000
,
0100
0000
0000
0000
,
1000
0000
0000
0000
,
0100
0000
0000
0000
,
0001
0000
0000
0000
,
0010
0000
0000
0000
,
0001
0000
0000
0000
,
0010
0000
0000
0000
,
0100
0000
0000
0000
,
1000
0000
0000
0000
,
1000
0000
0100
0000
,
0001
0000
0000
0000
,
1000
0000
1000
0000
,
0100
0000
0000
0000
,
1000
0000
0001
0000
,
1000
0000
0000
0000
,
0100
0000
0010
0000
,
0100
0000
0000
0000
,
1000
0000
0100
0000
,
1000
0000
0000
0000
,
0001
0000
0010
0000
,
0001
0000
0000
0000
,
1000
0000
0001
0000
,
1000
0000
0000
0000
,
0010
0000
0100
0000
,
0010
0000
0000
0000
,
1000
0000
0100
0000
,
1000
0000
0010
0000
,
0001
0000
0010
0000
,
0001
0000
0000
0000
,
0001
0000
0010
0000
,
0001
0000
1000
0000
,
0100
0000
0010
0000
,
1000
0000
0000
0000
,
0100
0000
0001
0000
,
0100
0000
1000
0000
,
0010
0000
1000
0000
,
0010
0000
0000
0000
,
0010
0000
1000
0000
,
0010
0000
0100
0000
,
0001
0000
1000
0000
,
0100
0000
0000
0000
,
0020
0000
0030
0000
,
2000
0000
0000
3000
,
0002
0000
0003
0000
,
2000
0000
0000
3000
,
0200
0000
0300
0000
,
0002
0000
0000
0003
,
2000
0000
3000
0000
,
0002
0000
0000
0003
,
0200
0000
0000
0000
0000
0300
0002
0000
,
0000
0000
0000
0003
0020
0000
0000
0000
,
0000
0030
0200
0000
0000
0000
0000
0300
,
0002
0000
0003
0000
,
0020
0000
0030
0000
,
0200
0000
0300
0000
,
1000
0000
0001
0000
,
0011
0000
0000
0000
,
0100
0000
0000
0000
,
0011
0000
0000
0000
,
1100
0000
0000
0000
,
0011
0000
0000
0000
,
1100
0000
0000
0000
,
0110
0000
0000
0000
,
1001
0000
0000
0000
,
0110
0000
0000
0000
,
0001
0000
0000
0000
,
1000
0000
0000
0000
,
0001
0000
0000
0000
,
0100
0000
0000
0000
,
0010
0000
0000
0000
,
0100
0000
0000
0000
,
0010
0000
0000
0000
,
0002
0000
0000
0000
,
0003
0000
0000
0000
;

//--------------- dance-single - Mad Guns22 ----------------
#NOTES:
     dance-single:
     Mad Guns22:
     Easy:
     4:
     0.358,0.357,0.243,0.208,0:
0000
0000
0000
0000
,
0000
0000
0000
0000
,
0000
0000
0000
0000
,
0000
0000
0000
0000
,
0020
0000
0000
0030
,
0002
0000
0000
0000
0000
0000
0000
0003
,
2000
0000
0000
0000
0000
0000
0000
3000
,
0020
0000
0000
0000
0000
0000
0000
0030
,
0100
0001
1000
0000
,
0001
0100
0010
0000
,
0100
0010
0100
0000
,
0010
1000
0010
0000
,
1000
0010
0100
0000
,
0100
1000
0100
0000
,
0100
0001
1000
0001
,
1000
0000
0100
0000
1000
0000
0200
0300
,
1010
0000
0100
0000
,
0001
0000
0010
0100
,
1010
0000
0010
0000
,
1000
0000
0100
0010
,
1010
1010
0000
1100
,
0000
1010
0000
1100
,
0000
1001
0000
0110
,
0000
1001
0000
0110
,
0001
1000
0100
0010
,
0000
0100
0000
1000
,
0100
1000
0001
0010
,
0000
0010
0000
1000
,
0001
1000
0001
0000
,
0010
1000
0010
0000
,
0100
1000
0100
0000
,
0001
1000
0002
0003
,
0010
1000
0100
0000
,
1000
0001
0100
0000
,
0100
1000
0010
0000
,
0100
0001
1000
0000
,
1000
1001
0000
0110
,
0000
1001
0000
0110
,
0000
1100
0000
0011
,
0000
0101
0000
0011
,
1000
0001
1000
0000
,
0100
0100
0001
0000
,
0010
1000
0010
0000
,
1000
1000
0010
0000
,
0010
0100
0010
0000
,
0010
0010
0100
0000
,
1000
0001
1000
0000
,
0001
0001
0010
0000
,
0100
0010
0001
0010
,
0100
1000
0001
0010
,
0100
0010
0100
0010
,
1000
0100
0001
0010
,
1100
0000
0011
0000
,
0110
0000
1001
0000
,
0001
0010
0001
0010
,
1000
0100
0010
0001
,
1000
0100
0001
0010
,
1000
0100
0001
0010
,
0100
1000
0100
0010
,
0100
1000
0001
0010
,
0001
0010
1000
0100
,
0001
0010
1000
0100
,
0010
0001
0010
0100
,
0010
0001
1000
0100
,
0100
0001
0010
1000
,
0100
0001
0010
1000
,
0001
0100
0001
1000
,
0001
0100
0010
1000
,
0010
1000
0100
0001
,
0010
1000
0100
0001
,
1000
0010
1000
0001
,
1000
0010
0100
0001
,
0002
0003
0200
0300
,
1000
0100
0020
0030
,
0002
0003
0200
0300
,
0010
1000
0002
0003
,
2000
3000
0020
0030
,
0001
0010
0200
0300
,
2000
3000
0020
0030
,
0100
0001
2000
3000
,
1000
0000
1000
0000
2000
3000
0100
0000
,
0010
0000
0200
0300
0001
0000
0001
0000
,
0002
0003
1000
0000
0010
0000
2000
3000
,
0200
0000
2300
0000
,
3002
0000
0023
0000
,
2030
0000
0000
0000
3200
0000
0000
0300
,
0010
0010
0100
0100
,
0101
0000
0010
0000
,
1000
0000
0100
0010
,
0101
0000
0100
0000
,
0001
0000
0010
0100
,
0101
0101
0000
0011
,
0000
0101
0000
0011
,
0000
1001
0000
0110
,
0000
1001
0000
0110
,
2000
3000
0001
0000
0010
0000
0100
0000
,
0000
0010
0000
0001
,
0010
0001
1000
0100
,
0000
0100
0000
0001
,
1000
0001
1000
0000
,
0100
0001
0100
0000
,
0010
0001
0010
0000
,
1000
0001
2000
3000
,
1001
0000
0000
0000
;

//--------------- dance-single - Mad Guns22 ----------------
#NOTES:
     dance-single:
     Mad Guns22:
     Medium:
     6:
     0.492,0.5,0.25,0.222,0:
0000
0000
0000
0000
,
0000
0000
0000
0000
,
0000
0000
0000
0000
,
0000
0000
0000
0000
,
0002
0000
0000
0000
0000
0000
0003
1000
,
0200
0000
0000
0000
0000
0000
0000
0300
,
0020
0000
0000
0000
0000
0000
0000
0130
,
0002
0000
0000
0000
0000
0000
0000
0003
,
1000
0100
0010
0011
,
0000
1000
0001
0011
,
1000
0001
1000
1100
,
0000
0010
0001
1100
,
0010
0100
0001
0000
1000
0100
0001
0000
,
1000
0001
0010
0000
1000
0001
1000
0000
,
0100
0010
0100
0000
0010
0001
0100
0000
,
0010
0000
1000
0000
0010
0000
2000
3000
,
0011
0100
1000
0010
,
0100
0000
0010
0000
0001
0000
1000
0100
,
0001
0010
0001
0100
,
0010
0000
0100
0000
1000
0000
0001
0010
,
1000
0110
0000
1010
,
0100
0011
0000
1010
,
0100
0110
0000
0101
,
1000
1010
0000
0110
,
0100
0010
1000
0001
,
0010
1000
0100
0010
,
1000
0010
0100
0001
,
1000
0001
0100
0010
,
2000
0000
0000
0000
,
3101
0000
0000
0000
,
1011
0000
0000
0000
,
0100
0010
0200
0300
,
0000
0101
0010
1010
,
0000
0001
0100
0010
0000
1000
0100
0000
,
0000
1001
0001
0110
,
0000
0001
1000
0100
0000
0001
1000
0000
,
0000
0110
0001
1010
,
0000
0010
1000
0001
0000
0100
1000
0000
,
0000
1100
0010
1001
,
0000
0010
0100
1000
0000
0010
0100
0000
,
1000
1000
1000
1000
,
1000
1000
0100
0100
,
0001
0001
0001
0001
,
0010
0010
0010
0010
,
0001
0001
0001
0001
,
0001
0001
1000
1000
,
0010
0010
0010
0010
,
0100
0100
0100
0100
,
0010
0100
0010
0000
0001
0100
1000
0000
,
0001
0100
1000
0000
0001
0100
0010
0001
,
0010
0001
1000
0000
0010
0001
0100
0000
,
0001
0010
0100
1000
0010
0100
0001
0010
,
1000
0001
1000
0000
0100
0001
0010
0000
,
0100
0001
0010
0000
0100
0001
1000
0010
,
1000
0100
0010
0000
1000
0100
0001
0000
,
1000
0100
0001
0010
1000
0100
0010
0001
,
0100
0010
0100
0000
1000
0010
0001
0000
,
1000
0010
0001
0000
1000
0010
0100
1000
,
0100
1000
0001
0000
0100
1000
0010
0000
,
1000
0100
0010
0001
0100
0010
1000
0100
,
0001
1000
0001
0000
0010
1000
0100
0000
,
0010
1000
0100
0000
0010
1000
0001
0100
,
0001
0010
0100
0000
0001
0010
1000
0000
,
0001
0010
1000
0100
0001
0010
0100
1000
,
0001
0010
0001
0000
0100
0010
1000
0000
,
0100
0010
1000
0000
0100
0010
0001
0100
,
0001
0100
1000
0000
0001
0100
0010
0000
,
0100
0001
0010
1000
0001
0010
0100
0001
,
1000
0100
1000
0000
0010
0100
0001
0000
,
0010
0100
0001
0000
0010
0100
1000
0001
,
1000
0010
0001
0000
1000
0010
0100
0000
,
1000
0010
0100
0001
1000
0010
0001
0100
,
0002
0003
0200
0300
,
0001
1000
0100
0020
0000
0030
0000
0000
,
0020
0030
2000
3000
,
0010
0100
1000
0002
0000
0003
0000
0000
,
0002
0003
0200
0300
,
0001
1000
0100
0020
0000
0030
0200
0000
,
0320
0030
2000
3000
,
0010
0100
1000
0002
0000
0003
0020
0000
,
1030
0000
0000
1000
0200
0300
1000
0000
,
0000
0100
0020
0030
1000
0000
0000
0001
,
0200
0300
0010
0000
0000
0100
0020
0030
,
2000
0000
3020
0000
,
0230
0000
0302
0000
,
0023
0000
0000
0000
2030
0000
0000
3000
,
0001
0010
0001
0000
1000
0100
1000
0000
,
1100
0010
0001
0100
,
0010
0000
0100
0000
1000
0000
0001
0010
,
1000
0100
1000
0010
,
0100
0000
0010
0000
0001
0000
1000
0100
,
0001
0110
0000
0101
,
0010
1100
0000
0101
,
0010
0110
0000
1010
,
0001
0101
0000
0110
,
0010
0100
0001
1000
,
0100
0001
0010
0100
,
0001
0100
0010
1000
,
0001
1000
0010
0100
,
0002
0000
0000
0000
,
1013
0000
0010
0000
,
1101
0000
1000
0000
,
0111
0000
0001
0000
,
1110
0000
0000
0000
;

//--------------- dance-single - Mad Guns22 ----------------
#NOTES:
     dance-single:
     Mad Guns22:
     Hard:
     10:
     0.797,1,0.222,0.319,0.264:
0000
0000
0000
0000
,
0000
0000
0000
0000
,
0000
0000
0000
0000
,
0000
0000
0000
0000
,
0200
0000
0300
0001
0020
0000
0030
0100
,
0001
0010
0001
0200
0000
0300
0020
0000
,
0032
0000
0003
0100
2000
0000
3000
0001
,
0100
1000
0100
0002
0000
0003
2000
0000
,
3001
1010
0001
0101
,
1000
1010
0100
0101
,
0001
0110
1000
1010
,
0100
1001
0100
1010
,
1000
0010
0100
0001
1000
0010
0100
0001
,
1000
0100
0001
0010
1000
0100
1000
0010
,
0100
0001
0100
0001
0100
0001
0100
0001
0100
0001
0100
0001
0100
0001
0100
0001
,
0100
0010
1000
0002
0000
0013
1000
0000
,
1000
0100
0010
0100
0012
0000
0013
0000
,
0100
0010
0001
1000
0210
0000
0310
0000
,
0001
0010
0001
0100
2010
0000
3010
0000
,
0100
1000
0100
0010
0102
0000
0103
0000
,
0001
0010
0100
0010
2100
0000
3100
0000
,
0010
0100
1000
0001
0120
0000
0130
0000
,
1000
0100
1000
0010
0102
0000
0103
0000
,
0010
0001
0010
0100
1000
0001
0010
0100
,
1001
0000
0010
0001
1000
0001
0100
0001
,
1000
0010
0100
1000
0100
0001
0100
0010
,
0100
1000
0001
1000
0010
1000
0100
1000
,
0001
0010
0001
0100
0001
0010
0001
1000
,
0010
0100
1000
0100
0010
0100
0001
0100
,
0010
1000
0100
0010
0001
0100
0010
1000
,
0001
0010
0100
0010
1000
0010
0001
0010
,
0100
1000
0100
0001
0020
0000
0030
0000
,
0010
0110
0001
0110
,
0001
0100
0010
0001
0010
1000
0010
0100
,
0010
1100
0100
0011
,
1000
0100
1000
0010
1000
0100
1000
0001
,
0100
0011
0100
1001
,
0100
0001
1000
0100
1000
0010
1000
0001
,
1000
1010
0001
1100
,
0010
0001
0010
2000
0000
3001
0010
0000
,
0010
1000
0010
0000
0010
1000
0010
0000
,
0010
1000
0010
0000
0100
0001
0100
0000
,
0100
0001
0100
0000
0100
0001
0100
0000
,
0001
1000
0001
0000
0001
1000
0001
0000
,
0100
0010
0100
0000
0100
0010
0100
0000
,
0100
0010
0100
0000
1000
0100
1000
0000
,
0001
0100
0001
0000
0001
0100
0001
0000
,
0010
1000
0010
0000
0010
1000
0010
0000
,
0001
0010
0001
1000
0100
0010
1000
0001
,
0100
0000
0010
0000
1000
0000
0001
0000
0100
0000
0010
0000
0001
0010
0100
1000
,
0001
0100
1000
0010
0001
0100
0010
0001
,
0100
1000
0100
0000
0010
0100
0010
0000
0001
1000
0001
0000
0100
0010
0001
0000
,
1000
0100
1000
0001
0010
0100
0001
1000
,
0010
0000
0100
0000
0001
0000
1000
0000
0010
0000
0100
0000
1000
0100
0010
0001
,
1000
0010
0001
0100
1000
0010
0100
1000
,
0010
0001
0010
0000
0100
0010
0100
0000
1000
0001
1000
0000
0010
0100
0001
0000
,
1000
0010
0001
0100
1000
0010
0100
0001
,
1000
0000
0010
0000
0100
0000
0001
0000
1000
0000
0010
0000
0001
0010
1000
0100
,
0001
1000
0100
0010
0001
1000
0010
0001
,
1000
0100
1000
0000
0010
1000
0010
0000
0001
0100
0001
0000
1000
0010
0001
0000
,
0100
1000
0100
0001
0010
1000
0001
0100
,
0010
0000
1000
0000
0001
0000
0100
0000
0010
0000
1000
0000
0100
1000
0010
0001
,
0100
0010
0001
1000
0100
0010
1000
0100
,
0010
0001
0010
0000
1000
0010
1000
0000
0100
0001
0100
0000
0010
1000
0001
0000
,
1000
0000
0100
0000
1000
0000
0001
0000
0010
0000
0100
0000
0001
1000
0001
0000
,
0010
0000
0100
0000
0001
0000
1000
0000
0010
0000
0100
0000
1000
0100
0010
0001
,
1000
0000
0010
0000
0001
0000
0100
0000
1000
0000
0010
0000
1000
0001
1000
0000
,
0010
0001
0010
0000
0100
0010
0100
0000
1000
0001
1000
0000
0010
0100
1000
0000
,
0001
0000
0010
0000
0001
0000
1000
0000
0100
0000
0010
0000
0001
1000
0001
0000
,
0100
0000
0010
0000
1000
0000
0001
0000
0100
0000
0010
0000
0001
0010
0100
1000
,
0001
0000
0100
0000
1000
0000
0010
0000
0001
0000
0100
0000
0010
1000
0010
0000
,
0100
1000
0100
0000
0010
0100
0010
0000
0001
1000
0001
0000
0100
0010
1000
0000
,
0200
0000
0300
1000
0020
0000
0030
0001
,
0100
1000
0010
0002
0000
0003
0000
0000
,
0002
0000
0003
0010
2000
0000
3000
0100
,
0001
0010
1000
0200
0000
0300
0000
0000
,
0200
0000
0300
1000
0020
0000
0030
0001
,
0100
1000
0010
0002
0000
0003
0020
0000
,
0032
0000
0003
0010
2000
0000
3000
0100
,
0001
0010
1000
0200
0000
0300
0002
0000
,
0013
1000
0010
1000
0010
1000
0010
1000
0010
1000
0010
0000
0100
0001
0100
0001
,
0100
0001
0100
0001
0100
0001
0100
0000
0001
1000
0001
1000
0001
1000
0001
1000
,
0001
1000
0001
0000
0010
0100
0010
0100
0010
0100
0010
0100
0010
0100
0010
0000
,
1000
2000
0000
0000
3001
0002
0000
0000
,
0013
0020
0000
0000
0130
0200
0000
0000
,
0301
1000
0001
1000
0001
1000
0001
1000
0001
1000
0001
1000
0001
1000
0001
1000
,
0010
0100
1000
0001
0000
0010
0100
0000
,
0001
0010
0100
0010
2100
0000
3100
0000
,
0010
0100
1000
0001
0120
0000
0130
0000
,
1000
0100
1000
0010
0102
0000
0103
0000
,
0010
0001
0010
0100
2010
0000
3010
0000
,
1000
0100
0010
0100
0012
0000
0013
0000
,
0100
0010
0001
1000
0210
0000
0310
0000
,
0001
0010
0001
0100
2010
0000
3010
0000
,
0100
1000
0100
0010
0001
1000
0100
0010
,
0002
0003
0110
0000
0001
1000
0010
1000
,
0001
0100
0010
0001
0010
1000
0010
0100
,
0010
0001
1000
0001
0100
0001
0010
0001
,
1000
0100
1000
0010
1000
0100
1000
0001
,
0100
0010
0001
0010
0100
0010
1000
0010
,
0100
0001
0010
0100
1000
0010
0100
0001
,
1000
0100
0010
0100
0001
0100
1000
0100
,
0010
1000
0100
0002
0003
0100
0020
0000
,
0030
0000
0000
0000
;

//--------------- dance-single - Mad Guns22 ----------------
#NOTES:
     dance-single:
     Mad Guns22:
     Challenge:
     12:
     0.925,1,0.528,0.215,0.58:
0000
0000
0000
0000
,
0000
0000
0000
0000
,
0000
0000
0000
0000
,
0000
0000
0000
0000
,
2000
0000
3000
0001
0020
0000
0030
1000
,
0001
0010
0001
2000
0000
3000
0020
0000
,
0032
0000
0003
1000
0200
0000
0300
0001
,
1000
0100
1000
0002
0000
0003
0200
0000
,
0311
0110
0101
1001
,
1100
0000
0000
0000
0110
0000
0000
0000
1010
0000
0000
0000
1001
0000
0000
0100
,
0011
1010
0101
0110
,
1100
0000
0000
0000
0101
0000
0000
0000
1010
0000
0000
0000
0110
0001
0000
1000
,
0100
0010
1000
0001
0100
0010
1000
0001
,
0100
1000
0001
0010
0100
1000
0100
0010
,
1000
0001
1000
0001
1000
0001
1000
0001
1000
0001
1000
0001
1000
0001
1000
0001
,
1000
0010
0100
0002
0000
0013
0100
0000
,
1100
0110
1010
0011
,
0110
0101
1001
0110
,
0011
0110
0101
1100
,
0110
1010
1001
0110
,
0001
0110
0100
1001
,
0100
0011
0100
0101
,
0010
1001
0100
1010
,
0100
0000
0000
0000
0011
0000
0000
0000
0100
0000
0000
0010
0001
0000
1000
0000
,
0100
0001
0010
0001
0100
0001
1000
0001
,
0100
0010
1000
0100
1000
0001
1000
0010
,
1000
0100
0001
0100
0010
0100
1000
0100
,
0001
0010
0001
1000
0001
0010
0001
0100
,
0010
1000
0110
1000
0010
1000
0101
1000
,
0010
0100
1001
0010
0001
1000
0011
0100
,
0001
0010
1001
0010
0100
0010
0101
0010
,
1000
0100
1000
0001
0020
0000
0030
0000
,
0010
0000
0110
1000
0001
1000
0010
1000
,
0001
0100
0010
0001
0010
1000
0010
0100
,
0010
0001
1000
0001
0100
0001
0010
0001
,
1000
0100
1000
0010
1000
0100
1000
0001
,
0100
0010
0001
0010
0100
0010
1000
0010
,
0100
0001
1000
0100
1000
0010
1000
0001
,
1000
0100
0010
0100
0001
0100
1000
0100
,
0010
0001
0010
1000
0010
0001
0010
0100
,
1000
1000
1000
1000
1000
1000
1000
1000
,
1000
1000
1000
1000
0001
0001
0001
0001
,
0010
0010
0010
0010
0010
0010
0010
0010
,
0100
0100
0100
0100
0100
0100
0100
0100
,
0001
0001
0001
0001
0001
0001
0001
0001
,
0001
0001
0001
0001
0100
0100
0100
0100
,
0010
0010
0010
0010
0010
0010
0010
0010
,
1000
1000
1000
1000
1000
1000
1000
1000
,
0001
0010
0001
0000
1000
0100
1000
0000
0001
0010
0001
0000
1000
0100
1000
0000
,
0010
0100
0010
0000
0001
0010
0001
0000
1000
0100
1000
0000
0001
0010
0100
1000
,
0010
0100
0010
0000
0001
1000
0001
0000
0010
0100
0010
0000
0001
1000
0001
0000
,
0100
1000
0100
1000
0010
0100
0010
0100
0001
1000
0001
1000
0100
0010
1000
0001
,
1000
0100
1000
0000
0001
0010
0001
0000
1000
0100
1000
0000
0001
0010
0001
0000
,
0100
0010
0100
0000
1000
0100
1000
0000
0001
0010
0001
0000
1000
0100
0010
0001
,
0100
0010
0100
0000
1000
0001
1000
0000
0100
0010
0100
0000
1000
0001
1000
0000
,
0010
0001
0010
0001
0100
0010
0100
0010
1000
0001
1000
0001
0010
0100
0001
1000
,
0001
0010
0001
0000
0100
1000
0100
0000
0001
0010
0001
0000
0100
1000
0100
0000
,
0010
1000
0010
0000
0001
0010
0001
0000
0100
1000
0100
0000
0001
0010
1000
0100
,
0010
1000
0010
0000
0001
0100
0001
0000
0010
1000
0010
0000
0001
0100
0001
0000
,
1000
0100
1000
0100
0010
1000
0010
1000
0001
0100
0001
0100
1000
0010
0100
0001
,
0100
1000
0100
0000
0001
0010
0001
0000
0100
1000
0100
0000
0001
0010
0001
0000
,
1000
0010
1000
0000
0100
1000
0100
0000
0001
0010
0001
0000
0100
1000
0010
0001
,
1000
0010
1000
0000
0100
0001
0100
0000
1000
0010
1000
0000
0100
0001
0100
0000
,
0010
0001
0010
0001
1000
0010
1000
0010
0100
0001
0100
0001
0010
1000
0001
0100
,
0010
1000
0010
0000
0001
0100
0001
0000
0010
1000
0010
0000
0001
0100
0001
0000
,
1000
0100
1000
0000
0010
1000
0010
0000
0001
0100
0001
0000
0010
1000
0100
0001
,
1000
0100
1000
0000
0010
0001
0010
0000
1000
0100
1000
0000
0010
0001
0010
0000
,
0100
0001
0100
0001
1000
0100
1000
0100
0010
0001
0010
0001
0100
1000
0001
0010
,
0001
0100
0001
0000
0010
1000
0010
0000
0001
0100
0001
0000
0010
1000
0010
0000
,
0100
1000
0100
0000
0001
0100
0001
0000
0010
1000
0010
0000
0001
0100
1000
0010
,
0100
1000
0100
0000
0001
0010
0001
0000
0100
1000
0100
0000
0001
0010
0001
0000
,
1000
0010
1000
0010
0100
1000
0100
1000
0001
0010
0001
0010
1000
0100
0010
0001
,
2000
0000
3000
0100
0020
0000
0030
0001
,
1000
0100
0010
0002
0000
0003
0000
0000
,
0002
0000
0003
0010
0200
0000
0300
1000
,
0001
0010
0100
2000
0000
3000
0000
0000
,
2000
0000
3000
0100
0020
0000
0030
0001
,
1000
0100
0010
0002
0000
0003
0020
0000
,
0032
0000
0003
0010
0200
0000
0300
1000
,
0001
0010
0100
2000
0000
3000
0002
0000
,
1003
0100
1000
0100
1000
0100
1000
0100
1000
0010
1000
0000
0001
0010
0001
0010
,
0001
0010
0001
0010
0001
1000
0001
0000
0010
0100
0010
0100
0010
0100
0010
0100
,
0010
0001
0010
0000
1000
0001
1000
0001
1000
0001
1000
0001
0010
0100
0010
0000
,
1000
0010
2000
0000
3001
0100
0002
0000
,
0013
1000
0020
0000
0130
0001
0200
0300
,
0001
1000
0001
1000
0001
1000
0001
1000
0001
1000
0001
1000
0001
1000
0001
1000
,
0010
0100
1000
0001
0000
0010
0100
0000
,
0011
0101
0110
1100
,
0101
1001
1010
0101
,
1100
0101
1001
0011
,
0101
0110
1010
0101
,
1000
0010
0101
0000
0001
0000
1010
0000
,
0001
0010
1100
0000
0001
0000
1001
0000
,
0100
0001
1010
0000
0001
0000
0110
0000
,
0001
0000
0010
0000
1100
0000
0000
0000
0001
0000
0000
0100
1000
0000
0010
0000
,
0002
0003
0110
1000
0001
1000
0010
1000
,
0001
0100
0010
0001
0010
1000
0010
0100
,
0010
0001
1000
0001
0100
0001
0010
0001
,
1000
0100
1000
0010
1000
0100
1000
0001
,
0100
0010
0101
0010
0100
0010
1001
0010
,
0100
0001
1010
0100
1000
0010
1100
0001
,
1000
0100
1010
0100
0001
0100
1001
0100
,
0010
0001
0010
2000
3000
0010
0200
0300
;
