#TITLE:Get It;
#SUBTITLE:;
#ARTIST:Havana Brown;
#TITLETRANSLIT:;
#SUBTITLETRANSLIT:;
#ARTISTTRANSLIT:;
#GENRE:;
#CREDIT:Mad Guns22;
#MUSIC:Get It.mp3;
#BANNER:Project default banner.png;
#BACKGROUND:Project default background.png;
#CDTITLE:MadGuns22Icon.png;
#SAMPLESTART:125.703;
#SAMPLELENGTH:12.000;
#SELECTABLE:YES;
#OFFSET:-0.025;
#BPMS:0.000=132.000
,37.500=264.000
,39.500=132.000
,167.000=264.000
,168.000=132.000
,183.000=264.000
,184.000=132.000
;
#STOPS:37.500=0.455
,167.000=0.227
,183.000=0.227
;
#DISPLAYBPM:132.000;
#BGCHANGES:;
#FGCHANGES:;

//--------------- dance-single - Mad Guns22 ----------------
#NOTES:
     dance-single:
     Mad Guns22:
     Beginner:
     2:
     0.147,0.192,0.219,0.078,0:
0000
0000
0000
0000
,
0000
0000
0000
0000
,
0000
0000
0000
0000
,
0000
0000
0000
0000
,
0100
0000
0000
0000
,
0010
0000
0000
0000
,
0010
0000
0000
0000
,
0010
0000
0000
0000
,
0010
0000
0000
0000
,
1000
0000
0000
0000
,
1100
0000
0010
0000
,
1000
0000
0010
0000
,
0100
0000
0001
0000
,
0100
0000
0001
0000
,
1001
0000
0001
0000
,
0100
0000
0001
0000
,
0100
0000
1000
0000
,
0200
0000
0000
0300
,
1010
0000
0100
0000
,
0001
0000
0100
0000
,
1000
0000
0001
0000
,
0010
0000
0001
0000
,
1100
0000
1000
0000
,
0100
0000
0001
0000
,
0100
0000
0010
0000
,
0100
0000
1000
0000
,
0200
0000
0000
0000
,
0300
0000
0010
0000
,
0002
0000
0000
0000
,
0003
0000
0010
0000
,
2000
0000
0000
0000
,
3000
0000
0001
0000
,
0200
0000
0000
0000
,
0300
0000
0010
0000
,
1010
0000
1000
0000
,
0001
0000
1000
0000
,
0011
0000
1000
0000
,
0010
0000
1000
0000
,
0011
0000
0100
0000
,
0001
0000
0010
0000
,
0101
0000
0010
0000
,
0100
0000
1010
0000
,
2000
0000
0000
0000
,
0000
0000
0000
3000
,
0002
0000
0000
0000
,
0003
0000
1000
0000
,
0011
0000
0000
0000
,
1001
0000
0000
0000
,
1010
0000
0000
0000
,
1001
0000
0000
0000
,
0101
0000
0000
0000
,
1100
0000
0000
0000
,
0110
0000
0000
0000
,
0011
0000
0000
0000
,
0101
0000
0000
0000
,
0001
0000
0000
0000
,
1010
0000
0000
0000
,
0100
0000
0000
0000
,
0101
0000
0000
0000
,
0010
0000
0000
0000
,
1001
0000
0000
0000
,
0100
0000
0000
0000
,
0020
0000
0000
0000
,
0030
0000
0100
0000
,
2000
0000
0000
0000
,
3000
0000
0100
0000
,
0002
0000
0000
0000
,
0003
0000
1000
0000
,
0020
0000
0000
0000
,
0030
0000
0100
0000
,
0101
0000
0001
0000
,
1100
0000
0001
0000
,
1100
0000
0001
0000
,
0110
0000
0011
0000
,
1100
0000
0010
0000
,
1010
0000
0100
0000
,
1010
0000
0100
0000
,
0011
0000
0000
1001
;

//--------------- dance-single - Mad Guns22 ----------------
#NOTES:
     dance-single:
     Mad Guns22:
     Easy:
     3:
     0.219,0.247,0.283,0.092,0:
0000
0000
0000
0000
,
0000
0000
0000
0000
,
0000
0000
0000
0000
,
0000
0000
0000
0000
,
0010
0100
1000
0000
,
1000
0001
0010
0000
,
1000
0010
1000
0000
,
1000
0100
0010
0000
,
1000
0010
1000
0000
,
0100
0010
0000
0000
,
0110
0001
1000
0000
,
0100
0010
1000
0000
,
0010
0100
0001
0000
,
0010
0100
0001
0000
,
0101
0100
0001
0000
,
0010
0100
0001
0000
,
0010
1000
0100
0000
,
2000
3000
0200
0300
0020
0030
0000
0000
,
1100
0001
0010
0000
,
0001
0100
0010
0000
,
0100
1000
0001
0000
,
0001
1000
0001
0000
,
1001
1000
0001
0000
,
0001
1000
0001
0000
,
0100
0010
1000
0001
,
0000
1000
0100
1000
,
0020
0000
0030
0100
,
0000
0001
0000
0010
,
0002
0000
0000
0000
,
0003
1000
0000
1000
,
0200
0000
0300
0000
,
0001
0000
0001
0000
,
0020
0000
0000
0000
,
0030
0100
1000
0001
,
1100
0000
0100
0000
,
1001
0000
0100
0010
,
1001
0000
0100
0000
,
1010
0000
0110
0000
,
1001
0000
0010
0000
,
0011
0000
1000
0100
,
0011
0000
1000
0000
,
0110
0000
1100
0000
,
0200
0000
0000
0000
,
0000
0000
0000
0000
,
0302
0000
0000
0000
,
0003
0010
0100
0000
,
1001
0000
0000
0000
,
0101
0000
0000
0000
,
1100
0000
0000
0000
,
0101
0000
0000
0000
,
0011
0000
0100
0000
,
0110
0000
0001
0000
,
1010
0000
0100
0000
,
1001
0000
0010
0000
,
0101
0010
0000
0000
,
0101
0010
0000
0000
,
1100
0001
0000
0000
,
1010
0010
0000
0000
,
1010
0100
0000
0000
,
1010
0001
0000
0000
,
0011
0100
0000
0000
,
0011
1000
0000
0100
,
0020
0000
0030
0100
,
0000
0001
0000
0010
,
0002
0000
0000
0000
,
0003
1000
0000
1000
,
0200
0000
0300
0000
,
0001
0000
0001
0000
,
0020
0000
0000
0000
,
0030
0100
1000
0001
,
1100
0000
0100
0000
,
1001
0000
0100
0010
,
1001
0000
0100
0000
,
1010
0000
0110
0000
,
1001
0000
0010
0000
,
0011
0000
1000
0100
,
0011
0000
1000
0000
,
0110
0000
1100
0001
;

//--------------- dance-single - Mad Guns22 ----------------
#NOTES:
     dance-single:
     Mad Guns22:
     Medium:
     5:
     0.322,0.357,0.113,0.141,0.057:
0000
0000
0000
0000
,
0000
0000
0000
0000
,
0000
0000
0000
0000
,
0000
0000
0000
0000
,
1000
0010
0100
0001
,
0100
0000
0001
0000
1000
0001
1000
0010
,
0100
1000
0100
0010
,
0100
0000
0010
0000
1000
0001
0100
0010
,
0100
1000
0100
0001
,
0010
0000
0000
0100
0000
0000
0010
0000
0000
0000
0000
0000
0000
0000
0000
0000
,
1010
0000
0001
0000
0100
0010
0100
0000
,
0000
0000
1000
0000
0100
0010
1000
0000
,
0000
0000
0010
0000
0001
1000
0001
0000
,
0000
0000
0010
0000
0001
0100
0010
0000
,
0011
0000
0010
0000
0001
0100
0001
0000
,
0000
0000
0010
0000
0001
0100
1000
0000
,
0000
0000
0100
0000
0010
0001
0020
0030
,
0200
0300
0020
0030
2000
3000
0002
0003
,
0110
0000
0001
0000
1000
0100
1000
0000
,
0000
0000
0010
0000
1000
0100
0010
0000
,
0000
0000
0100
0000
0001
0010
0001
0000
,
0000
0000
0100
0000
0001
1000
0100
0000
,
0101
0000
0100
0000
0001
1000
0001
0000
,
0000
0000
0100
0000
0001
1000
0010
0000
,
0000
0000
1000
0000
0100
0001
0200
0300
,
2000
3000
0100
0000
0010
0000
0100
0000
,
2000
0000
3000
0010
,
0100
0001
1000
1000
,
0002
2000
0000
0000
,
3003
0100
0001
0100
,
0020
2000
3030
0100
,
0001
0100
0001
0010
,
2000
0002
0000
0000
,
3003
0010
0100
0001
,
0110
0000
0100
0010
0100
0000
0001
0000
,
0100
0000
0010
0001
0010
0000
1000
0000
,
0001
0000
0010
0100
0010
0000
0001
0000
,
1100
0000
1010
0000
,
0101
0000
1000
0100
1000
0000
0001
0000
,
1000
0000
0100
0001
0100
0000
0010
0000
,
0001
0000
0100
1000
0100
0000
0001
0000
,
1010
0000
0110
0000
,
0010
0100
1000
0001
,
1000
0000
0001
0000
0010
0001
0010
0100
,
1000
0010
1000
0100
,
1000
0001
1000
0000
0010
0100
0010
0000
,
0100
0000
0000
1000
0000
0000
0100
0000
0000
0000
0000
0000
0000
0000
0000
0000
,
0001
0000
0000
0010
0000
0000
0001
0000
0000
0000
0000
0000
0000
0000
0000
0000
,
0100
0000
0000
0010
0000
0000
0100
0000
0000
0000
0000
0000
0000
0000
0000
0000
,
0010
0000
0000
0001
0000
0000
0010
0000
0000
0000
0000
0000
0000
0000
0000
0000
,
1000
0000
0000
0001
0000
0000
0100
0000
0000
0000
0000
0000
0000
0000
0000
0000
,
1000
0000
0000
0010
0000
0000
1000
0000
0000
0000
0000
0000
0000
0000
0000
0000
,
0100
0000
0000
0010
0000
0000
0100
0000
0000
0000
0000
0000
0000
0000
0000
0000
,
0001
0000
0010
0000
1000
0100
1000
0000
,
0010
0000
0000
0100
0000
0000
0010
0000
0000
0000
0000
0000
0000
0000
0000
0000
,
0001
0000
0000
1000
0000
0000
0001
0000
0000
0000
0000
0000
0000
0000
0000
0000
,
0010
0000
0000
0001
0000
0000
0010
0000
0000
0000
0000
0000
0000
0000
0000
0000
,
0100
0000
0000
1000
0000
0000
0100
0000
0000
0000
0000
0000
0000
0000
0000
0000
,
1000
0000
0000
0010
0000
0000
1000
0000
0000
0000
0000
0000
0000
0000
0000
0000
,
0100
0000
0000
0010
0000
0000
0100
0000
0000
0000
0000
0000
0000
0000
0000
0000
,
0001
0000
0000
1000
0000
0000
0001
0000
0000
0000
0000
0000
0000
0000
0000
0000
,
0001
0000
0000
1000
0000
0000
1001
0000
0000
0000
0000
0000
0000
0000
0000
0000
,
0010
0100
0001
0100
,
1000
0001
0010
0010
,
0002
0020
0000
0000
,
0033
1000
0001
1000
,
0200
0020
0330
1000
,
0001
1000
0001
0100
,
0020
0002
0000
0000
,
0033
0100
1000
0001
,
1100
0000
1000
0100
1000
0000
0001
0000
,
1000
0000
0100
0001
0100
0000
0010
0000
,
0001
0000
0100
1000
0100
0000
0001
0000
,
1010
0000
0110
0000
,
1001
0000
0010
1000
0010
0000
0001
0000
,
0010
0000
1000
0001
1000
0000
0100
0000
,
0001
0000
1000
0010
1000
0000
0001
0000
,
0110
0000
0000
0000
1000
0010
0001
0000
;

//--------------- dance-single - Mad Guns22 ----------------
#NOTES:
     dance-single:
     Mad Guns22:
     Hard:
     8:
     0.451,0.412,0.261,0.049,0.201:
0000
0000
0000
0000
,
0000
0000
0000
0000
,
0000
0000
0000
0000
,
0000
0000
0000
0000
,
0100
0001
0100
0000
0010
1000
0010
0000
,
0010
0000
1000
0000
0001
0000
0000
0000
0100
0001
0000
0010
0100
0000
1000
0000
,
0100
0001
0100
0000
0010
1000
0010
0000
,
0010
0000
1000
0000
0001
0000
0000
0000
0100
0001
0000
0010
0100
0000
1000
0000
,
0100
0001
1000
0000
0001
0010
0001
0000
,
1000
0000
0000
0001
0000
0000
1001
0000
0000
0000
0000
0000
0000
0000
0000
0000
,
0011
0000
0100
0010
1000
0001
1000
0010
,
0000
0000
0000
0010
1000
0001
1010
0000
,
0100
0000
0001
0000
0100
0010
0100
0000
,
0010
0000
0001
0010
0100
0010
0101
0000
,
0011
0000
0001
0010
0100
1000
0100
0010
,
1000
0000
0001
0010
0100
1000
0101
0000
,
1001
0000
0100
0000
0010
0001
0020
0000
,
2030
0000
3200
0000
0302
0000
2003
3000
,
0011
0000
1000
0001
0100
0010
0100
0001
,
1000
0000
0100
0001
0100
0010
0101
0000
,
1000
0000
0010
0000
1000
0001
1000
0000
,
0001
0000
0010
0001
1000
0001
1010
0000
,
0011
0000
0010
0001
1000
0100
1000
0001
,
0100
0000
0010
0001
1000
0100
1010
0000
,
0110
0000
1000
0000
0001
0010
0002
0000
,
0203
0000
0310
0001
0100
0010
1000
0001
,
1000
0000
0000
0001
0000
0000
0010
0000
0100
0000
0001
0000
0100
0000
0000
0000
,
0100
0000
0000
0010
0000
0000
0001
0000
1000
0000
0010
0000
1000
0000
0000
0000
,
0001
0000
0000
0010
0000
0000
0100
0000
1000
0000
0010
0000
1000
0000
0000
0000
,
1000
0000
0000
0100
0000
0000
0010
0000
0001
0000
0100
0000
0001
0000
0000
0000
,
0010
0000
0000
1000
0000
0000
0100
0000
0001
0000
1000
0000
0001
0000
0000
0000
,
0001
0000
0000
0100
0000
0000
1000
0000
0010
0000
0100
0000
0010
0000
0000
0000
,
1000
0000
0000
0100
0000
0000
0001
0000
0010
0000
0100
0000
0010
0000
0000
0000
,
0010
0000
0000
0001
0000
0000
0100
0000
1000
0000
0001
0000
1000
0000
0000
0000
,
0100
0000
0000
0010
0000
0000
1000
0000
0100
0000
0010
0000
0001
0000
0000
0000
,
0010
0000
0000
0100
0000
0000
0001
0000
0010
0000
0100
0000
1000
0000
0000
0000
,
0001
0000
0000
1000
0000
0000
0100
0000
0010
0000
0001
0000
1000
0000
0000
0000
,
1001
0001
0110
1000
,
0010
0000
0000
0100
0000
0000
0001
0000
0010
0000
0100
0000
1000
0000
0000
0000
,
0100
0000
0000
0010
0000
0000
1000
0000
0100
0000
0010
0000
0001
0000
0000
0000
,
1000
0000
0000
0001
0000
0000
0010
0000
0100
0000
1000
0000
0001
0000
0000
0000
,
1001
0000
1000
0000
0010
0100
0010
0000
,
1000
0001
1000
0000
0100
0010
0100
0000
,
0100
0000
0010
0000
0001
0000
0000
0000
1000
0001
0000
0100
1000
0000
0010
0000
,
1000
0001
1000
0000
0100
0010
0100
0000
,
0100
1000
0001
0010
0100
1000
0001
0000
,
0001
0000
0000
0100
0000
0000
0001
0000
0000
0100
0000
0000
0000
0000
0000
0000
,
0010
0000
0000
1000
0000
0000
0010
0000
0000
1000
0000
0000
0000
0000
0000
0000
,
0001
0000
0000
1000
0000
0000
0001
0000
0000
1000
0000
0000
0000
0000
0000
0000
,
1000
0000
0000
0010
0000
0000
1000
0000
0000
0010
0000
0000
0000
0000
0000
0000
,
0101
0000
0000
0010
0000
0000
0001
0000
0000
0010
0000
0000
0000
0000
0000
0000
,
0101
0000
0000
1000
0000
0000
0100
0000
0000
1000
0000
0000
0000
0000
0000
0000
,
0101
0000
0000
1000
0000
0000
0001
0000
0000
1000
0000
0000
0000
0000
0000
0000
,
1010
0000
1000
0010
0100
0001
0100
1000
,
0100
0000
0000
1000
0000
0000
1100
0000
0000
0000
0000
0000
0000
0000
0000
0000
,
0001
0000
0000
0010
0000
0000
0011
0000
0000
0000
0000
0000
0000
0000
0000
0000
,
0100
0000
0000
0001
0000
0000
0101
0000
0000
0000
0000
0000
0000
0000
0000
0000
,
1000
0000
0000
0010
0000
0000
1010
0000
0000
0000
0000
0000
0000
0000
0000
0000
,
0010
0000
0000
0100
0000
0000
0110
0000
0000
0000
0000
0000
0000
0000
0000
0000
,
1000
0000
0000
0100
0000
0000
1100
0000
0000
0000
0000
0000
0000
0000
0000
0000
,
0001
0000
0000
0010
0000
0000
0011
0000
0000
0000
0000
0000
0000
0000
0000
0000
,
0011
0000
0000
0011
0000
0000
0011
0000
0000
0000
0000
0000
0000
0000
0000
0000
,
0100
0000
0000
1000
0000
0000
0010
0000
0001
0000
1000
0000
0001
0000
0000
0000
,
0001
0000
0000
0010
0000
0000
1000
0000
0100
0000
0010
0000
0100
0000
0000
0000
,
1000
0000
0000
0010
0000
0000
0001
0000
0100
0000
0010
0000
0100
0000
0000
0000
,
0100
0000
0000
0001
0000
0000
0010
0000
1000
0000
0001
0000
1000
0000
0000
0000
,
0010
0000
0000
0100
0000
0000
0001
0000
1000
0000
0100
0000
1000
0000
0000
0000
,
1000
0000
0000
0001
0000
0000
0100
0000
0010
0000
0001
0000
0010
0000
0000
0000
,
0100
0000
0000
0001
0000
0000
1000
0000
0010
0000
0001
0000
0010
0000
0000
0000
,
0110
0000
0100
0001
0010
1000
0100
0000
,
0001
0000
0000
0010
0000
0000
0100
0000
0001
0000
0010
0000
1000
0000
0000
0000
,
0010
0000
0000
0001
0000
0000
1000
0000
0010
0000
0001
0000
0100
0000
0000
0000
,
1000
0000
0000
0100
0000
0000
0001
0000
0010
0000
1000
0000
0100
0000
0000
0000
,
1100
1100
0011
0011
,
0010
0000
0000
0001
0000
0000
1000
0000
0010
0000
0001
0000
0100
0000
0000
0000
,
0001
0000
0000
0010
0000
0000
0100
0000
0001
0000
0010
0000
1000
0000
0000
0000
,
0100
0000
0000
1000
0000
0000
0010
0000
0001
0000
0100
0000
1000
0000
0000
0000
,
1100
0000
0000
0000
1100
0000
0000
0000
0010
0000
0001
0000
0010
0100
0000
0000
;

//--------------- dance-single - Mad Guns22 ----------------
#NOTES:
     dance-single:
     Mad Guns22:
     Challenge:
     9:
     0.609,0.605,0.763,0.113,0.279:
0000
0000
0000
0000
,
0000
0000
0000
0000
,
0000
0000
0000
0000
,
0000
0000
0000
0000
,
1000
0000
0000
0100
0000
0000
0010
0000
0001
0010
0000
1000
0001
0000
0100
0000
,
0001
0000
0000
0010
0000
0000
0100
0000
1000
0100
0000
0001
1000
0000
0010
0000
,
0100
0000
0000
0010
0000
0000
0001
0000
1000
0001
0000
0100
1000
0000
0010
0000
,
1000
0000
0000
0001
0000
0000
0010
0000
0100
0010
0000
1000
0100
0000
0001
0000
,
1000
0000
0000
0010
0000
0000
0001
0000
0100
0001
0000
1000
0100
0000
0010
0000
,
1100
0000
0000
0011
0000
0000
0210
0000
0300
0000
0000
0000
0000
0000
0010
0000
,
0110
1000
0100
1000
0001
0010
0001
0100
,
0010
1000
0100
0010
0001
0010
0101
0000
,
0110
0001
0010
0001
1000
0100
1000
0010
,
0100
0001
0010
0100
1000
0100
1010
0000
,
0110
1000
0010
0100
1000
0001
1000
0010
,
0001
0100
0010
0001
1000
0001
1010
0000
,
0011
1000
0001
1000
0100
0010
1200
0000
,
0321
2031
3120
0132
,
1103
0000
0010
0000
0100
0000
0010
0000
0001
0000
0000
1000
0001
0000
0100
0000
,
1000
0010
0100
1000
0001
1000
0101
0000
,
1100
0000
0001
0000
1000
0000
0001
0000
0010
0000
0000
0100
0010
0000
1000
0000
,
0100
0001
1000
0100
0010
0100
1010
0000
,
1100
0000
0010
0000
1000
0000
0100
0000
0010
0000
0000
0001
0010
0000
1000
0000
,
0001
0100
1000
0001
0010
0001
1010
0000
,
1001
0010
0001
0010
0100
1000
0210
0000
,
2301
0000
3010
0100
0001
0100
1000
0010
,
0001
0000
0000
0010
0000
0000
0100
0000
1000
0000
0010
0000
1000
0000
0010
0000
,
1000
0000
0000
0100
0000
0000
0010
0000
0001
0000
0100
0000
0001
0000
0100
0000
,
0010
0000
0000
0100
0000
0000
1000
0000
0001
0000
0100
0000
0001
0000
0100
0000
,
0001
0000
0000
1000
0000
0000
0100
0000
0010
0000
1000
0000
0010
0000
1000
0000
,
0100
0000
0000
0001
0000
0000
1000
0000
0010
0000
0001
0000
0010
0000
0001
0000
,
0010
0000
0000
1000
0000
0000
0001
0000
0100
0000
1000
0000
0100
0000
1000
0000
,
0001
0000
0000
1000
0000
0000
0010
0000
0100
0000
1000
0000
0100
0000
1000
0000
,
0100
0000
0000
0010
0000
0000
1000
0000
0001
0000
0010
0000
0001
0000
0010
0000
,
1100
0000
0000
0011
0000
0000
1000
0000
0100
0000
0010
0000
0001
0000
1000
0000
,
0011
0000
0000
1100
0000
0000
0001
0000
0010
0000
0100
0000
1000
0000
0001
0000
,
0110
0000
0000
1001
0000
0000
0100
0000
0010
0000
0001
0000
1000
0000
0100
0000
,
1002
1003
1020
1030
,
0110
0000
0000
1001
0000
0000
0100
0000
0010
0000
0001
0000
1000
0000
0100
0000
,
1001
0000
0000
0110
0000
0000
1000
0000
0001
0000
0010
0000
0100
0000
1000
0000
,
0011
0000
0000
1100
0000
0000
0010
0000
0001
0000
1000
0000
0100
0000
0010
0000
,
2100
0000
3100
0000
0100
0010
0100
0000
,
1000
0000
0000
0100
0000
0000
0010
0000
0001
0010
0000
1000
0001
0000
0100
0000
,
0001
0000
0000
0010
0000
0000
0100
0000
1000
0100
0000
0001
1000
0000
0010
0000
,
0100
0000
0000
0010
0000
0000
0001
0000
1000
0001
0000
0100
1000
0000
0010
0000
,
1000
0001
1000
0001
0100
0010
0200
0300
,
0001
0000
0000
0010
0000
0000
0001
0000
0000
0010
0000
0000
0001
0000
0100
0000
,
1000
0000
0000
0100
0000
0000
1000
0000
0000
0100
0000
0000
1000
0000
0010
0000
,
0001
0000
0000
0100
0000
0000
0001
0000
0000
0100
0000
0000
0010
0000
0001
0000
,
0100
0000
0000
1000
0000
0000
0100
0000
0000
1000
0000
0000
0100
0000
1000
0000
,
0011
0000
0000
1000
0000
0000
0001
0000
0000
1000
0000
0000
0001
0000
0100
0000
,
0011
0000
0000
0100
0000
0000
0010
0000
0000
0100
0000
0000
0010
0000
1000
0000
,
0011
0000
0000
0100
0000
0000
0001
0000
0000
0100
0000
0000
1000
0000
0001
0000
,
1100
0000
0100
1000
0010
0001
0100
0010
,
0101
0000
0000
1010
0000
0000
0110
0000
0000
0000
0000
0000
0000
0000
0000
0000
,
0101
0000
0000
0110
0000
0000
1100
0000
0000
0000
0000
0000
0000
0000
0000
0000
,
0110
0000
0000
1001
0000
0000
0011
0000
0000
0000
0000
0000
0000
0000
0000
0000
,
0110
0000
0000
0101
0000
0000
1001
0000
0000
0000
0000
0000
0000
0000
0000
0000
,
1010
0000
0000
0101
0000
0000
0011
0000
0000
0000
0000
0000
0000
0000
0000
0000
,
0110
0000
0000
0011
0000
0000
0110
0000
0000
0000
0000
0000
0000
0000
0000
0000
,
0011
0000
0000
1100
0000
0000
1001
0000
0000
0000
0000
0000
0000
0000
0000
0000
,
1001
0000
0000
1010
0000
0000
1100
0000
0010
0001
0000
0100
0010
0000
1000
0000
,
0110
0000
0000
1001
0000
0000
0100
0000
0010
0000
0001
0000
1000
0000
0110
0000
,
1001
0000
0000
0110
0000
0000
1000
0000
0001
0000
0010
0000
0001
0000
1100
0000
,
0011
0000
0000
1100
0000
0000
0010
0000
0001
0000
1000
0000
0100
0000
0010
0000
,
2100
3100
0102
0103
,
0011
0000
0000
1100
0000
0000
0010
0000
0001
0000
1000
0000
0100
0000
0011
0000
,
1100
0000
0000
0011
0000
0000
0100
0000
1000
0000
0001
0000
1000
0000
0110
0000
,
1001
0000
0000
0110
0000
0000
0001
0000
1000
0000
0100
0000
0010
0000
0001
0000
,
0110
0000
1010
0100
0010
0001
0010
0000
,
0011
0000
0000
1100
0000
0000
0010
0000
0001
0000
1000
0000
0100
0000
0011
0000
,
1100
0000
0000
0011
0000
0000
0100
0000
1000
0000
0001
0000
1000
0000
0110
0000
,
1001
0000
0000
0110
0000
0000
0001
0000
1000
0000
0100
0000
0010
0000
0001
0000
,
0210
0310
2010
3010
,
1001
0000
0000
0110
0000
0000
0001
0000
1000
0000
0100
0000
0010
0000
1001
0000
,
0110
0000
0000
1001
0000
0000
0010
0000
0100
0000
1000
0000
0100
0000
0011
0000
,
1100
0000
0000
0011
0000
0000
1000
0000
0100
0000
0010
0000
0001
0000
1000
0000
,
0011
0000
0000
0000
0101
0000
0000
0000
0011
0000
1000
0000
0001
1000
0000
0000
;
