#TITLE:Fucking Society [Ummet Ozcat Mix];
#SUBTITLE:;
#ARTIST:Ellrich & Plaice;
#TITLETRANSLIT:;
#SUBTITLETRANSLIT:;
#ARTISTTRANSLIT:;
#GENRE:;
#CREDIT:Mad Guns22;
#MUSIC:Fucking Society [Ummet Ozcat Mix].mp3;
#BANNER:Project default banner.png;
#BACKGROUND:Project default background.png;
#CDTITLE:MadGuns22Icon.png;
#SAMPLESTART:91.724;
#SAMPLELENGTH:12.000;
#SELECTABLE:YES;
#OFFSET:-0.024;
#BPMS:0.000=136.000;
#STOPS:199.500=3.529;
#DISPLAYBPM:136.000;
#BGCHANGES:;
#FGCHANGES:;

//--------------- dance-single - Mad Guns22 ----------------
#NOTES:
     dance-single:
     Mad Guns22:
     Hard:
     8:
     0,0,0,0,0:
0000
0000
0000
0000
,
0000
0000
0000
0000
,
0000
0000
0000
0000
,
1000
0001
1000
0000
0100
0010
1000
0000
,
0001
0010
0001
0000
0100
1000
0010
0100
,
1000
0010
0100
0000
0001
0100
0010
0000
,
0001
0100
1000
0000
0001
0010
0100
0000
,
0100
0100
0010
0010
,
0002
0000
0000
0000
,
0200
0000
0000
0000
0000
0000
0303
0010
,
1000
0100
0000
0010
0001
0000
1000
0100
,
0001
0010
1000
0100
0010
0000
0000
0000
,
2000
0000
0000
0002
0000
0000
0000
3000
,
0020
0000
0003
2000
0000
0000
3030
0100
,
1000
0001
0010
0100
0010
0000
0100
0010
,
1000
0001
0010
0100
1000
0001
0000
0000
,
0200
0000
0000
0000
,
0020
0000
0000
0000
0000
0000
0000
0330
,
1100
0000
0000
0100
0000
0100
0000
0010
0000
0000
1000
0000
0001
0000
1000
0100
,
0010
0000
0000
0001
0000
0001
0000
0100
0000
0000
0100
0000
0010
0000
0001
0010
,
0001
0000
0000
0010
0000
0010
0000
0100
0000
0000
0001
0000
1000
0000
0001
0010
,
0100
0000
0000
1000
0000
1000
0000
0010
0000
0000
0010
0000
0100
0000
1000
0100
,
0001
0000
0000
1000
0000
1000
0000
0100
0000
0000
0001
0000
0010
0000
0001
1000
,
0100
0000
0000
0010
0000
0010
0000
1000
0000
0000
1000
0000
0100
0000
0010
0100
,
0010
0000
0000
0100
0000
0100
0000
1000
0000
0000
0010
0000
0001
0000
0010
0100
,
1000
0000
0000
0001
0000
0001
0000
0100
0000
0000
0100
0000
1000
0000
0010
0000
,
0001
0010
0000
0100
1000
0000
0001
0010
,
1000
0100
0001
0010
0100
0000
0000
0010
,
0001
1000
0100
0010
0100
0000
0100
0001
,
1000
0100
0010
0001
1000
0010
0000
1000
,
0100
0010
0100
0010
0000
0000
0000
0001
,
0010
0100
0010
0100
1000
0001
0000
0100
,
0010
1000
0001
0010
0100
0000
0000
0001
,
1000
0100
0010
0001
0010
0200
0000
0300
,
0020
0000
0000
0000
,
0230
0000
0000
0000
,
0302
0000
0000
0000
,
0023
0000
0000
0000
,
2030
0000
0000
0000
,
3200
0000
0000
0000
,
0302
0000
0000
0000
,
2003
0000
0000
0000
,
3020
0001
0100
0001
,
0230
0001
0010
0001
,
0320
1000
0100
1000
,
0230
0001
0010
0001
,
0320
1000
0100
1000
,
0230
1000
0001
1000
,
0302
0010
0100
0010
,
0203
0000
0000
0000
0000
0000
0000
0000
0000
0000
0000
0000
0000
0000
0000
0000
0000
0000
0000
0000
0000
0000
0000
0000
0000
0000
0000
0000
0000
0000
0000
0000
0000
0000
0000
0000
0000
0000
0000
0000
0000
0000
0000
0000
0000
0000
0000
0000
0010
0000
0000
0000
0000
0000
0000
0000
0000
0000
0000
0000
0000
0000
0000
0000
0000
0000
0000
0000
0000
0000
0000
0000
0000
0000
0000
0000
0000
0000
0000
0000
0000
0000
0000
0000
0000
0000
0000
0000
0000
0000
0000
0000
0000
0000
0000
0000
0001
0000
0000
0000
0000
0000
0000
0000
0000
0000
0000
0000
0000
0000
0000
0000
0000
0000
0000
0000
0000
0000
0000
0000
0000
0000
0000
0000
0000
0000
0000
0000
0000
0000
0000
0000
0000
0000
0000
0000
0000
0000
0000
0000
0000
0000
0000
0000
1000
0000
0000
0000
0000
0000
0000
0000
0000
0000
0000
0000
0000
0000
0000
0000
0000
0000
0000
0000
0000
0000
0000
0000
0000
0300
0000
0000
0000
0000
0000
0000
0000
0000
0000
0000
0000
0000
0000
0000
0000
0000
0000
0000
0000
0000
0000
0000
,
0110
0000
0000
0010
0000
0010
0000
0100
0000
0000
0001
0000
1000
0000
0001
0010
,
0100
0000
0000
1000
0000
1000
0000
0010
0000
0000
0010
0000
0100
0000
1000
0100
,
1000
0000
0000
0100
0000
0100
0000
0010
0000
0000
1000
0000
0001
0000
1000
0100
,
0010
0000
0000
0001
0000
0001
0000
0100
0000
0000
0100
0000
0010
0000
0001
0010
,
1000
0000
0000
0001
0000
0001
0000
0010
0000
0000
1000
0000
0100
0000
1000
0001
,
0010
0000
0000
0100
0000
0100
0000
0001
0000
0000
0001
0000
0010
0000
0100
0010
,
0100
0000
0000
0010
0000
0010
0000
0001
0000
0000
0100
0000
1000
0000
0100
0010
,
0001
0000
0000
1000
0000
1000
0000
0010
0000
0000
0010
0000
0001
0000
0100
0000
,
1001
0000
0000
0100
0000
0100
0000
1000
0000
0000
0010
0000
0001
0000
0010
0100
,
1000
0000
0000
0001
0000
0001
0000
0100
0000
0000
0100
0000
1000
0000
0001
1000
,
0001
0000
0000
1000
0000
1000
0000
0100
0000
0000
0001
0000
0010
0000
0001
1000
,
0100
0000
0000
0010
0000
0010
0000
1000
0000
0000
1000
0000
0100
0000
0010
0100
,
0001
0000
0000
0010
0000
0010
0000
0100
0000
0000
0001
0000
1000
0000
0001
0010
,
0100
0000
0000
1000
0000
1000
0000
0010
0000
0000
0010
0000
0100
0000
1000
0100
,
1000
0000
0000
0100
0000
0100
0000
0010
0000
0000
1000
0000
0001
0000
1000
0100
,
0010
0000
0000
0001
0000
0001
0000
0100
0000
0000
0100
0000
0010
0000
0000
0000
,
0001
0000
0010
0000
0001
1000
0010
0100
,
1000
0000
0100
0000
1000
0001
0100
0010
,
0001
0000
1000
0000
0001
0100
1000
0010
,
0100
0000
0010
0000
0100
0001
0010
1000
,
0001
0010
0001
0000
0100
0010
0100
0000
,
1000
0100
1000
0000
0001
0010
0001
0000
,
0100
0010
0100
1000
0100
0010
0001
0010
,
0002
0000
0000
0203
0000
0000
2300
0000
0000
3020
0000
0000
0230
0000
0302
0003
,
2020
0000
0000
0000
,
0000
0000
0000
0000
,
3030
0000
0000
0000
;
