#TITLE:Forbidden Paradise [Deep Trance Mix];
#SUBTITLE:;
#ARTIST:Tiesto;
#TITLETRANSLIT:;
#SUBTITLETRANSLIT:;
#ARTISTTRANSLIT:;
#GENRE:Trance;
#CREDIT:Mad Guns22;
#MUSIC:Forbidden Paradise [Deep Trance Mix].mp3;
#BANNER:Project default banner.png;
#BACKGROUND:Project default background.png;
#CDTITLE:MadGuns22Icon.png;
#SAMPLESTART:121.690;
#SAMPLELENGTH:12.000;
#SELECTABLE:YES;
#OFFSET:-0.025;
#BPMS:0.000=142.000
,255.000=284.004
,257.000=142.002
,258.000=142.000
;
#STOPS:;
#DISPLAYBPM:142.000;
#BGCHANGES:;
#FGCHANGES:;

//--------------- dance-single - Mad Guns22 ----------------
#NOTES:
     dance-single:
     Mad Guns22:
     Challenge:
     11:
     0.886,1,0.302,0.037,0.977:
0000
0000
0000
0000
,
0000
0000
0000
0000
,
0000
0000
0000
0000
,
0000
0000
0000
0000
,
1000
0100
1000
0100
1000
0000
0000
0100
0000
0010
0100
0000
0010
0000
0000
0000
,
0001
0010
0001
0010
0001
0000
0000
0010
0000
0100
0010
0000
0100
0000
0000
0000
,
0001
0010
0001
0010
0001
0000
0000
0010
0000
1000
0010
0000
1000
0000
0000
0000
,
0100
1000
0100
1000
0100
0000
0000
1000
0000
0010
1000
0000
0010
0000
0000
0000
,
1100
0001
0100
0001
0100
0000
0000
0100
0000
1000
0100
0000
0010
0000
0010
0000
,
0001
1000
0010
1000
0010
0000
0000
0010
0000
0001
0010
0000
0100
0000
0100
0000
,
0010
0001
1000
0001
1000
0000
0000
1000
0000
0100
1000
0000
0010
0000
0010
0000
,
0001
0100
0010
0100
0010
0000
0000
0010
0000
0001
0010
0000
1000
0000
1000
0000
,
0010
0001
1000
0001
1000
0000
0000
1000
0000
0100
1000
0000
0010
0000
0010
0000
,
0001
0100
0010
0100
0010
0000
0000
0010
0000
0001
0010
0000
1000
0000
1000
0000
,
0001
0100
0010
0001
1000
0001
1000
0001
,
1000
0001
1000
0001
1000
0001
1000
0001
1000
0001
1000
0001
1000
0001
1000
0001
,
1001
0010
0001
1000
0100
1000
0001
0100
,
0001
0010
0100
1000
0001
0010
0100
0010
,
0001
1000
0100
1000
0001
0100
0010
1000
,
0100
0010
0001
0010
0100
0010
0001
1000
,
0010
0100
0010
1000
0010
0001
0010
1000
,
0010
0001
1000
0100
1000
0001
0010
0100
,
0010
1000
0100
1000
0001
1000
0010
1000
,
0100
0000
0010
0000
0100
0000
1000
0000
0001
0000
0100
0000
0001
1000
0001
1000
,
0001
0010
0001
0010
0001
0000
0000
0010
0000
0100
0010
0000
0100
0000
0100
0000
,
1000
0100
1000
0100
1000
0000
0000
0100
0000
0010
0100
0000
0010
0000
0010
0000
,
1000
0100
1000
0100
1000
0000
0000
0100
0000
0001
0100
0000
0001
0000
0001
0000
,
0010
0001
0010
0001
0010
0000
0000
0001
0000
0100
0001
0000
0100
0000
0100
0000
,
0100
1000
0100
1000
0100
0000
0000
1000
0000
0010
1000
0000
0010
0000
0010
0000
,
0001
0010
0001
0010
0001
0000
0000
0010
0000
1000
0010
0000
1000
0000
1000
0000
,
0001
0010
0001
0010
0001
0000
0000
0010
0000
0100
0010
0000
0100
0000
0100
0000
,
1000
0100
1000
0100
1000
0100
1000
0100
1000
0100
1000
0100
1000
0100
1000
0100
,
0011
0001
0011
0010
0011
0001
0011
0010
,
0110
0100
0110
0010
0110
0100
0110
0010
,
1010
1000
1010
0010
1010
1000
1010
0010
,
0011
0000
0001
0000
0011
0000
0010
0000
0011
0000
0001
0000
0011
0000
0010
0100
,
0010
1000
1001
0001
1001
1000
1001
0001
,
0011
0010
0011
0001
0011
0010
0011
0001
,
1001
1000
1001
0001
1001
1000
1001
0001
,
0001
0010
0100
1000
0001
0010
0100
1000
0001
0010
0100
1000
0001
0010
0100
1000
,
0022
0000
M000
0M00
M000
0M00
0M00
M000
,
0M00
M000
M000
0M00
0M00
M000
M000
0M00
,
M030
0M00
M000
00M0
0M00
00M0
M000
0M00
,
00M0
00M0
0M00
00M0
M000
0M00
00M0
M000
,
0103
0010
0100
1000
0100
0010
0001
0010
0100
0010
0001
0010
0100
1000
0100
1000
,
0010
1000
0001
1000
0010
1000
0100
1000
0001
0010
0100
1000
0100
0010
1000
0100
,
0010
0001
0010
0100
1000
0100
0010
0100
1000
0001
0010
1000
0001
1000
0001
1000
,
0010
1000
0100
1000
0010
0001
0010
0100
0001
0010
0100
1000
0100
0010
0001
0100
,
0010
0001
0010
0100
1000
0001
0010
0100
0010
0001
0100
0010
0001
0010
0100
1000
,
0010
0100
1000
0100
0010
0001
1000
0100
0010
0100
1000
0000
0100
0000
0010
0000
,
0100
1000
0100
0010
0100
1000
0100
0001
,
0100
0001
1000
0100
0010
0100
1000
0100
,
0001
0010
0100
0010
0001
1000
0100
0010
0001
1000
0100
0010
0001
1000
0100
0010
,
0100
1000
0001
0010
0100
0010
0001
0100
1000
0001
0010
0100
1000
0001
0010
1000
,
0100
0001
0010
0100
1000
0100
0010
1000
0001
0100
0010
0001
1000
0100
1000
0001
,
0010
0001
0010
0100
1000
0010
0001
0010
0100
1000
0001
0010
0001
1000
0100
1000
,
0101
0010
0100
1000
0100
0010
1000
0100
0001
0010
0100
1000
0100
0010
1000
0100
,
0010
0001
1000
0100
1000
0100
0010
0001
1000
0100
1000
0100
1000
0100
0010
0001
,
1010
0100
1000
0001
1000
0010
1000
0100
1000
0001
1000
0010
1000
0100
1000
0001
,
1000
0100
0010
0001
0010
0100
1000
0100
0010
0100
1000
0001
0010
1000
0100
0010
,
0101
1000
0001
0100
0001
1000
0001
0010
0001
0100
0001
0010
0001
1000
0001
0100
,
1001
0010
1000
0100
1000
0010
1000
0001
1000
0100
1000
0001
1000
0010
1000
0100
,
1001
0010
0001
0100
0001
0010
0001
0100
1001
0010
1000
0001
1000
0100
1000
0010
,
1001
0000
0101
0000
1100
00M0
2M02
0M00
,
00M0
3003
1001
0010
0100
0010
0001
0010
,
0100
0000
1000
0000
1000
0100
1000
0100
1000
0000
0001
0000
0100
0000
0010
0000
,
0001
0000
1000
0000
0100
0010
0100
0010
0100
0000
1000
0000
0010
0000
0001
0000
,
0100
0000
0010
0000
0001
0010
0001
0010
0001
0000
0010
0000
1000
0000
0001
0000
,
1000
0000
0100
0000
0010
0100
0010
0100
0010
0000
1000
0000
0100
0000
1000
0000
,
0010
0000
0001
0000
1000
0010
1000
0010
1000
0000
0100
0000
0010
0000
0100
0000
,
0001
0000
0010
0000
1000
0001
1000
0001
1000
0000
0100
0000
0010
0000
1000
0000
,
0100
0000
0001
0000
1000
0100
0000
0010
0100
0000
1000
0100
0000
0010
0100
0010
,
0100
0010
0100
0010
0100
0001
0100
0001
0100
0000
0100
0000
0001
0000
0100
0000
,
1000
0000
0010
0000
0010
1000
0010
1000
0010
0000
0001
0000
1000
0000
0100
0000
,
0001
0000
0010
0000
1000
0100
1000
0100
1000
0000
0010
0000
0100
0000
0001
0000
,
1000
0000
0100
0000
0001
0100
0001
0100
0001
0000
0100
0000
0010
0000
0001
0000
,
0010
0000
1000
0000
0100
1000
0100
1000
0100
0000
0010
0000
1000
0000
0010
0000
,
0100
0000
0001
0000
0010
0100
0010
0100
0010
0000
1000
0000
0100
0000
1000
0000
,
0001
0000
0100
0000
0010
0001
0010
0001
0010
0000
1000
0000
0100
0000
0010
0000
,
1000
0000
0001
0000
1000
0100
1000
0100
1000
0000
0010
0000
0000
0100
0000
0010
,
0002
0000
0003
0000
;
