#TITLE:For An Angel 2011 [Party & Stylez Remix];
#SUBTITLE:;
#ARTIST:Paul van Dyk;
#TITLETRANSLIT:;
#SUBTITLETRANSLIT:;
#ARTISTTRANSLIT:;
#GENRE:Trance;
#CREDIT:Mad Guns22;
#MUSIC:For An Angel 2011 [Party & Stylez Remix].mp3;
#BANNER:Project default banner.png;
#BACKGROUND:Project default background.png;
#CDTITLE:MadGuns22Icon.png;
#SAMPLESTART:59.076;
#SAMPLELENGTH:12.000;
#SELECTABLE:YES;
#OFFSET:-0.049;
#BPMS:0.000=130.000;
#STOPS:;
#DISPLAYBPM:130.000;
#BGCHANGES:;
#FGCHANGES:;

//--------------- dance-single - Mad Guns22 ----------------
#NOTES:
     dance-single:
     Mad Guns22:
     Challenge:
     11:
     0,0,0,0,0:
0000
0000
0000
0000
,
0000
0000
0000
0000
,
0000
0000
0000
0000
,
0000
0000
0000
0000
,
1000
0000
0000
0000
1000
0000
0000
0100
0000
0000
0010
0000
0000
0000
0100
0000
,
0010
0000
0000
0000
0010
0000
0000
0100
0000
0000
1000
0000
0000
0000
0001
0000
,
1000
0000
0000
0000
1000
0000
0000
0010
0000
0000
0100
0000
0000
0000
0001
0000
,
1000
0000
0000
0000
1000
0000
0000
0001
0000
0000
0010
0000
0000
0000
0100
0000
,
0001
0000
0000
0000
0001
0000
0000
0010
0000
0000
0100
0000
1000
0000
0010
0000
,
0100
0000
0000
0000
0100
0000
0000
0010
0000
0000
0001
0000
0010
0000
1000
0000
,
0001
0000
0000
0000
0001
0000
0000
0100
0000
0000
0010
0000
0100
0000
1000
0000
,
0001
0000
0000
0000
0001
0000
0000
1000
0000
0000
0100
0000
0001
0000
0010
0000
,
1000
0000
0000
0000
1000
0000
0000
0100
0000
0000
0001
0000
0010
0000
0100
0000
,
0001
0000
0000
0000
0001
0000
0000
0100
0000
0000
1000
0000
0100
0000
0010
0000
,
1000
0010
1000
0000
0001
0100
0001
0010
,
1000
0001
1000
0001
1000
0100
0010
0001
,
1001
0000
0000
0000
1001
0000
0000
0001
0000
0000
1000
0000
0000
0000
0110
0000
,
0011
0000
0000
0000
0011
0000
0000
0001
0000
0000
0010
0000
0000
0000
0101
0000
,
1100
0000
0000
0000
1100
0000
0000
0100
0000
0000
1000
0000
0000
0000
1001
0000
,
0101
0000
0000
0000
0101
0000
0000
0001
0000
0000
0100
0000
0000
0000
0110
0000
,
1001
0000
0000
0000
1001
0000
0000
1000
0000
0000
0001
0000
0000
0000
0110
0000
,
1100
0000
0000
0000
1100
0000
0000
1000
0000
0000
0100
0000
0000
0000
1010
0000
,
0011
0000
0000
0000
0011
0000
0000
0010
0000
0000
0001
0000
0000
0000
1001
0000
,
1010
0000
0000
0000
1010
0000
0000
1000
0000
0000
0010
0000
0000
0000
0110
0000
,
1001
0000
0000
0000
1001
0000
0000
0110
0000
0000
0110
0000
0000
0000
0110
0000
,
1100
0000
0000
0000
1100
0000
0000
1010
0000
0000
1010
0000
0000
0000
1010
0000
,
1001
0000
0000
0000
1001
0000
0000
0110
0000
0000
0110
0000
0000
0000
0110
0000
,
0011
0000
0000
0000
0011
0000
0000
0101
0000
0000
0101
0000
0000
0000
0101
0000
,
0001
0000
1000
0000
0001
0000
1000
0100
0000
0010
0100
0000
0010
0000
0100
0000
,
1000
0000
0001
0000
1000
0000
0001
0010
0000
0100
0010
0000
0100
0000
0010
0000
,
0100
0000
0001
0000
0100
0000
0001
1000
0000
0010
1000
0000
0020
0000
0030
0000
,
0010
0100
0010
0100
0010
0100
0010
0100
0010
1000
0010
1000
0020
0000
0000
0030
,
0001
0100
0001
0100
0001
0100
0001
0100
0001
0100
0001
0100
0002
0000
0000
0003
,
1000
0100
1000
0100
1000
0100
1000
0001
1000
0001
1000
0001
2000
0000
0000
3000
,
0010
0100
0010
0100
0010
0100
0010
0100
0001
0100
0001
0100
0002
0000
0000
0003
,
1000
0100
1000
0100
1000
0100
1000
0001
1000
0001
1000
0001
1000
0001
1000
0001
,
0010
0001
0010
0001
0010
0001
0010
0001
0010
0001
0010
0001
0020
0000
0000
0030
,
0010
0100
0010
0100
0010
0100
0010
0100
0001
0100
0001
0100
0002
0000
0000
0003
,
0001
1000
0001
1000
0001
1000
0001
0010
0001
0010
0001
0010
0002
0000
0000
0003
,
0010
0100
0010
0100
0010
0100
0010
1000
0001
1000
0001
1000
0001
1000
0001
1000
,
0001
0010
0001
0010
0001
0010
0001
1000
0001
1000
0001
1000
0002
0000
0000
0003
,
1000
0010
1000
0010
1000
0010
1000
0001
1000
0001
1000
0001
2000
0000
0000
3000
,
0010
1000
0010
1000
0010
1000
0010
0100
0010
0100
0010
0100
0020
0000
0000
0030
,
0100
1000
0100
1000
0100
1000
0100
0010
0100
0010
0100
0010
0100
0010
0100
0010
,
0001
0010
0001
0010
0001
0010
0001
1000
0001
1000
0001
1000
0002
0000
0000
0003
,
1000
0010
1000
0010
1000
0010
1000
0001
1000
0001
1000
0001
2000
0000
0000
3000
,
0010
1000
0010
1000
0010
1000
0010
0100
0010
0100
0010
0100
0020
0000
0000
0030
,
0100
1000
0001
1000
0100
1000
0100
0010
0001
1000
0100
0010
,
0004
0100
0000
0100
0000
0100
0003
0100
0001
0100
0001
0100
0002
0000
0000
0003
,
1000
0100
1000
0100
1000
0100
1000
0001
1000
0001
1000
0001
2000
0000
0000
3000
,
0010
0100
0010
0100
0010
0100
0010
0100
0001
0100
0001
0100
0002
0000
0000
0003
,
1000
0100
1000
0100
1000
0100
1000
0001
1000
0001
1000
0001
1000
0001
1000
0001
,
0010
0001
0010
0001
0010
0001
0010
0001
0010
0001
0010
0001
0020
0000
0000
0030
,
0010
0100
0010
0100
0010
0100
0010
0100
0001
0100
0001
0100
0002
0000
0000
0003
,
0001
1000
0001
1000
0001
1000
0001
0010
0001
0010
0001
0010
0002
0000
0000
0003
,
0010
0100
0010
0100
0010
0100
0010
1000
0001
1000
0001
1000
0001
1000
0001
1000
,
0001
0010
0001
0010
0001
0010
0001
1000
0001
1000
0001
1000
0002
0000
0000
0003
,
1000
0010
1000
0010
1000
0010
1000
0001
1000
0001
1000
0001
2000
0000
0000
3000
,
0010
1000
0010
1000
0010
1000
0010
0100
0010
0100
0010
0100
0020
0000
0000
0030
,
0100
1000
0100
1000
0100
1000
0100
0010
0100
0010
0100
0010
0100
0010
0100
0010
,
0001
0010
0001
0010
0001
0010
0001
1000
0001
1000
0001
1000
0002
0000
0000
0003
,
1000
0010
1000
0010
1000
0010
1000
0001
1000
0001
1000
0001
2000
0000
0000
3000
,
0010
1000
0010
1000
0010
1000
0010
0100
0010
0100
0010
0100
0020
0000
0000
0030
,
1000
0010
0100
0010
1000
0010
1000
0001
0100
0010
1000
0001
,
1000
0100
1000
0001
1000
0100
1000
0001
,
0001
0100
0001
1000
0001
0100
0001
1000
,
0010
0100
0010
1000
0010
0100
0010
1000
,
1000
0001
1000
0100
1000
0001
1000
0100
,
0001
0010
0001
1000
0001
0010
0001
1000
,
1000
0010
1000
0001
1000
0010
1000
0001
,
0100
0010
0100
0001
0100
0010
0100
0001
,
0001
1000
0001
0010
0001
1000
0001
0010
,
1000
0100
0001
0000
0001
1000
0001
0000
,
0001
0100
1000
0000
1000
0001
1000
0000
,
1000
0010
0100
0000
0001
0010
0001
0000
,
0001
0100
0010
0000
0001
0100
0001
0000
,
0010
0001
1000
0000
1000
0010
1000
0000
,
1000
0001
0010
0000
0010
1000
0010
0000
,
0010
0100
0001
0000
1000
0100
1000
0000
,
1000
0001
0100
0000
1000
0001
1000
0000
,
2002
0000
3003
0000
;
