#TITLE:Eclipse;
#SUBTITLE:;
#ARTIST:Asgra;
#TITLETRANSLIT:;
#SUBTITLETRANSLIT:;
#ARTISTTRANSLIT:;
#GENRE:Tech Trance;
#CREDIT:Mad Guns22;
#MUSIC:Eclipse.mp3;
#BANNER:Project default banner.png;
#BACKGROUND:Project default background.png;
#CDTITLE:MadGuns22Icon.png;
#SAMPLESTART:27.580;
#SAMPLELENGTH:12.000;
#SELECTABLE:YES;
#OFFSET:-0.243;
#BPMS:0.000=140.000
,160.000=70.000
,164.000=140.000
;
#STOPS:160.000=3.429;
#DISPLAYBPM:140.000;
#BGCHANGES:;
#FGCHANGES:;

//--------------- dance-single - Mad Guns22 ----------------
#NOTES:
     dance-single:
     Mad Guns22:
     Challenge:
     10:
     1,1,1,0.116,0.604:
0000
0000
0000
0000
,
0000
0000
0000
0000
,
0000
0000
0000
0000
,
0000
0000
0000
0000
,
1000
0100
0010
0100
0001
0010
0100
0010
,
1000
0001
0010
0100
0001
1000
0100
0010
,
0001
0010
0100
0010
1000
0100
0010
0100
,
0001
1000
0100
0010
1000
0001
0010
0100
,
0011
1000
0100
0010
0100
1000
0102
0000
,
0103
0010
0001
0100
1010
0000
0010
0100
,
1001
0010
0100
1000
0120
0000
1030
0000
,
1100
0001
0010
0100
1010
0000
1000
0100
,
0011
0100
1000
0010
0102
0000
0103
0000
,
1010
0100
0010
0001
0110
0000
0001
0010
,
1100
0001
0010
0100
0012
0000
0103
0000
,
0101
0010
0100
0001
1100
0010
0100
0010
,
1000
0100
1000
0010
1000
0001
1000
0010
,
1000
0100
1000
0010
1000
0001
1000
0100
,
0010
0001
0100
0001
1000
0001
0100
0001
,
0010
0001
0100
0001
0010
0001
0100
0001
,
0010
1000
0010
0100
0010
0001
0010
0100
,
0010
1000
0010
0100
0010
0001
0010
1000
,
0100
0001
1000
0001
0010
0001
1000
0001
,
0100
0001
1000
0001
0100
0001
1000
0001
,
1100
0000
0000
0011
0000
0000
0110
0000
0100
0000
1000
0000
0001
0000
0100
0000
,
0011
0000
0000
1100
0000
0000
0110
0000
1000
0000
0100
0000
1000
0000
0001
0000
,
1010
0000
0000
0101
0000
0000
1100
0000
1000
0000
0010
0000
0001
0000
1000
0000
,
0101
0000
0000
1010
0000
0000
1100
0000
0010
0000
1000
0000
0010
0000
0001
0000
,
1010
0000
0000
0101
0000
0000
1001
0000
1000
0000
0010
0000
0100
0000
1000
0000
,
0101
0000
0000
1010
0000
0000
1001
0000
0010
0000
1000
0000
0010
0000
0100
0000
,
0011
0000
0000
1100
0000
0000
1010
0000
0010
0000
0001
0000
0100
0000
0010
0000
,
1100
0000
0000
0011
0000
0000
1010
0000
0001
0000
0010
0000
0001
1000
0001
1000
,
0010
0000
0000
0010
0000
0000
0010
0000
0000
0010
0000
0000
0010
0001
0010
0000
,
0100
0000
0000
0100
0000
0000
0100
0000
0000
0100
0000
0000
0100
0000
0100
0000
,
0001
0000
0000
0001
0000
0000
0001
0000
0000
0001
0000
0000
0001
1000
0001
0000
,
1000
0000
0000
1000
0000
0000
1000
0000
0000
1000
0000
0000
1000
0000
1000
0000
,
0010
0001
0010
0001
0010
0001
0000
0000
1000
0001
1000
0001
1000
0001
0000
0000
,
0010
1000
0010
1000
0010
1000
0000
0000
0100
0010
0100
0010
0100
0010
0000
0000
,
1000
0100
1000
0000
0001
0010
0001
0000
1000
0100
1000
0000
0001
0010
0001
0000
,
1000
0100
0010
0001
1000
0100
0010
0001
1000
0100
0010
0001
1000
0100
0010
0001
,
2000
0000
0000
3000
0110
0011
1100
0110
,
1100
0011
0110
1100
,
0110
0000
0000
0000
1001
0000
0000
0000
0110
0000
0000
1000
0000
0000
1000
0000
,
0011
0101
1100
1010
,
0110
0000
0000
0000
0011
0000
1000
0100
0001
0010
1000
0100
0001
0010
0100
0001
,
1100
0011
1010
1100
,
1010
0000
0000
0000
0101
0000
0000
0000
1010
0000
0000
0100
0000
0000
0100
0000
,
0011
1001
1100
0110
,
1010
0000
0000
0000
0011
0000
0100
1000
0001
0010
0100
1000
0001
0010
1000
0001
,
1000
0010
0101
0000
1001
0000
1000
0010
,
1001
0000
0000
0000
0110
0000
0000
0000
1001
0000
0000
0010
0000
0000
0010
0000
,
0001
0100
1100
0000
1010
0000
0010
0001
,
1001
0000
0000
0000
0101
0000
0010
1000
0100
0001
0010
1000
0100
0001
1000
0100
,
1000
0010
0101
0000
0011
0000
1000
0010
,
0011
0000
0000
0000
1100
0000
0000
0000
0011
0000
0000
1000
0000
0000
1000
0000
,
0001
0100
0110
0000
1000
0010
1001
0000
,
0001
0000
0010
0000
0101
0000
1000
0010
0100
0001
1000
0010
0100
0001
0010
0100
,
1000
0000
0010
0000
0100
0010
0100
0000
0001
0000
1000
0000
0000
0000
1000
0000
,
0001
0000
0100
0000
0010
0100
0010
0000
1000
0000
0001
0000
0000
0000
0001
0000
,
0010
0000
0100
0000
0001
0100
0001
0000
1000
0000
0010
0000
0000
0000
0010
0000
,
1000
0000
0001
0000
0100
0001
0100
0000
0010
0000
1000
0000
0000
0000
1000
0000
,
0001
0000
0100
0000
0010
0100
0010
0000
1000
0000
0001
0000
0000
0000
0001
0000
,
1000
0000
0010
0000
0100
0010
0100
0000
0001
0000
1000
0000
0000
0000
1000
0000
,
0100
0000
0010
0000
1000
0010
1000
0000
0001
0000
0100
0000
0000
0000
0100
0000
,
0001
0000
1000
0000
0010
1000
0010
0000
0100
0000
0001
0000
0000
0000
0001
0000
,
0010
0000
0100
0000
0001
0100
0001
0000
1000
0000
0010
0000
0000
0000
0010
0000
,
1000
0000
0001
0000
0100
0001
0100
0000
0010
0000
1000
0000
0000
0000
1000
0000
,
0100
0000
0001
0000
1000
0001
1000
0000
0010
0000
0100
0000
0000
0000
0100
0000
,
0010
0000
1000
0000
0001
1000
0001
0000
0100
0000
0010
0000
0000
0000
0010
0000
,
1000
0000
0001
0000
0100
0001
0100
0000
0010
0000
1000
0000
0000
0000
1000
0000
,
0010
0000
0100
0000
0001
0100
0001
0000
1000
0000
0010
0000
0000
0000
0010
0000
,
0001
0000
0100
0000
0010
0100
0010
0000
1000
0000
0001
0000
0000
0000
0001
0000
,
1100
0010
1100
0100
0011
0000
2000
3000
,
0001
0010
0001
0100
0001
0010
0001
0000
,
1000
0100
1000
0010
1000
0001
0100
0000
,
1000
0100
1000
0010
1000
0100
1000
0000
,
0001
0010
0001
0100
0001
1000
0010
0000
,
1000
0100
1000
0000
0001
0010
0001
0000
,
0010
0100
0010
0000
1000
0010
1000
0000
,
0001
0100
0010
0000
0100
1000
0001
0000
,
0100
0101
0010
1001
,
0220
0330
0000
0000
;
