#TITLE:Dreamcatcher;
#SUBTITLE:;
#ARTIST:Nitrous Oxide;
#TITLETRANSLIT:;
#SUBTITLETRANSLIT:;
#ARTISTTRANSLIT:;
#GENRE:Trance;
#CREDIT:Mad Guns22;
#MUSIC:Dreamcatcher.mp3;
#BANNER:Dreamcatcher.png;
#BACKGROUND:Dreamcatcher-bg.png;
#CDTITLE:MadGuns22Icon.png;
#SAMPLESTART:70.072;
#SAMPLELENGTH:12.000;
#SELECTABLE:YES;
#OFFSET:-0.020;
#BPMS:0.000=68.500
,16.000=137.000
,240.000=68.500
,256.000=137.000
;
#STOPS:;
#BGCHANGES:;
#FGCHANGES:;

//--------------- dance-single - Mad Guns22 ----------------
#NOTES:
     dance-single:
     Mad Guns22:
     Hard:
     8:
     0.473,0.786,0.055,0.143,0.242:
0000
0000
0000
0000
,
0000
0000
0000
1000
0000
0000
1000
0000
0000
0000
0000
0001
0000
0000
0001
0000
0000
0000
0000
0010
0000
0000
0010
0000
0000
0000
1000
0001
0000
0100
1000
0000
,
0000
0000
0000
0001
0000
0000
0001
0000
0000
0000
0000
0100
0000
0000
0100
0000
0000
0000
0000
0010
0000
0000
0010
0000
0000
0000
0000
1000
0000
0000
1000
0000
,
0000
0000
0000
0010
0000
0000
0010
0000
0000
0000
0000
0001
0000
0000
0001
0000
0000
0000
0000
0100
0000
0000
0010
0000
0000
0000
0001
1000
0000
0010
0001
0000
,
1100
0010
0100
0010
1000
0010
0100
0100
,
0010
0001
0100
0001
0010
0001
1000
1000
,
0100
0001
1000
0001
0100
0001
1000
1000
,
0001
0010
1000
0010
0001
0010
0100
1000
,
0001
0010
0001
0100
0001
0010
0001
0100
,
1000
0001
1000
0010
1000
0100
1000
0010
,
0001
1000
0001
0100
0001
1000
0001
0010
,
1000
0100
1000
0001
1000
0100
1000
1000
,
0101
0010
1000
0010
0001
0010
0100
0010
,
0100
0001
0100
0010
0100
1000
0100
0001
,
1000
0001
0100
0001
1000
0001
0010
0001
,
0010
0100
0010
0001
0010
0100
0010
1000
,
0010
0001
0100
0001
0010
0001
1000
0001
,
1000
0010
1000
0001
1000
0100
1000
0010
,
0100
0010
1000
0010
0100
0010
0001
0010
,
0002
0000
0000
0100
0000
0000
0010
0000
0000
0100
0000
0003
,
2000
0000
0000
0000
,
0000
0000
0000
0010
0000
0000
0010
0000
0000
0000
0000
0001
0000
0000
0001
0000
,
3000
0000
0000
0001
0000
0000
0001
0000
0000
0000
0000
0100
0000
0000
0100
0000
,
0000
0000
0000
0010
0000
0000
0010
0000
0000
0000
0000
0010
0000
0000
0100
0000
,
0000
0000
0000
1000
0000
0000
1000
0000
0000
0000
0000
0100
0000
0000
0100
0000
,
0000
0000
0000
0001
0000
0000
0001
0000
0000
0000
0000
0010
0000
0000
0010
0000
,
0000
0000
0000
0010
0000
0000
0010
0000
0000
0000
0000
1000
0000
0000
1000
0000
,
0000
0000
0000
0001
0000
0000
0001
0000
0000
0000
0000
0001
0000
0000
1000
0000
,
0001
0000
0001
1000
0000
1000
0100
0000
,
0010
0001
0000
0010
0100
0000
0011
0000
,
0010
0000
0010
0100
0000
0100
1000
0000
,
0001
0010
0000
0001
1000
0000
0011
0000
,
0010
0100
0010
0100
0010
0100
0010
0100
,
0010
1000
0010
1000
0010
1000
0010
0100
,
0100
0010
0100
0010
0100
0010
0100
0010
0100
0010
0100
0010
0100
0010
0100
0010
,
0100
0010
0100
0010
0100
1000
0100
0010
0004
4000
0000
0000
0000
0003
3000
0000
,
1100
0010
0100
0001
0100
0010
0100
1000
,
0001
0100
0001
0010
0001
0100
0001
1000
,
0010
0100
0010
1000
0010
0100
0010
0001
,
1000
0010
1000
0100
1000
0010
1000
0001
,
1000
0010
0001
0100
0001
0100
1000
0010
,
1000
0100
0001
0010
0100
0001
1000
0010
,
0001
0100
1000
0010
1000
0010
0001
0100
,
0001
0010
1000
0100
0010
1000
0001
0100
,
1010
0100
0010
0100
1000
0100
0010
0001
,
1000
0100
1000
0010
1000
0001
0010
0100
,
0010
0001
0100
0010
1000
0001
0010
1000
,
0100
0010
0100
0001
0010
1000
0100
0010
,
1000
0100
1000
0001
0100
0010
0001
0100
,
0010
0001
1000
0100
0010
0100
1000
0001
,
0010
0100
1000
0010
0100
0001
0010
0100
,
1000
0100
0010
0100
0010
1000
0100
0010
,
0002
M000
0M00
M000
,
00M0
0000
0M00
0000
20M0
0000
3M03
0020
,
000M
M000
0M00
M000
,
000M
0000
0M00
0030
M002
0000
00M3
2000
,
000M
0M00
00M0
0M00
,
000M
0000
00M0
3000
0M02
0000
M003
0020
,
000M
0M00
0000
0000
M000
0000
000M
0000
,
0M00
0000
M000
0030
020M
0000
00M0
0300
,
M002
0000
00M0
0000
0M00
0000
M000
0000
0M00
0000
00M0
0003
2M00
0000
30M0
0002
,
0M00
0000
M000
0000
0M00
0000
00M0
0000
M000
0000
00M0
0003
M200
0000
030M
2000
,
00M0
0000
0M00
0000
000M
0000
00M0
0000
000M
0000
0M00
3000
002M
0000
M030
0002
,
0M00
0000
0000
0000
0000
0000
00M0
0000
0000
0000
0000
0000
M000
0000
0000
0000
0000
0000
0M00
0000
0000
0003
0000
0000
M020
0000
0000
0000
0000
0000
000M
0000
0000
0000
0000
0000
0M00
0000
0000
0000
0000
0000
0M00
0000
0030
0000
0000
0000
,
1001
0000
0000
0000
;
