#TITLE:Dr. Wily;
#SUBTITLE:;
#ARTIST:Audio Warfare;
#TITLETRANSLIT:;
#SUBTITLETRANSLIT:;
#ARTISTTRANSLIT:;
#GENRE:Hardcore;
#CREDIT:Mad Guns22;
#MUSIC:Dr Wily.mp3;
#BANNER:Project default banner.png;
#BACKGROUND:Project default background.png;
#CDTITLE:MadGuns22Icon.png;
#SAMPLESTART:56.470;
#SAMPLELENGTH:12.000;
#SELECTABLE:YES;
#OFFSET:-0.020;
#BPMS:0.000=170.000
,28.000=85.000
,30.000=170.000
,62.000=85.000
,94.000=170.000
,124.000=340.000
,128.000=170.000
,255.500=85.000
,287.500=170.000
;
#STOPS:;
#DISPLAYBPM:170.000;
#BGCHANGES:;
#FGCHANGES:;

//--------------- dance-single - Mad Guns22 ----------------
#NOTES:
     dance-single:
     Mad Guns22:
     Challenge:
     10:
     0.606,0.826,0.398,0.155,0.465:
0000
0000
0000
0000
,
0000
0000
0000
0000
,
0000
0000
0000
0000
,
0000
0000
0000
0000
,
1000
0001
1000
0010
1000
0100
1000
0101
,
0000
0110
0000
1100
0000
0011
0000
0000
,
0001
0010
0001
1000
0001
0100
0001
0000
,
0010
0010
0100
0010
0100
0000
0001
1000
0001
0000
0001
0010
0001
0000
0001
0010
,
0001
0001
0000
0100
0000
0010
0000
0001
,
0000
0000
0010
0000
0000
0000
0000
0000
1000
0000
1000
0100
1000
0000
1000
0100
,
1000
1000
0000
0010
0000
0100
0000
1000
,
0000
0000
0100
0000
0020
0000
0130
0000
0001
0000
0001
0100
0001
0000
0001
0100
,
0001
0001
0010
0100
0010
0001
0010
0100
,
1000
0000
0100
0000
0010
0000
0100
0000
1000
0000
1000
0010
1000
0000
1000
0010
,
1000
0000
1000
0010
1000
0010
1000
0010
1100
0000
0000
0000
1010
0000
0000
0000
,
1001
1100
0120
M000
,
0M00
000M
0230
00M0
,
000M
M000
03M2
0M00
,
M000
00M0
M203
00M0
,
000M
0000
0000
0000
0000
0000
0000
0000
M300
0000
0000
0000
0000
0000
0000
0000
0001
0000
0001
0010
0001
0000
0001
0010
0001
0000
0001
0000
0000
0000
0001
0010
,
0001
0000
0001
0010
0001
0000
0001
0000
0000
0000
1000
0000
0010
0000
0100
0000
0000
0000
1000
0100
1000
0000
1000
0100
1000
0000
1000
0000
0000
0000
0100
0000
,
0000
0000
0010
0000
0000
0000
0001
0000
0000
0000
1000
0000
0000
0000
0000
0000
1000
0000
1000
0100
1000
0000
1000
0100
1000
0000
1000
0000
0000
0000
0100
0000
,
0000
0010
0000
0100
0000
0001
1000
0010
1000
0100
1000
0010
1000
0001
1000
0010
,
1000
0100
1000
0010
1000
0100
2000
3001
0110
0000
0000
0000
0011
0000
0000
0000
,
0110
1100
1010
0101
,
0011
0000
0000
0000
0110
0000
0000
0010
0001
0000
0000
0000
0110
0000
0000
0000
,
1100
1010
0101
0011
,
0110
0000
0000
0000
1001
0000
0000
0010
0100
0000
1000
0000
0001
0000
1000
0000
,
0001
1000
0010
1000
0010
0001
0100
0001
,
0100
0000
0001
0000
1000
0000
0001
0000
1000
0100
0010
0001
1000
0100
0010
0001
,
1000
0100
0010
0001
1000
0100
0010
0001
1100
0000
0000
0000
0110
0000
0000
0000
,
2002
0M00
0000
00M0
0000
0M00
3003
0000
0020
M000
0030
000M
0100
M000
0000
0000
,
0000
0000
0010
0100
0010
0000
0010
0100
0010
0000
0010
0000
0000
0000
0010
0001
,
0010
0000
0010
0001
0010
0000
0010
0000
0000
0000
1000
0000
0001
0000
1000
0000
,
0000
0000
0001
1000
0001
0000
0001
1000
0001
0000
0001
0000
0000
0000
1100
0000
,
0000
0110
0000
1001
0000
0011
0000
MM00
,
0000
0000
0001
0010
0001
0000
0001
0010
0001
0000
0001
0000
0000
0000
1100
0000
,
0000
0110
0000
1100
0000
1001
0000
0100
,
1002
0100
0010
1000
0100
0010
0100
0013
,
2000
0100
0010
0100
3001
0100
2000
3001
,
0000
0000
0100
0001
0100
0000
0100
0001
0100
0000
0100
0000
0000
0000
0100
0010
,
0100
0000
0100
0010
0100
0000
0100
0000
0000
0000
1000
0000
0010
0000
1000
0000
,
0000
0000
0010
1000
0010
0000
0010
1000
0010
0000
0010
0000
0000
0000
0011
0000
,
0000
0110
0000
1001
0000
1100
0000
00MM
,
0000
0000
1000
0100
1000
0000
1000
0100
1000
0000
1000
0000
0000
0000
0011
0000
,
0000
0110
0000
0011
0000
1001
0000
0010
,
2001
0010
0100
0001
0010
0100
0010
3100
,
0002
0010
0100
0010
1003
0010
0002
1003
,
0000
0000
0000
0000
0000
0000
1000
0100
,
0000
0010
0000
0100
0000
0010
0000
0001
,
0000
0000
0000
0000
1000
0010
0000
0000
,
0100
0010
0001
1000
0100
1000
0001
0010
,
0100
0000
0000
0000
0000
0000
0001
0100
,
0000
0001
0000
0100
0000
0010
0000
1000
,
0000
0000
0000
0000
1000
0100
0010
0001
,
0001
1000
0001
1000
0002
0000
0000
1003
,
0101
0000
0000
0000
0000
0000
0001
1000
,
0000
0010
0000
1000
0000
0010
0000
0100
,
0011
0000
0000
0000
0001
0010
0000
0000
,
1000
0010
0100
0001
1000
0001
0100
0010
,
1001
0000
0000
0000
0000
0000
0100
1000
,
0011
0100
0000
1000
0000
0010
0000
0001
,
1100
0000
0000
0000
0101
0100
0010
0001
,
1000
0001
0110
0001
0002
0000
0003
1000
,
0100
0010
0100
1000
0000
0010
0001
0000
0010
0000
0100
0000
0010
0000
1000
0000
,
0001
1000
0000
1000
0000
0000
0001
0000
1000
0001
0000
0001
0000
0010
0100
0000
,
0010
0001
0010
0100
0000
0100
0010
0000
0001
0000
0010
0000
0100
0000
0000
1000
,
0100
0010
0001
0000
M000
0M00
00M0
000M
0000
000M
00M0
0M00
M000
0000
0000
0001
,
0000
0010
0100
0010
0001
0000
0100
1000
0000
0100
0000
0010
0000
0100
0000
0001
,
0000
1000
0001
0000
0001
0000
0000
1000
0000
0001
1000
0000
1000
0000
0100
0010
,
0000
0100
1000
0100
0010
0000
0010
0100
0000
1000
0000
0100
0000
0010
0000
0000
,
0002
0020
0200
2000
3333
000M
00M0
0M00
M000
0000
M000
0M00
00M0
000M
0000
0000
,
1100
0000
0001
0010
0001
0000
1000
0100
,
1000
0000
0001
0010
0001
0000
0100
0010
,
0100
0000
1000
0001
1000
0000
0001
1000
,
0001
0000
0100
0010
1000
0010
0001
0100
,
0010
0100
0010
0000
0001
0010
0001
0000
,
1000
0100
1000
0000
0001
0100
0010
0000
,
0100
1000
0001
0000
0010
0100
1000
0000
,
0001
0010
0000
1000
0000
0100
0000
0010
,
0110
0000
0000
0000
;
