#TITLE:Deep Space;
#SUBTITLE:;
#ARTIST:Eoin O' Broin;
#TITLETRANSLIT:;
#SUBTITLETRANSLIT:;
#ARTISTTRANSLIT:;
#GENRE:Drum & Bass;
#CREDIT:Mad Guns22;
#MUSIC:Deep Space.ogg;
#BANNER:Deep Space.png;
#BACKGROUND:Deep Space-bg.png;
#CDTITLE:MadGuns22Icon.png;
#SAMPLESTART:22.568;
#SAMPLELENGTH:12.000;
#SELECTABLE:YES;
#OFFSET:0.002;
#BPMS:0.000=170.000;
#STOPS:;
#DISPLAYBPM:170.000;
#BGCHANGES:;
#FGCHANGES:;

//--------------- dance-single - Mad Guns22 ----------------
#NOTES:
     dance-single:
     Mad Guns22:
     Beginner:
     1:
     0.109,0.142,0.014,0.034,0:
0000
0000
0000
0000
,
0000
0000
0000
0000
,
0000
0000
0000
0000
,
1000
0000
0000
0000
,
0100
0000
0000
0000
,
0010
0000
0000
0000
,
0010
0000
0000
0000
,
0100
0000
0100
0000
,
0010
0000
0000
0000
,
0001
0000
0000
0000
,
1000
0000
0000
0000
,
0010
0000
0000
0000
,
1000
0000
0000
0000
,
0100
0000
0000
0000
,
0010
0000
0001
0000
,
2000
0000
0000
3000
,
1001
0000
0000
0000
,
0010
0000
0000
0000
,
0100
0000
0000
0000
,
0010
0000
0000
0000
,
0001
0000
0000
0000
,
1000
0000
0000
0000
,
0100
0000
0000
0000
,
0010
0000
0000
0000
,
1000
0000
0000
0000
,
0001
0000
0000
0000
,
0100
0000
0000
0000
,
0010
0000
0000
0000
,
1000
0000
0000
0000
,
0001
0000
0000
0000
,
0001
0000
0000
0000
,
0200
0000
0000
0300
,
0010
0000
0000
0000
,
0001
0000
0000
0000
,
0100
0000
0000
0000
,
0010
0000
0000
0000
,
1000
0000
0000
0000
,
0001
0000
0000
0000
,
0100
0000
0000
0000
,
0001
0000
0000
0000
,
1000
0000
0000
0000
,
0010
0000
0000
0000
,
1000
0000
0000
0000
,
0100
0000
0000
0000
,
0010
0000
0000
0000
,
1000
0000
0000
0000
,
0001
0000
0000
0000
,
2000
0000
0000
3000
,
0001
0000
0000
0000
,
0001
0000
0000
0000
,
0010
0000
0000
0000
,
0100
0000
0000
0000
,
1000
0000
0000
0000
,
1000
0000
0000
0000
,
0100
0000
0000
0000
,
0001
0000
0000
0000
,
0100
0000
0000
0000
,
0100
0000
0000
0000
,
0010
0000
0000
0000
,
0010
0000
0000
0000
,
0001
0000
0000
0000
,
0010
0000
0000
0000
,
0100
0000
0000
0000
,
0010
0000
0010
0000
,
0100
0000
0000
0000
,
1000
0000
0000
0000
,
0001
0000
0000
0000
,
0100
0000
0000
0000
,
0001
0000
0000
0000
,
0010
0000
0000
0000
,
0100
0000
1000
0000
,
2000
0000
0000
3000
,
1001
0000
0000
0000
,
0010
0000
0000
0000
,
0100
0000
0000
0000
,
0010
0000
0000
0000
,
0001
0000
0000
0000
,
1000
0000
0000
0000
,
0100
0000
0000
0000
,
0010
0000
0000
0000
,
1000
0000
0000
0000
,
0001
0000
0000
0000
,
0100
0000
0000
0000
,
0010
0000
0000
0000
,
1000
0000
0000
0000
,
0001
0000
0000
0000
,
0001
0000
0000
0000
,
0100
0000
0000
0000
,
1000
0000
0000
0000
,
1000
0000
0000
0000
,
0100
0000
0000
0000
,
0010
0000
0000
0000
,
0001
0000
0000
0000
,
0001
0000
0000
0000
,
0010
0000
0000
0000
,
1000
0000
0000
0000
,
0010
0000
0000
0000
,
0010
0000
0000
0000
,
0100
0000
0000
0000
,
0100
0000
0000
0000
,
1000
0000
0000
0000
,
0100
0000
0000
0000
,
0010
0000
0000
0000
,
0200
0000
0000
0000
,
0300
0000
0000
0000
;

//--------------- dance-single - Mad Guns22 ----------------
#NOTES:
     dance-single:
     Mad Guns22:
     Easy:
     3:
     0.233,0.319,0.034,0.218,0:
0000
0000
0000
0000
,
0000
0000
0000
0000
,
0000
0000
0000
0000
,
0000
0000
0000
0000
,
0002
0000
0000
0003
,
0200
0000
0000
0300
,
2000
0000
0000
3000
,
0200
0300
0200
0300
,
0020
0000
0000
0030
,
2000
0000
0000
3000
,
0200
0000
0000
0300
,
0020
0000
0000
0030
,
0001
0100
0001
0000
,
0010
1000
0010
0000
,
1000
0001
1000
0112
,
2000
0000
0000
3003
,
1001
0000
1000
0000
,
0100
0000
1000
0000
,
0001
0000
0010
0000
,
0001
0000
1000
0000
,
0100
0000
1000
0000
,
0001
0000
0010
0000
,
0100
0000
1000
0000
,
1000
0001
1000
0001
,
1000
0000
1000
0000
,
0100
0000
1000
0000
,
0001
0000
0010
0000
,
0001
0000
1000
0000
,
0100
0000
1000
0000
,
0001
0000
0010
0000
,
0100
0000
1000
0000
,
2000
0002
0000
3003
,
0001
0001
0000
0000
,
0100
0010
0000
0000
,
1000
1000
0000
0000
,
0100
0001
0000
0000
,
0100
0100
0000
0000
,
0001
0100
0000
0000
,
0010
0010
0000
0000
,
1000
0001
0000
0000
,
0110
0000
0000
0000
,
0001
0010
0000
0000
,
0100
0100
0000
0000
,
0010
0100
0000
0000
,
0001
0001
0000
0000
,
0010
1000
0000
0000
,
0100
0100
0000
1000
,
0002
2000
0000
3003
,
0001
0100
0000
0000
,
0010
0100
0000
0000
,
0001
0100
0000
0000
,
0100
0010
0000
0000
,
0100
0001
0000
0000
,
1000
0001
0000
0000
,
0100
0001
0000
0000
,
1000
0010
0000
0000
,
2000
0000
0000
3000
,
0020
0000
0000
0030
,
0002
0000
0000
0003
,
0200
0000
0000
0300
,
2000
0000
0000
3000
,
0020
0000
0000
0030
,
0002
0000
0000
0003
,
0020
0030
0020
0030
,
0200
0000
0000
0300
,
0002
0000
0000
0003
,
0020
0000
0000
0030
,
0200
0000
0000
0300
,
1000
0010
1000
0000
,
0100
0001
0100
0000
,
0001
1000
0001
1000
,
0002
2000
0000
3003
,
1001
0000
1000
0000
,
0100
0000
1000
0000
,
0001
0000
0010
0000
,
0001
0000
1000
0000
,
0100
0000
1000
0000
,
0001
0000
0010
0000
,
0100
0000
1000
0000
,
1000
0001
1000
0001
,
1000
0000
1000
0000
,
0100
0000
1000
0000
,
0001
0000
0010
0000
,
0001
0000
1000
0000
,
0100
0000
1000
0000
,
0001
0000
0010
0000
,
0100
0000
0001
0000
,
0100
0000
0010
0000
,
0010
0001
0000
0001
,
0100
0010
0000
1000
,
0100
0010
0000
0001
,
0100
0010
0000
0100
,
1000
0001
0000
0001
,
0010
0100
0000
0100
,
0010
0001
0000
1000
,
0001
1000
0000
0010
,
1001
0000
1000
0000
,
0100
0000
1000
0000
,
0001
0000
0010
0000
,
0001
0000
1000
0000
,
0100
0000
1000
0000
,
0001
0000
0010
0000
,
0100
0000
1000
0001
,
2000
0002
0000
0000
,
3003
0000
0000
0000
;

//--------------- dance-single - Mad Guns22 ----------------
#NOTES:
     dance-single:
     Mad Guns22:
     Medium:
     5:
     0.379,0.389,0.054,0.272,0:
0000
0000
0000
0000
,
0000
0000
0000
0000
,
0000
0000
0000
0000
,
0000
0000
0000
0000
,
0002
0000
0000
0003
,
2000
0000
0000
3000
,
0020
0000
0000
0030
,
1000
0001
2000
3000
,
0200
0000
0000
0300
,
0020
0000
0000
0030
,
2000
0000
0000
3000
,
0200
0000
0000
0300
,
0001
1000
0001
1000
,
0100
0010
0100
0010
,
1000
0001
1000
0001
1000
0001
1000
0002
,
2000
0000
0000
0000
0000
0000
0000
3003
,
1001
0010
0100
0001
,
1000
0100
0010
1000
,
0001
0100
0010
1000
,
0100
0000
1000
0000
0001
0000
1000
0001
,
1000
0010
0100
0001
,
1000
0100
0010
1000
,
0001
0100
0010
1000
,
0100
0000
1000
0000
0001
0000
1000
0001
,
1000
0000
1000
0000
0000
0001
0010
0000
,
0001
0010
0001
0000
0000
0001
1000
0000
,
0001
0000
0001
0000
0000
1000
0100
0000
,
1000
0100
1000
0000
0000
0100
1000
0000
,
1000
0000
1000
0000
0000
0001
0010
0000
,
0001
0010
0001
0000
0000
0001
1000
0000
,
0001
0000
0001
0000
0000
1000
0100
2000
,
0002
0000
0000
0000
0000
0000
0000
3003
,
0110
1000
0001
0100
,
0001
0000
0010
0000
0001
1000
0001
0000
,
0010
0100
1000
0001
,
1000
0000
0100
0000
0010
0001
1000
0000
,
0110
0001
1000
0010
,
1000
0000
0100
0000
1000
0001
1000
0000
,
0100
0010
0001
1000
,
0001
0000
00M0
0000
0100
1000
0001
0000
,
1001
0010
0100
1000
,
0100
0000
0001
0000
0100
0010
0100
0000
,
0001
1000
0010
0100
,
0010
0000
1000
0000
0001
0100
0010
0000
,
1001
0100
0010
0001
,
0010
0000
1000
0000
0010
0100
0010
0000
,
1000
0000
0001
0000
0100
0000
0010
0200
,
0020
0000
0000
0000
0000
0000
0000
0330
,
1001
0100
0001
0010
,
0001
1000
0001
1000
,
0001
0010
0100
1000
,
0100
0010
0001
1000
,
1001
0010
1000
0100
,
1000
0001
1000
0001
,
1000
0100
0010
0001
,
0010
0100
1000
0001
,
2000
0000
0000
3000
,
0020
0000
0000
0030
,
0200
0000
0000
0300
,
0002
0000
0000
0003
,
2000
0000
0000
3000
,
0002
0000
0000
0003
,
0200
0000
0000
0300
,
0001
1000
0002
0003
,
0020
0000
0000
0030
,
0200
0000
0000
0300
,
0002
0000
0000
0003
,
0020
0000
0000
0030
,
1000
0001
1000
0001
,
0010
0100
0010
0100
,
0001
1000
0001
1000
0001
1000
0001
2000
,
0002
0000
0000
0000
0000
0000
0000
3003
,
1001
0010
0100
0001
,
1000
0100
0010
1000
,
0001
0100
0010
1000
,
0100
0000
1000
0000
0001
0000
1000
0001
,
1000
0010
0100
0001
,
1000
0100
0010
1000
,
0001
0100
0010
1000
,
0100
0000
1000
0000
0001
0000
1000
0001
,
1000
0000
1000
0000
0000
0001
0010
0000
,
0001
0010
0001
0000
0000
0001
1000
0000
,
0001
0000
0001
0000
0000
1000
0100
0000
,
1000
0100
1000
0000
0000
0100
1000
0000
,
0001
0000
0001
0000
0000
1000
0100
0000
,
1000
0100
1000
0000
0000
1000
0001
0000
,
1000
0000
1000
0000
0000
0001
0010
0000
,
0001
0010
0001
0000
0000
0010
0001
0000
,
2000
0000
0000
0000
0000
0000
0000
3000
,
0200
0000
0000
0300
0020
0000
0000
0030
,
0002
0000
0000
1003
,
2000
0000
0000
3001
,
0002
0000
0000
0000
0000
0000
0000
0003
,
0020
0000
0000
0030
0200
0000
0000
0300
,
2000
0000
0000
3001
,
0002
0000
0000
1003
,
1000
0100
0010
0001
,
1000
0000
0100
0000
1000
0000
0001
1000
,
0001
0010
0100
1000
,
0001
0000
0010
0000
0001
0000
1000
0001
,
0100
0010
1000
0001
,
0100
0000
0010
0000
0100
0000
0001
0100
,
0001
0000
1000
0000
0010
0000
0100
0002
,
2000
0000
0000
0000
,
3003
0000
0000
0000
;

//--------------- dance-single - Mad Guns22 ----------------
#NOTES:
     dance-single:
     Mad Guns22:
     Hard:
     8:
     0.519,0.53,0.163,0.204,0:
0000
0000
0000
0000
,
0000
0000
0000
0000
,
0000
0000
0000
0000
,
0000
0000
0000
0000
,
0002
0000
0000
0000
0000
0003
0010
0000
,
0020
0000
0000
0000
0000
0030
0100
0000
,
0200
0000
0000
0000
0000
0300
0001
0000
,
0010
0000
0001
0000
0002
0000
0000
0003
,
2000
0000
0000
0000
0000
3000
0100
0000
,
0200
0000
0000
0000
0000
0300
0010
0000
,
0020
0000
0000
0000
0000
0030
1000
0000
,
2000
0000
0000
3000
,
0001
0010
0001
0100
,
0010
0100
0001
0010
,
1000
0001
1000
0001
1000
0001
1000
0004
,
4000
0000
0000
0000
0000
0000
0000
3003
,
1001
0010
0100
0001
1000
0000
1000
0000
,
0001
0100
0010
1000
0001
0000
0001
0000
,
0100
0001
1000
0010
0100
0000
0100
0000
,
0010
1000
0001
0100
0010
0000
0010
0000
,
1000
0010
0100
0001
1000
0001
1000
0000
,
0001
0100
0010
1000
0001
1000
0001
0000
,
0001
0100
0010
1000
0001
1000
0001
0000
,
1000
0010
0100
0001
1000
0001
1000
0000
,
1000
0100
1000
0000
0010
0001
0010
0000
,
0001
0010
0001
0000
1000
0001
1000
0000
,
0001
0010
0001
0000
0100
1000
0100
0000
,
1000
0100
1000
0001
1000
0100
1000
0001
,
0100
0010
0100
0000
1000
0001
1000
0000
,
0001
1000
0001
0000
0100
0001
0100
0000
,
0001
1000
0001
0000
0010
0100
0010
0400
,
0040
0000
0000
0000
0000
0000
0000
0330
,
1000
0000
1100
0000
0010
0100
0010
0000
,
0001
0000
0011
0000
0100
0010
0100
0010
,
1000
0000
0110
0000
0010
0100
0010
0000
,
0001
0000
0110
0000
0100
0010
0100
0100
,
0010
0000
0110
0000
0001
0100
0001
0000
,
1000
0000
1001
0000
0100
0001
0100
0100
,
0010
0000
0101
0000
0001
0100
0001
0000
,
1000
0000
0M0M
0000
0001
0010
0001
0010
,
0001
0000
0011
0000
0100
0010
0100
0000
,
1000
0000
1100
0000
0010
0100
0010
0100
,
0001
0000
0110
0000
0100
0010
0100
0000
,
1000
0000
0110
0000
0010
0100
0010
0010
,
0100
0000
0110
0000
1000
0010
1000
0000
,
0001
0000
1001
0000
0010
1000
0010
1000
,
0100
0000
1010
0000
1000
0010
1000
0004
,
4000
0000
0000
0000
0000
0000
0000
3003
,
1000
0000
1100
0000
0010
0100
0010
0000
,
0001
0000
0011
0000
0100
0010
0100
0000
,
1000
0000
0110
0000
0010
0100
0010
0000
,
0001
0000
0110
0000
0100
0010
0100
0000
,
0010
0000
0110
0000
0001
0100
0001
0000
,
1000
0000
1001
0000
0100
0001
0100
0000
,
0010
0000
0101
0000
0001
0100
0001
0000
,
1000
0000
0101
0000
0001
0010
0001
0000
,
0002
0000
0000
0003
,
0200
0000
0000
0300
,
0002
0000
0000
0003
,
2000
0000
0000
3000
,
0002
0000
0000
0000
0000
0003
0010
0000
,
0020
0000
0000
0000
0000
0030
0100
0000
,
0200
0000
0000
0000
0000
0300
0001
0000
,
0010
0000
0001
0000
0002
0000
0000
0003
,
2000
0000
0000
0000
0000
3000
0100
0000
,
0200
0000
0000
0000
0000
0300
0010
0000
,
0020
0000
0000
0000
0000
0030
1000
0000
,
2000
0000
0000
3000
,
0001
0010
0001
0100
,
0010
0100
0001
0010
,
1000
0001
1000
0001
1000
0001
1000
0004
,
4000
0000
0000
0000
0000
0000
0000
3003
,
1001
0010
0100
0001
1000
0000
1000
0000
,
0001
0100
0010
1000
0001
0000
0001
0000
,
0100
0001
1000
0010
0100
0000
0100
0000
,
0010
1000
0001
0100
0010
0000
0010
0000
,
1000
0010
0100
0001
1000
0001
1000
0000
,
0001
0100
0010
1000
0001
1000
0001
0000
,
0001
0100
0010
1000
0001
1000
0001
0000
,
1000
0010
0100
0001
1000
0001
1000
0000
,
1000
0100
1000
0000
0010
0001
0010
0000
,
0001
0010
0001
0000
1000
0001
1000
0000
,
0001
0010
0001
0000
0100
1000
0100
0000
,
1000
0100
1000
0001
1000
0100
1000
0001
,
0001
0010
0001
0000
0100
1000
0100
0000
,
1000
0100
1000
0000
0001
1000
0001
0000
,
1000
0100
1000
0000
0010
0001
0010
0000
,
0001
0010
0001
1000
0001
0010
0001
1000
,
2000
0100
0010
3100
,
0200
0000
0010
0000
0320
0000
0130
0100
,
0002
1000
0100
1003
,
2000
0000
0100
0000
0010
0000
3001
0001
,
0002
0010
0100
0013
,
0020
0000
0100
0000
0230
0000
0310
0010
,
2000
0001
0010
3001
,
0002
0000
0010
0000
0100
0000
1003
1000
,
1000
0100
0010
0001
0010
0100
1000
0000
,
0010
0100
0010
1000
0001
1000
0100
0000
,
0001
1000
0010
0100
0010
0100
0001
1000
,
0100
0010
1000
0100
0010
0001
1000
0000
,
1000
0100
1000
0000
0010
0001
0010
0000
,
0001
0010
0001
0000
1000
0001
1000
0000
,
0001
0010
0001
0000
0100
1000
0100
4000
,
0004
0000
0000
0000
0000
0000
0000
3003
;

//--------------- dance-single - Mad Guns22 ----------------
#NOTES:
     dance-single:
     Mad Guns22:
     Challenge:
     10:
     0.731,0.707,0.211,0.136,0.334:
0000
0000
0000
0000
,
0000
0000
0000
0000
,
0000
0000
0000
0000
,
0000
0000
0000
0000
,
2000
0000
0000
0100
0000
3000
0100
0000
,
0200
0000
0000
0010
0000
0300
0010
0000
,
0020
0000
0000
1000
0000
0030
1000
0000
,
0100
0000
1000
0000
2000
0000
0000
3000
,
0200
0000
0000
0001
0000
0300
0001
0000
,
0002
0000
0000
1000
0000
0003
1000
0000
,
2000
0000
0000
0010
0000
3000
0010
0000
,
0020
0000
0000
0100
0000
0030
0100
0000
,
0100
0000
1000
0000
0010
0100
0010
0000
,
0001
0000
1000
0000
0100
1000
0100
0000
,
0001
1000
0100
0010
0001
1000
0100
1000
,
0004
4000
0000
0000
0000
0000
0000
0000
0000
0000
0000
0000
0000
0000
3003
0000
,
0001
0000
0100
0000
0010
0000
1000
0010
0100
0010
0001
0000
1000
0000
0010
0000
,
1000
0000
0010
0000
0100
0000
0001
0100
0010
0100
1000
0000
0001
0000
0100
0000
,
0010
0000
1000
0000
0001
0000
0100
0001
1000
0001
0010
0000
0100
0000
0001
0000
,
0100
0000
0001
0000
1000
0000
0010
1000
0001
1000
0100
0000
0010
0000
1000
0000
,
0001
0000
0100
0000
0010
0000
1000
0010
0100
0010
0001
0000
1000
0000
0010
0000
,
1000
0000
0010
0000
0100
0000
0001
0100
0010
0100
1000
0000
0001
0000
0100
0000
,
0010
0000
1000
0000
0001
0000
0100
0001
1000
0001
0010
0000
0100
0000
0001
0000
,
0100
0000
0001
0000
1000
0000
0010
1000
0001
1000
0100
0000
0010
0000
1000
0000
,
0001
0000
0010
0000
0001
0000
1000
0100
0010
0001
1000
0000
0010
0000
0100
0000
,
1000
0000
0100
0000
1000
0000
0001
0010
0100
1000
0001
0000
0100
0000
0010
0000
,
0100
0000
1000
0000
0100
0000
0010
0001
1000
0100
0010
0000
1000
0000
0001
0000
,
0010
0000
0001
0000
0010
0000
0100
1000
0001
0010
0100
0000
0001
0000
1000
0000
,
0001
0000
1000
0000
0001
0000
0100
0010
0100
0010
1000
0000
0100
0000
0010
0000
,
0001
0000
0100
0000
0001
0000
0010
0100
0010
0100
0001
0000
0010
0000
0100
0000
,
0010
0000
0100
0000
0010
0000
0001
1000
0001
1000
0100
0000
0001
0000
1000
0000
,
0004
4000
0000
0000
0000
0000
0000
0000
0000
0000
0000
0000
0000
0000
3003
0000
,
0001
0000
1010
0000
0100
0010
0100
0001
,
1000
0000
0101
0000
0010
0100
0010
1000
,
0001
0000
1010
0000
0100
0100
0100
0001
,
1000
0000
0101
0000
0010
0010
0010
0000
,
0100
0000
1010
0000
0001
1000
0001
0010
,
0100
0000
0011
0000
1000
0001
1000
0100
,
0010
0000
1100
0000
0001
0001
0001
0010
,
0100
0000
0000
0000
00MM
0000
0000
0000
1000
0000
0000
0000
0100
1000
0100
0000
,
1000
0000
0101
0000
0010
0100
0010
1000
,
0001
0000
1010
0000
0100
0010
0100
0001
,
1000
0000
0101
0000
0010
0010
0010
1000
,
0001
0000
1010
0000
0100
0100
0100
0000
,
0010
0000
0101
0000
1000
0001
1000
0100
,
0010
0000
1100
0000
0001
1000
0001
0010
,
0100
0000
0011
0000
1000
0001
1000
0001
,
4000
0004
0000
0000
0000
0000
0000
0000
0000
0000
0000
0000
0000
0000
3003
0000
,
0110
0000
1001
0000
1000
0100
0010
0001
,
1001
0000
0110
0000
0001
0010
0100
1000
,
0110
0000
0011
0000
1000
0100
1000
0001
,
1100
0000
0110
0000
0010
0100
0001
1000
,
0110
0000
1001
0000
0001
0010
0100
1000
,
1001
0000
0110
0000
1000
0100
0010
0001
,
0110
0000
1100
0000
0001
0010
0001
1000
,
0011
0000
0110
0000
0100
0010
1000
0001
,
2000
0000
0100
0000
0000
0100
3000
0000
,
0020
0000
0000
0001
0000
0000
1030
0000
,
2000
0000
0100
0000
0000
0010
3000
0000
,
0002
0000
0000
1000
0000
0003
0001
0000
,
0200
0000
0001
0000
0000
0001
0300
0000
,
2000
0000
0000
0010
0000
0000
3100
0000
,
0200
0000
0001
0000
0000
0010
0300
0000
,
0020
0000
0100
0000
0100
0000
0000
0030
,
0120
0000
0000
1000
0000
0000
1030
0000
,
0002
0000
0000
0100
0000
0000
0013
0000
,
0020
0000
0000
1000
0000
0000
0130
0000
,
0200
0000
0000
0010
0000
0300
0100
0000
,
0100
0000
1000
0000
0010
0100
0010
0000
,
0001
0000
1000
0000
0100
1000
0100
0000
,
0001
1000
0100
0010
0001
1000
0100
1000
,
0004
4000
0000
0000
0000
0000
0000
0000
0000
0000
0000
0000
0000
0000
3003
0000
,
0001
0000
0100
0000
0010
0000
1000
0010
0100
0010
0001
0000
1000
0000
0010
0000
,
1000
0000
0010
0000
0100
0000
0001
0100
0010
0100
1000
0000
0001
0000
0100
0000
,
0010
0000
1000
0000
0001
0000
0100
0001
1000
0001
0010
0000
0100
0000
0001
0000
,
0100
0000
0001
0000
1000
0000
0010
1000
0001
1000
0100
0000
0010
0000
1000
0000
,
0001
0000
0100
0000
0010
0000
1000
0010
0100
0010
0001
0000
1000
0000
0010
0000
,
1000
0000
0010
0000
0100
0000
0001
0100
0010
0100
1000
0000
0001
0000
0100
0000
,
0010
0000
1000
0000
0001
0000
0100
0001
1000
0001
0010
0000
0100
0000
0001
0000
,
0100
0000
0001
0000
1000
0000
0010
1000
0001
1000
0100
0000
0010
0000
1000
0000
,
0001
0000
0010
0000
0001
0000
1000
0100
0010
0001
1000
0000
0010
0000
0100
0000
,
1000
0000
0100
0000
1000
0000
0001
0010
0100
1000
0001
0000
0100
0000
0010
0000
,
0100
0000
1000
0000
0100
0000
0010
0001
1000
0100
0010
0000
1000
0000
0001
0000
,
0010
0000
0001
0000
0010
0000
0100
1000
0001
0010
0100
0000
0001
0000
1000
0000
,
0001
0000
1000
0000
0001
0000
0100
0010
0100
0010
1000
0000
0100
0000
0010
0000
,
0001
0000
0100
0000
0001
0000
0010
0100
0010
0100
0001
0000
0010
0000
0100
0000
,
0010
0000
0100
0000
0010
0000
0001
1000
0001
1000
0100
0000
0001
0000
1000
0000
,
0100
0000
0010
0000
0100
0000
1000
0001
1000
0001
0010
0000
1000
0000
0001
0000
,
1000
0000
0010
0000
0100
0000
0001
0100
0010
0100
1000
0000
0001
0000
0100
0000
,
0001
0000
0100
0000
0010
0000
1000
0010
0100
0010
0001
0000
1000
0000
0010
0000
,
0100
0000
0001
0000
1000
0000
0010
1000
0001
1000
0100
0000
0010
0000
1000
0000
,
0010
0000
1000
0000
0001
0000
0100
0001
1000
0001
0010
0000
0100
0000
0001
0000
,
1000
0000
0010
0000
0100
0000
0001
0100
0010
0100
1000
0000
0001
0000
0100
0000
,
0001
0000
0100
0000
0010
0000
1000
0010
0100
0010
0001
0000
1000
0000
0010
0000
,
0100
0000
0001
0000
1000
0000
0010
1000
0001
1000
0100
0000
0010
0000
1000
0000
,
0010
0000
1000
0000
0001
0000
0100
0001
1000
0001
0010
0000
0100
0000
0001
0000
,
1000
0000
0100
0000
1000
0000
0001
0010
0100
1000
0001
0000
0100
0000
0010
0000
,
0001
0000
0010
0000
0001
0000
1000
0100
0010
0001
1000
0000
0010
0000
0100
0000
,
0010
0000
0001
0000
0010
0000
0100
1000
0001
0010
0100
0000
0001
0000
1000
0000
,
0100
0000
1000
0000
0100
0000
0010
0001
1000
0100
0010
0000
1000
0000
0001
0000
,
1000
0000
0001
0000
1000
0000
0010
0100
0010
0100
0001
0000
0010
0000
0100
0000
,
1000
0000
0010
0000
1000
0000
0100
0010
0100
0010
1000
0000
0100
0000
0010
0000
,
0100
0000
0010
0000
0100
0000
1000
0001
1000
0001
0010
0000
1000
0000
0001
0000
,
4000
0004
0000
0000
0000
0000
0000
0000
0000
0000
0000
0000
0000
0000
3003
0000
;
