#TITLE:Dangerous Mind;
#SUBTITLE:;
#ARTIST:Dougal & Gammer feat. MC Storm;
#TITLETRANSLIT:;
#SUBTITLETRANSLIT:;
#ARTISTTRANSLIT:;
#GENRE:Hardcore;
#CREDIT:Mad Guns22;
#MUSIC:Dangerous Mind.mp3;
#BANNER:Dangerous Mind.png;
#BACKGROUND:Dangerous Mind-bg.png;
#CDTITLE:MadGuns22Icon.png;
#SAMPLESTART:110.725;
#SAMPLELENGTH:12.000;
#SELECTABLE:YES;
#OFFSET:-1.395;
#BPMS:0.000=175.000
,135.000=350.000
,136.000=175.000
,264.000=87.500
,295.500=350.001
,296.000=175.000
;
#STOPS:135.000=0.171
,295.500=0.256
;
#DISPLAYBPM:175.000;
#BGCHANGES:;
#FGCHANGES:;

//--------------- dance-single - Mad Guns22 ----------------
#NOTES:
     dance-single:
     Mad Guns22:
     Challenge:
     10:
     0.7,0.795,0.162,0.228,0.206:
0000
0000
0000
0000
,
0000
0000
0000
0000
,
0000
0000
0000
0000
,
0000
0000
0000
0000
,
1000
0000
0100
0000
1000
0000
0100
0000
0010
0100
0010
0100
0010
0000
0100
0000
,
0001
0000
0010
0000
0001
0000
0010
0000
0100
0010
0100
0010
0100
0000
0010
0000
,
0100
0000
0001
0000
0100
0000
0001
0000
1000
0001
1000
0001
1000
0000
0001
0000
,
0010
0000
1000
0000
0010
0000
1000
0000
0001
1000
0001
1000
0001
0000
1000
0000
,
0110
0000
0010
0000
0100
0000
0100
0000
0010
0000
0100
0000
0010
0100
0010
0000
,
0110
0000
0100
0000
0010
0000
0010
0000
0100
0000
0010
0000
0100
0010
0100
0000
,
1001
0000
1000
0000
0001
0000
0001
0000
1000
0000
0001
0000
1000
0001
1000
0000
,
1001
0000
0001
0000
1000
0000
1000
0000
0001
0000
1000
0000
0001
1000
0001
0000
,
0100
1000
0010
0000
1000
0000
0001
0000
0100
0001
0010
0000
0001
0000
1000
0000
,
0010
0000
0100
0000
0001
0000
1000
0000
0010
1000
0100
0000
1000
0000
0001
0000
,
0001
0100
1000
0000
0100
0000
0010
0000
0001
0010
1000
0000
0010
0000
0100
0000
,
1000
0010
0001
0000
0010
0000
0100
0000
1000
0100
0001
0000
0100
0000
0010
0000
,
1100
0000
0010
0000
1000
0000
0100
0000
1000
0000
0010
0000
1000
0001
1000
0000
,
0001
0000
0010
0000
0001
0000
1000
0000
0001
0000
0100
0000
0001
1000
0001
0000
,
1000
0000
0001
0000
1000
0000
0100
0000
1000
0000
0010
0000
1000
0001
1000
0000
,
0001
0000
1000
0000
0001
0000
0010
0000
0001
0000
0100
0000
0001
1000
0001
0000
,
0101
0010
0100
0100
0100
0100
1000
0001
,
0110
1000
0001
0001
0001
0001
0100
0010
,
1000
0100
1000
0000
0001
0010
0001
0000
0100
0010
0100
0000
0001
0010
0001
0000
,
1000
0100
1000
0000
0010
0100
0010
0000
1000
0100
1000
0000
0001
0010
0001
0000
,
2000
0000
0000
0000
,
3200
0000
0000
0000
,
0322
0000
0000
0000
,
2033
0000
0000
0000
,
3200
0000
0000
0000
,
0320
0000
0000
0000
,
1030
0100
1000
0001
0010
0001
0010
1000
,
0000
0100
0000
1000
0000
0000
0000
0000
,
2000
0000
0000
0000
3100
0000
0000
0010
0000
0000
0010
0000
0000
0000
2000
0000
,
3001
0000
0000
0000
0020
0000
0030
0010
0000
0000
0010
0000
2002
0000
3003
0000
,
1001
0010
1000
0100
1000
0010
1000
0100
,
0001
0100
0001
1000
0001
0100
0001
0010
,
0100
0010
0100
1000
0100
0010
0001
1000
,
0100
0010
0100
0001
0100
1000
0100
0010
,
0001
0010
0100
1000
0100
0001
0010
0100
,
1000
0001
1000
0100
1000
0001
1000
0010
,
1000
0001
1000
0010
0100
0100
0100
0100
,
1000
0001
1000
0100
0010
0010
0010
0010
,
1001
0000
1001
0000
0010
0100
0010
0100
,
1000
0001
1000
0001
0010
1000
0010
1000
,
0110
0000
0110
0000
0100
0010
0100
0010
,
0001
1000
0001
1000
0100
0001
0100
0010
,
1001
0000
1001
0000
0010
0100
0010
0100
,
0001
1000
0001
1000
0100
0001
0100
1000
,
0001
0010
0001
1000
0100
1000
0100
0001
,
0000
0010
0000
0001
1000
1000
1000
1000
,
0001
0000
1000
0001
1000
0000
0001
0000
0100
0010
0100
0000
1000
0000
0001
0000
,
1000
0001
1000
0010
1000
0100
1000
0001
,
1000
0000
0001
1000
0001
0000
1000
0000
0010
0100
0010
0000
0001
0000
0100
0000
,
1000
0100
0010
0001
,
1000
0000
0001
1000
0001
0000
1000
0000
0010
0100
0010
0000
0001
0000
1000
0000
,
0001
1000
0001
0100
0001
0010
0001
1000
,
0001
0000
1000
0001
1000
0000
0001
0000
0100
0010
0100
0000
1000
0000
0010
0000
,
0001
0010
0100
1000
,
0101
0000
0010
0100
0010
0000
1000
0000
0100
0010
0100
0000
0001
0000
0010
0000
,
0100
0010
0100
0001
0100
1000
0100
0100
,
1000
0000
0100
0010
0100
0000
0001
0000
0010
0100
0010
0000
1000
0000
0100
0000
,
0010
0010
0010
0010
,
1000
0000
0100
0010
0100
0000
0001
0000
0010
0100
0010
0000
1000
0000
0100
0000
,
0010
0100
0010
1000
0010
0001
0010
0010
,
0001
0000
0010
0100
0010
0000
1000
0000
0100
0010
0100
0000
0001
0000
0010
0000
,
0100
0100
0100
0100
,
2200
0000
0000
0320
,
3002
0000
0000
0203
,
0032
0000
2300
0000
,
0023
0000
3230
0000
,
0002
0000
0000
2300
,
0023
0000
0000
3002
,
2030
0000
0000
0000
0203
0000
0000
3300
,
0001
0010
0001
0100
0001
0010
0001
0010
0000
0001
0000
0100
0000
0000
2002
3003
,
1001
0100
1000
0010
1000
0001
1000
0010
,
1000
0100
1000
0001
0010
0100
1000
0100
,
0001
0010
0001
0100
0001
1000
0001
0100
,
0001
0010
0001
0010
1000
0100
0010
0001
,
1000
0010
0001
0100
0001
1000
0001
0100
,
0001
0010
0001
1000
0100
0010
0001
0010
,
1000
0100
1000
0010
1000
0001
1000
0010
,
1000
0000
0100
0000
1000
0000
0100
0000
0001
0000
0010
0000
0100
0000
1000
0100
,
1001
0010
1000
0001
0100
0001
0010
0100
,
0001
1000
0100
1000
0010
0100
0010
1000
,
0001
1000
0100
1000
0100
0010
0001
0010
,
0001
0010
0100
1000
0010
0001
1000
0100
,
1000
0100
0001
0010
0100
0010
1000
0001
,
1000
0100
1000
0001
0010
0001
0100
0010
,
0100
1000
0010
0001
0100
0001
0010
1000
,
0202
0000
0000
0000
0000
0000
0000
0303
;
