#TITLE:Come into my World;
#SUBTITLE:;
#ARTIST:Nitrous Oxide feat. Sean Ryan;
#TITLETRANSLIT:;
#SUBTITLETRANSLIT:;
#ARTISTTRANSLIT:;
#GENRE:Trance;
#CREDIT:Mad Guns22;
#MUSIC:Come into my World.mp3;
#BANNER:Project default banner.png;
#BACKGROUND:Project default background.png;
#CDTITLE:MadGuns22Icon.png;
#SAMPLESTART:99.130;
#SAMPLELENGTH:12.000;
#SELECTABLE:YES;
#OFFSET:-0.020;
#BPMS:0.000=138.000;
#STOPS:;
#DISPLAYBPM:138.000;
#BGCHANGES:;
#FGCHANGES:;

//--------------- dance-single - Mad Guns22 ----------------
#NOTES:
     dance-single:
     Mad Guns22:
     Hard:
     8:
     0.446,0.69,0.128,0.163,0.05:
0000
0000
0000
0000
,
0000
0000
0000
0000
,
0000
0000
0000
0000
,
0000
0000
0000
0000
,
0000
0000
0000
0000
,
1000
0000
0000
0000
1000
0000
0000
1000
0000
0000
1000
0000
0000
0000
0010
0000
,
0001
0000
0000
0000
0001
0000
0000
0001
0000
0000
0001
0000
0000
0000
0100
0000
,
1000
0000
0000
0000
1000
0000
0000
1000
0000
0000
1000
0000
0000
0000
0001
0000
,
0010
0000
0000
0000
0010
0000
0000
0010
0000
0000
0010
0000
0000
0000
0100
0000
,
1000
0100
1000
0010
0001
0010
0001
0010
,
0100
0010
0100
0010
0100
0010
0100
0010
,
0001
0010
0001
0100
1000
0100
1000
0100
,
0001
0010
0001
0010
1000
0100
1000
0100
,
0010
0100
0010
0100
0001
0010
0001
0010
,
0100
0010
0100
0010
1000
0010
1000
0000
,
0001
0001
0100
0100
,
0010
0010
2000
3000
,
0101
0000
0010
0000
0100
0000
0010
0100
,
0010
0000
1000
0000
0100
0001
1000
0001
,
1000
0000
0100
0000
0010
0000
0100
0001
,
0100
0000
0010
0000
1000
0100
0010
0100
,
0010
0000
0010
0001
0010
0000
1000
0100
,
1000
0000
0010
0100
0010
1000
0001
1000
,
0001
1010
0100
0101
,
0010
1001
0100
0110
,
1000
0000
0100
0000
0010
1000
0100
1000
,
0100
0000
0010
0000
1000
0001
0010
0001
,
0010
0000
1000
0000
0100
0001
1000
0001
,
1000
0000
0100
0000
0001
1000
0100
1000
,
0100
0000
0100
0001
0100
1000
0010
1000
,
0010
0000
0100
1000
0100
0010
0001
0010
,
0001
0110
1000
1001
,
0100
0011
1000
1100
,
1001
2000
3200
0320
,
0000
0000
0032
0000
2000
0000
0000
0003
,
0000
0010
0100
0000
0000
0000
0000
0000
,
0000
0001
0010
0002
,
3000
0000
0000
0200
,
0003
0000
0000
0000
0300
0010
0200
0000
,
0000
0000
0000
0000
,
0000
0000
0000
0300
0002
0000
0000
0000
,
2000
0000
0000
0000
,
0000
0000
0000
3000
0000
0010
1000
0100
,
0000
0000
0000
0200
0000
0300
0100
0000
,
0003
0000
0001
0000
0100
0010
0100
0010
,
1000
0001
1000
0001
1000
0001
1000
0001
,
1000
0001
1000
0001
1000
0001
1000
0001
,
1000
0001
1000
0001
1000
0001
1000
0001
1000
0001
1000
0001
1000
0001
1000
0001
,
4004
0000
0000
0000
0000
0000
0000
3003
,
0010
0100
0001
1000
0000
0010
0000
0001
,
0000
0100
0010
0001
0000
0010
0000
0001
,
0000
1000
0010
0100
0000
0001
0000
0010
,
0000
0100
0001
1000
0000
0010
0000
0001
,
0000
1000
0100
1000
0000
0100
0000
1000
,
0000
0010
0100
1000
0000
0100
0000
0010
,
0000
1000
0100
0001
0000
0010
0000
0100
,
0000
0001
0010
0100
0000
1000
0000
0100
,
0110
0001
1000
0010
0100
0010
0100
0001
,
1000
0010
0100
0010
0001
0010
0001
0010
,
1000
0100
0001
0100
0010
1000
0001
0100
,
0010
0001
1000
0100
0010
0001
0010
0100
,
1000
0100
0010
0001
0010
0100
1000
0100
,
0010
0001
1000
0010
1000
0001
0100
0001
,
0010
0100
0010
0100
0001
0100
0001
0010
,
1000
0100
1000
0001
1000
0100
1000
0001
,
0001
0010
0100
0001
1000
0010
0100
0001
,
0010
1000
0100
0001
1000
0010
0001
0010
,
0100
0010
0001
0100
1000
0100
0010
0100
,
1000
0001
0010
0100
0001
1000
0010
0001
,
1000
0100
0010
0001
0100
0001
1000
0001
,
0100
0010
1000
0100
0001
1000
0100
1000
,
1000
0100
1000
0010
1000
0001
1000
0010
,
1001
0000
0000
1001
0000
0000
1001
0000
0000
2002
0000
0000
0000
3003
0000
0000
,
0000
0200
2300
3200
,
0300
0010
2000
3200
,
0300
0010
0002
0000
0000
0003
0000
0000
,
0000
0000
1000
2000
,
0000
0000
3000
0000
,
0000
0000
0000
0000
,
0000
0000
0000
0000
,
2002
0000
0000
3003
,
1001
0000
0000
0000
;
