#TITLE:Boom Ba De;
#SUBTITLE:;
#ARTIST:Dougal & Gammer;
#TITLETRANSLIT:;
#SUBTITLETRANSLIT:;
#ARTISTTRANSLIT:;
#GENRE:;
#CREDIT:Mad Guns22;
#MUSIC:Boom Ba De.mp3;
#BANNER:Project default banner.png;
#BACKGROUND:Project default background.png;
#CDTITLE:MadGuns22Icon.png;
#SAMPLESTART:115.764;
#SAMPLELENGTH:12.000;
#SELECTABLE:YES;
#OFFSET:-0.021;
#BPMS:0.000=170.000
,30.000=340.000
,32.000=170.000
,127.000=340.000
,128.000=170.000
,206.000=340.000
,208.000=170.000
,222.000=340.000
,224.000=170.000
,319.000=340.000
,320.000=170.000
,382.000=340.000
,384.000=170.000
,414.000=340.000
,416.000=100.000
;
#STOPS:30.000=0.176
,31.000=0.176
,63.500=2.824
,127.000=0.176
,206.000=0.176
,207.000=0.176
,222.000=0.176
,223.000=0.176
,319.000=0.176
,382.000=0.176
,383.000=0.176
,414.000=0.176
,415.000=0.176
;
#DISPLAYBPM:170.000;
#BGCHANGES:;
#FGCHANGES:;

//--------------- dance-single - Mad Guns22 ----------------
#NOTES:
     dance-single:
     Mad Guns22:
     Hard:
     10:
     1,1,0.409,0.129,1:
0000
0000
0000
0000
,
0000
0000
0000
0000
,
0000
0000
0000
0000
,
0000
0000
0000
0000
,
1000
0000
0100
0010
0000
0001
0010
0000
0100
0010
0000
0100
,
0001
0000
0010
0100
0000
1000
0110
0000
0000
0110
0000
0000
,
0001
0000
0010
0100
0000
1000
0100
0000
0010
0100
0000
0010
,
1000
0000
0100
0010
0000
0001
0110
0000
0000
0110
0000
0000
,
0001
0000
1000
0001
0000
0010
0100
0000
0001
0010
0000
0100
,
1000
0000
0001
1000
0000
0100
0011
0000
0000
1100
0000
0000
,
1000
0000
0001
1000
0000
0100
0010
0000
1000
0100
0000
0010
,
0001
0000
1000
0001
0000
0010
1100
0000
0000
0011
0000
0000
,
0100
0000
0001
0010
0000
0100
0010
0000
1000
0100
0000
0001
,
0010
0000
1000
0100
0000
0010
0101
0000
0000
0011
0000
0000
,
0010
0000
1000
0100
0000
0010
0100
0000
0001
0010
0000
1000
,
0001
0000
0000
0000
0000
0000
0000
0000
0100
0000
0000
0000
0000
0000
0000
0000
0010
0000
0000
0000
0000
0000
0000
0000
1000
0000
0000
0000
0000
0000
0000
0000
0001
0000
0000
0000
0000
0000
0000
0000
0100
0000
0000
0000
0000
0000
0000
0000
1010
0000
0000
0000
0000
0000
0000
0000
0000
0000
0000
0000
0000
0000
0000
0000
0000
0000
0000
0000
0000
0000
0000
0000
2200
0000
0000
0000
0000
0000
0000
0000
0000
0000
0000
0000
0000
0000
0000
3300
0000
0000
0000
0000
0000
0000
0000
0000
,
0010
0000
1000
0001
0010
0100
0010
0000
0100
0010
0000
1000
,
0100
0000
0001
1000
0100
0010
0100
0000
0010
0100
0000
0000
,
1000
0000
0001
0010
0100
1000
0001
0000
1000
0001
0000
0010
,
0001
0000
1000
0100
0010
0001
1000
0000
0001
1000
0000
0000
,
0100
0000
0001
1000
0100
0010
0100
0000
0010
0100
0000
0001
,
0010
0000
1000
0001
0010
0100
0010
0000
0100
0010
0000
0000
,
0001
0000
1000
0100
0010
0001
1000
0000
0001
1000
0000
0100
,
1000
0000
0001
0010
0100
1000
0001
0000
1000
0001
0000
0000
,
0110
0000
0001
1000
0000
0010
0100
0000
0001
2000
3000
0100
,
0010
0000
1000
0001
0000
1000
0001
0000
0010
0100
0000
0000
,
1001
0000
0010
0100
1000
0001
0010
0000
0010
0100
0000
0001
,
1000
0000
0100
0010
0000
0100
0010
0000
1000
0002
0000
0003
,
0110
0000
1000
0001
0000
0100
0010
0000
1000
0002
0000
0103
,
0010
0000
0001
1000
0000
0010
0100
0000
0001
2000
0000
3010
,
0001
0000
0010
0100
0000
0100
0010
0000
1000
0001
0000
0001
,
1000
0100
0010
0001
0010
0100
1000
0000
0000
0101
0000
0000
,
0110
0000
1000
0100
0000
0001
0010
0000
0100
0010
0000
0001
,
0100
0000
0001
0010
0000
1000
0100
0000
0010
0100
0000
0000
,
0010
0000
0001
1000
0100
0010
0001
0000
0100
1000
0000
0100
,
1000
0000
0100
0010
0000
0001
1000
0000
0010
1000
0000
0000
,
0100
0000
0001
0010
0000
1000
0100
0000
0010
0100
0000
1000
,
0010
0000
1000
0100
0000
0001
0010
0000
0100
0010
0000
0000
,
0100
0000
1000
0001
0010
0100
1000
0000
0010
0001
0000
0010
,
0001
0000
0010
0100
0000
1000
0001
0000
0100
0001
0000
0000
,
1010
0000
0001
1000
0000
0100
0010
0000
1000
0010
0000
0100
,
1000
0000
0100
0010
0000
0001
1000
0000
0010
1000
0000
0000
,
0010
0000
0100
0001
1000
0010
0100
0000
1000
0001
0000
1000
,
0001
0000
1000
0010
0000
0100
0001
0000
0010
0001
0000
0000
,
1000
0000
0100
0010
0000
0001
1000
0000
0010
1000
0000
0001
,
0010
0000
0001
1000
0000
0100
0010
0000
1000
0010
0000
0000
,
1000
0000
0001
0100
0010
1000
0001
0000
0010
0100
0000
0010
,
0100
0000
0010
1000
0100
0001
0010
0000
1000
0100
0000
0000
,
0001
0000
1000
0010
0000
0100
0010
0000
1000
0010
0000
1000
,
0100
0000
0010
1000
0000
0001
1010
0000
0000
1010
0000
0000
,
0100
0000
0010
1000
0000
0001
1000
0000
0010
1000
0000
0010
,
0001
0000
1000
0010
0000
0100
1010
0000
0000
1010
0000
0000
,
1000
0000
0001
0100
0000
0010
0100
0000
0001
0100
0000
0001
,
0010
0000
0100
0001
0000
1000
0101
0000
0000
0101
0000
0000
,
0010
0000
0100
0001
0000
1000
0001
0000
0100
0001
0000
0100
,
1000
0000
0001
0100
0000
0010
0101
0000
0000
0101
0000
0000
,
1000
0000
0100
0010
0001
1000
0100
0010
0001
1000
0100
0010
,
0001
0000
0010
0100
1000
0001
0010
0100
1000
0001
0010
0100
,
1000
0000
0010
0100
0000
0100
0010
0000
0001
1000
0000
1000
,
0001
0000
0010
0001
0000
1000
0100
0000
1000
0100
0000
0001
,
0020
0030
0100
1000
0001
1000
0001
0000
0100
0010
0000
0001
,
0010
0000
1000
0100
0000
0010
0100
0000
0001
1000
0000
0100
,
0010
0000
0100
0010
0000
1000
0100
0000
0001
0010
0000
0001
,
0010
0100
1000
0100
0010
0001
1010
0000
0000
0110
0000
0000
,
0001
0000
0010
0100
0001
1000
0001
0000
1000
0001
0000
0010
,
1000
0000
0100
0010
1000
0001
1000
0000
0001
1000
0000
0000
,
0010
0000
0100
0001
1000
0010
0100
0000
0010
0100
0000
0001
,
0100
0000
0010
1000
0001
0100
0010
0000
0100
0010
0000
0000
,
1000
0000
0100
0010
1000
0001
1000
0000
0001
1000
0000
0100
,
0001
0000
0010
0100
0001
1000
0001
0000
1000
0001
0000
0000
,
0100
0000
0010
1000
0001
0100
0010
0000
0100
0010
0000
1000
,
0010
0000
0100
0001
1000
0010
0100
0000
0010
0100
0000
0000
,
1100
0000
0010
0001
0000
1000
0100
0000
0010
0200
0000
0301
,
1000
0000
0100
0010
1000
0001
1000
0000
0001
1000
0000
0000
,
0011
0000
0100
1000
0001
0010
1000
0000
0100
0020
0000
1030
,
0001
0000
0010
0100
0001
1000
0001
0000
1000
0002
0000
0003
,
1010
0000
0001
1000
0000
0100
0010
0000
1000
0002
0000
0013
,
0100
0000
1000
0001
0000
0010
0100
0000
0001
2000
0000
3100
,
0001
0000
0001
1000
0000
1000
0010
0000
0010
0100
0000
0010
,
0001
0010
0100
1000
0100
0010
0001
0000
0000
1010
0000
0000
,
0110
0000
0001
0010
0000
1000
0100
0000
0010
0100
0000
1000
,
0010
0000
1000
0100
0000
0001
0010
0000
0100
0010
0000
0000
,
0100
0000
1000
0001
0010
0100
1000
0000
0010
0001
0000
0010
,
0001
0000
0010
0100
0000
1000
0001
0000
0100
0001
0000
0000
,
0010
0000
1000
0100
0000
0001
0010
0000
0100
0010
0000
0001
,
0100
0000
0001
0010
0000
1000
0100
0000
0010
0100
0000
0000
,
0010
0000
0001
1000
0100
0010
0001
0000
0100
1000
0000
0100
,
1000
0000
0100
0010
0000
0001
1000
0000
0010
1000
0000
0000
,
0101
0000
1000
0001
0000
0010
0100
0000
0001
0100
0000
0010
,
0001
0000
0010
0100
0000
1000
0001
0000
0100
0001
0000
0000
,
0100
0000
0010
1000
0001
0100
0010
0000
0001
1000
0000
0001
,
1000
0000
0001
0100
0000
0010
1000
0000
0100
1000
0000
0000
,
0001
0000
0010
0100
0000
1000
0001
0000
0100
0001
0000
1000
,
0100
0000
1000
0001
0000
0010
0100
0000
0001
0100
0000
0000
,
0001
0000
1000
0010
0100
0001
1000
0000
0100
0010
0000
0100
,
0010
0000
0100
0001
0000
1000
0110
0000
0000
1001
0000
0000
,
1000
0100
1000
0000
0001
0010
0001
0000
,
1000
0001
1000
0000
0001
1000
0001
0100
,
0010
0100
0010
0000
0100
0010
0100
0000
,
1000
0100
0010
0000
0001
0010
0100
1000
,
0001
0010
0001
0000
1000
0100
1000
0000
,
0100
0010
0100
0000
0010
0100
0010
0100
,
0001
0010
1000
0000
1000
0100
0001
0000
,
1000
0000
0000
0000
0100
0000
0010
0000
0000
0001
0000
0000
0110
0000
0000
0000
0000
0000
0101
0000
0000
0000
0000
0000
;
