#TITLE:Boing;
#SUBTITLE:;
#ARTIST:Dougal & Gammer;
#TITLETRANSLIT:;
#SUBTITLETRANSLIT:;
#ARTISTTRANSLIT:;
#GENRE:HardCore;
#CREDIT:Mad Guns22;
#MUSIC:Boing.mp3;
#BANNER:Project default banner.png;
#BACKGROUND:Project default background.png;
#CDTITLE:MadGuns22Icon.png;
#SAMPLESTART:21.000;
#SAMPLELENGTH:12.000;
#SELECTABLE:YES;
#OFFSET:-0.024;
#BPMS:0.000=180.000
,60.000=360.000
,64.000=180.000
,78.000=360.000
,80.000=180.000
,94.000=360.000
,96.000=180.000
,110.000=360.000
,111.000=180.000
,111.021=360.000
,112.000=180.000
,126.000=360.000
,128.000=180.000
,142.000=360.000
,144.000=180.000
,158.000=360.000
,160.000=180.000
,174.000=360.000
,176.000=180.000
;
#STOPS:60.000=0.167
,61.000=0.167
,62.000=0.167
,63.000=0.167
,78.000=0.167
,79.000=0.167
,94.000=0.167
,95.000=0.167
,110.000=0.167
,111.000=0.167
,126.000=0.167
,127.000=0.167
,142.000=0.167
,143.000=0.167
,158.000=0.167
,159.000=0.167
,174.000=0.167
,175.000=0.167
;
#DISPLAYBPM:180.000;
#BGCHANGES:;
#FGCHANGES:;

//--------------- dance-single - Mad Guns22 ----------------
#NOTES:
     dance-single:
     Mad Guns22:
     Challenge:
     10:
     0.914,1,1,0.48,0.328:
0000
0000
0000
0000
,
0000
0000
0000
0000
,
0000
0000
0000
0000
,
0000
0000
0000
0000
,
2000
3200
2300
3200
,
0320
0000
0230
0000
0302
0023
0032
0023
,
0032
0023
0032
0023
,
0230
0000
0320
0000
2030
3200
2300
3200
,
0311
0000
0010
0100
0010
0100
0010
0000
,
1100
0000
0010
0100
0010
0100
0010
0000
,
0101
0000
0010
0100
0010
0100
0010
0000
,
1001
0000
0010
0100
0010
0100
0010
0000
,
0110
0000
1000
0100
1000
0000
0001
0010
0001
0000
0100
0010
0100
0000
1000
0001
,
1000
0100
1000
0100
1000
0100
1000
0100
0001
0100
0001
0100
0001
0100
0001
0100
,
0011
0010
0110
0010
1010
0010
0011
0010
,
0101
0011
1100
MMMM
,
1100
0110
0101
1100
,
1010
0000
1001
0000
0010
0001
1000
0100
,
0011
0110
1010
0011
,
0101
1001
0110
1001
,
1010
0101
0110
1001
,
0110
0000
1100
0000
0010
1000
0010
0100
,
0011
0011
1100
1100
,
1001
0000
0000
0000
0000
0000
0000
0000
0000
0000
0000
0000
0000
0000
0000
0000
0000
0000
0000
0000
0000
0000
0000
0000
0000
0000
0000
0000
0000
0000
0000
0000
0000
0000
0000
0000
0000
0000
0000
0000
0000
0000
0000
0000
0000
0000
0000
0000
0110
0000
0000
0000
0000
0000
0000
0000
0000
0000
0000
0000
0000
0000
0000
0000
0000
0000
0000
0000
0000
0000
0000
0000
0000
0000
0000
0000
0000
0000
0000
0000
0000
0000
0000
0000
0000
0000
0000
0000
0000
0000
0000
0000
0000
0000
0000
0000
2000
0000
0000
0000
0000
0000
0000
0000
0000
0000
0000
0000
0000
0000
0000
0000
0000
0000
0000
0000
0000
0000
0000
0000
0000
0000
0000
0000
0000
0000
0000
0000
0000
0000
0000
0000
0000
0000
0000
0000
0000
0000
0000
0000
0000
0000
0000
0000
0020
3000
0000
0000
0000
0000
0000
0000
0000
0000
0000
0000
0000
0000
0000
0000
0000
0000
0000
0000
0000
0000
0000
0000
0030
0000
0000
0000
0000
0000
0000
0000
0000
0000
0000
0000
0000
0000
0000
0000
0000
0000
0000
0000
0000
0000
0000
0000
,
1001
1010
1100
1010
,
1001
0000
0101
0000
0010
0100
0010
0001
,
0110
0101
0110
1001
,
0110
0000
0000
0000
0000
0000
0000
0000
0000
0000
0000
0000
0000
0000
0000
0000
0000
0000
0000
0000
0000
0000
0000
0000
0000
0000
0000
0000
0000
0000
0000
0000
0000
0000
0000
0000
0000
0000
0000
0000
0000
0000
0000
0000
0000
0000
0000
0000
1001
0000
0000
0000
0000
0000
0000
0000
0000
0000
0000
0000
0000
0000
0000
0000
0000
0000
0000
0000
0000
0000
0000
0000
0000
0000
0000
0000
0000
0000
0000
0000
0000
0000
0000
0000
0000
0000
0000
0000
0000
0000
0000
0000
0000
0000
0000
0000
1010
0000
0000
0000
0000
0000
0000
0000
0000
0000
0000
0000
0000
0000
0000
0000
0000
0000
0000
0000
0000
0000
0000
0000
0000
0000
0000
0000
0000
0000
0000
0000
0000
0000
0000
0000
0000
0000
0000
0000
0000
0000
0000
0000
0000
0000
0000
0000
2200
3300
0000
0000
0000
0000
0000
0000
0000
0000
0000
0000
0000
0000
0000
0000
0000
0000
0000
0000
0000
0000
0000
0000
0000
0000
0000
0000
0000
0000
0000
0000
0000
0000
0000
0000
0000
0000
0000
0000
0000
0000
0000
0000
0000
0000
0000
0000
,
1100
1100
1010
1010
,
0101
0000
1010
0000
1000
0100
0001
0100
,
1001
1100
1010
1001
,
0011
0000
0000
0000
0000
0000
0000
0000
0000
0000
0000
0000
0000
0000
0000
0000
1010
0000
0000
0000
0000
0000
0000
0000
0000
0000
0000
0000
0000
0000
0000
0000
0040
0000
0000
0000
0000
0000
0000
0000
0000
0000
0000
0000
0000
0000
0000
0000
0100
0030
0000
0000
0000
0000
0000
0000
0000
0000
0000
0000
0000
0000
0000
0000
,
1010
0101
1100
1100
,
1010
0000
1001
0000
0001
0010
0001
1000
,
0110
1001
0110
1001
,
1010
0101
0110
1001
,
1010
0110
1100
0110
,
0011
0000
0110
0000
1000
0100
1000
0001
,
0110
0101
1100
1010
,
0101
0000
0000
0000
0000
0000
0000
0000
0000
0000
0000
0000
0000
0000
0000
0000
0000
0000
0000
0000
0000
0000
0000
0000
0000
0000
0000
0000
0000
0000
0000
0000
0000
0000
0000
0000
0000
0000
0000
0000
0000
0000
0000
0000
0000
0000
0000
0000
1010
0000
0000
0000
0000
0000
0000
0000
0000
0000
0000
0000
0000
0000
0000
0000
0000
0000
0000
0000
0000
0000
0000
0000
0000
0000
0000
0000
0000
0000
0000
0000
0000
0000
0000
0000
0000
0000
0000
0000
0000
0000
0000
0000
0000
0000
0000
0000
0200
0000
0000
0000
0000
0000
0000
0000
0000
0000
0000
0000
0000
0000
0000
0000
0000
0000
0000
0000
0000
0000
0000
0000
0000
0000
0000
0000
0000
0000
0000
0000
0000
0000
0000
0000
0000
0000
0000
0000
0000
0000
0000
0000
0000
0000
0000
0000
0002
0300
0000
0000
0000
0000
0000
0000
0000
0000
0000
0000
0000
0000
0000
0000
0000
0000
0000
0000
0000
0000
0000
0000
0003
0000
0000
0000
0000
0000
0000
0000
0000
0000
0000
0000
0000
0000
0000
0000
0000
0000
0000
0000
0000
0000
0000
0000
,
0110
1100
0110
0101
,
0110
0000
1100
0000
1000
0001
0010
1000
,
1010
1001
0101
0110
,
1100
0110
1001
1001
,
0110
0101
1100
0101
,
0011
0000
0110
0000
1100
0100
1100
1000
,
0110
0101
1100
1010
,
1000
0000
0000
0000
1000
0000
1000
0001
1000
0000
0001
0000
0110
0000
0000
0000
,
1100
0000
0100
0000
0101
0000
0010
0100
0010
0100
0000
0020
0000
0030
0000
0000
,
0011
0000
0010
0000
1010
0000
0100
0010
0100
0010
0000
0200
0000
0300
0000
0000
,
1100
0000
1000
0000
1001
0000
0010
1000
0010
1000
0000
0020
0000
0030
0000
0000
,
0100
0000
0000
0000
0001
0000
1000
0100
0001
0000
0010
0000
0020
0000
0030
0000
,
0011
0000
0001
0000
1001
0000
0100
0001
0100
0001
0000
0200
0000
0300
0000
0000
,
1100
0000
1000
0000
1001
0000
0010
1000
0010
1000
0000
0020
0000
0030
0000
0000
,
0011
0000
0010
0000
1010
0000
0100
0010
0100
0010
0000
0200
0000
0300
0000
0000
,
1000
0000
0000
0000
0001
0000
0100
1000
0001
0000
0010
0000
2002
0000
3003
0000
,
1100
0000
1000
0000
1001
0000
0010
1000
0010
1000
0000
0020
0000
0030
0000
0000
,
0011
0000
0001
0000
1001
0000
0100
0001
0100
0001
0000
0200
0000
0300
0000
0000
,
1100
0000
0100
0000
0101
0000
0010
0100
0010
0100
0000
0020
0000
0030
0000
0000
,
1001
0000
0000
0000
0001
0000
0100
1000
0001
0000
0010
0000
1001
0000
0000
0000
,
1100
0000
0100
0000
0101
0000
0010
0100
0010
0100
0000
0020
0000
0030
0000
0000
,
0011
0000
0010
0000
0010
0000
0100
0010
1100
0010
0000
0200
0000
0300
0000
0000
,
1100
0000
1000
0000
1001
0000
0010
1000
0011
1000
0000
1000
0110
0000
0000
0000
,
1000
0001
1000
0001
1000
0001
1000
0001
2000
0000
0000
0000
0000
0000
3000
0000
,
1001
0000
0000
0000
;
