#TITLE:Blurry Motion;
#SUBTITLE:;
#ARTIST:Nitrous Oxide;
#TITLETRANSLIT:;
#SUBTITLETRANSLIT:;
#ARTISTTRANSLIT:;
#GENRE:Trance;
#CREDIT:Mad Guns22;
#BANNER:Project default banner.png;
#BACKGROUND:Project default background.png;
#LYRICSPATH:;
#CDTITLE:MadGuns22Icon.png;
#MUSIC:Blurry Motion.ogg;
#OFFSET:0.000;
#SAMPLESTART:107.462;
#SAMPLELENGTH:12.000;
#SELECTABLE:YES;
#DISPLAYBPM:134.000;
#BPMS:0.000=134.000;
#STOPS:;
#BGCHANGES:;
#KEYSOUNDS:;

//---------------dance-single - Mad Guns22----------------
#NOTES:
     dance-single:
     Mad Guns22:
     Easy:
     2:
     0.162,0.251,0.065,0.152,0.000:
0000
0000
0000
0000
,
0000
0000
0000
0000
,
0000
0000
0000
0000
,
0000
0000
0000
0000
,
0100
0000
0100
0000
,
0001
0000
0001
0001
,
0100
0000
0100
0000
,
1000
0000
1000
1000
,
1001
0000
0010
0000
,
0100
0000
0001
0001
,
0100
0000
0010
0000
,
0100
0000
0010
0010
,
1000
0000
0100
0000
,
1000
0000
0001
0001
,
0010
0000
0100
0000
,
0100
0000
0010
0010
,
2000
0000
0000
0000
,
3000
0000
0000
0000
,
0020
0000
0000
0000
,
0030
0000
0000
0000
,
0202
0000
0000
0000
,
0303
0000
0000
0000
,
0200
0000
0000
0000
,
0300
0000
0000
0000
,
1001
0000
0010
0000
,
0100
0000
0010
0000
,
1000
0000
0001
0000
,
0010
0000
1000
1000
,
0100
0000
0010
0000
,
0001
0000
0010
0000
,
0100
0000
1000
0000
,
0010
0000
1000
1000
,
1000
0000
0100
0000
,
0010
0000
0100
0000
,
0001
0000
1000
0000
,
0100
0000
0001
0001
,
0010
0000
0100
0000
,
0001
0000
0100
0000
,
1000
0000
0010
0000
,
0100
0000
0000
0000
0020
0000
0000
0030
,
0100
0000
0010
0000
,
1000
0000
0010
0000
,
0001
0000
0100
0000
,
0010
0000
0000
0000
0200
0000
0000
0300
,
0020
0000
0000
0000
,
0000
0000
0000
0000
,
0030
0000
0000
0000
,
0000
0000
0000
0000
,
0020
0000
0000
0000
,
0000
0000
0000
0000
,
0030
0000
0000
0000
,
0020
0000
0000
0030
,
1010
0000
0000
0000
,
0001
0001
0001
0002
,
0000
0000
0000
0000
,
0003
0000
0000
0000
,
0101
0000
0000
0000
,
0100
0100
0100
0200
,
0000
0000
0000
0000
,
0300
0000
0200
0300
,
1001
0010
0100
0010
,
0100
0100
0010
0010
,
1000
0000
0001
0000
,
1000
1000
0001
0001
,
1000
0001
0001
1000
,
1000
1000
0001
0001
,
1000
0000
0010
0000
,
0001
0001
0100
0100
,
2200
0000
0300
0000
,
3000
0000
0001
0000
,
0202
0000
0003
0000
,
0300
0000
0001
0000
,
0002
0000
0000
0000
,
0003
0000
0000
0000
,
0020
0000
0000
0000
,
0030
0000
0000
0000
,
2002
0000
0000
0000
,
3003
0000
0000
0000
;

//---------------dance-single - Mad Guns22----------------
#NOTES:
     dance-single:
     Mad Guns22:
     Hard:
     8:
     0.432,0.502,0.036,0.377,0.326:
0000
0000
0000
0000
,
0000
0000
0000
0000
,
0000
0000
0000
0000
,
0000
0000
0000
0000
,
0000
0000
0000
0100
0000
0000
1000
0000
0000
0000
0000
0100
0000
0000
0001
0000
,
0000
0000
0000
1000
0000
0000
0100
0000
0000
0000
0000
0100
0000
0000
1000
0000
,
0000
0000
0000
0001
0000
0000
0010
0000
0000
0000
0000
0010
0000
0000
0001
0000
,
0000
0000
0000
0010
0000
0000
0100
0000
0000
0000
0000
0100
0000
0000
0010
0000
,
1000
0100
1000
0100
0001
0010
0001
1000
,
0010
0100
0010
0100
0001
0100
0001
0001
,
0001
0010
0001
0010
1000
0100
1000
0001
,
0100
0010
0100
0010
1000
0010
1000
1000
,
0001
0010
0001
0010
1000
0100
1000
0001
,
0100
0010
0100
0010
1000
0010
1000
1000
,
1000
0100
1000
0100
0001
0010
0001
1000
,
0010
0100
0010
0100
0001
0100
0001
0001
,
2000
0000
0000
0100
0000
0000
0001
0000
0000
0000
0000
0010
0000
0000
0010
0000
,
3200
0000
0000
0001
0000
0000
0010
0000
0000
0000
0000
0001
0000
0000
0001
0000
,
2300
0000
0000
0100
0000
0000
0010
0000
0000
0000
0000
0100
0000
0000
0100
0000
,
3002
0000
0000
0010
0000
0000
0100
0000
0000
0000
0000
1000
0000
0000
1000
0000
,
0203
0000
0000
0001
0000
0000
0010
0000
0000
0000
0000
1000
0000
0000
1000
0000
,
2300
0000
0000
0001
0000
0000
0010
0000
0000
0000
0000
0001
0000
0000
0001
0000
,
3020
0000
0000
0100
0000
0000
1000
0000
0000
0000
0000
0001
0000
0000
0001
0000
,
0230
0000
0000
0010
0000
0000
0001
0000
0000
0000
0000
0010
0000
0000
0310
0000
,
0101
0000
0000
0100
0000
0000
0100
0000
0010
0000
0000
0010
0000
0000
0010
0000
,
1000
0000
0000
1000
0000
0000
1000
0000
0001
0000
0000
0001
0000
0000
0001
1000
,
0001
0000
0000
0100
0000
0000
1000
0000
0001
0000
0000
0010
0000
0000
0001
0000
,
1000
0000
0000
0010
0000
0000
1000
0000
0010
0000
0000
0001
0000
0000
0010
0100
,
0001
0000
0000
1000
0000
0000
1000
0000
0001
0000
0000
0001
0000
0000
0001
0000
,
0100
0000
0000
0100
0000
0000
0100
0000
0010
0000
0000
0010
0000
0000
0010
0100
,
0010
0000
0000
1000
0000
0000
0100
0000
0010
0000
0000
0001
0000
0000
0010
0000
,
0100
0000
0000
0001
0000
0000
0100
0000
0001
0000
0000
0010
0000
0000
0001
1000
,
0001
0000
0000
0001
0000
0000
0001
0000
1000
0000
0000
1000
0000
0000
1000
0000
,
0010
0000
0000
0010
0000
0000
0010
0000
0100
0000
0000
0100
0000
0000
0100
0010
,
1000
0000
0000
0010
0000
0000
0001
0000
1000
0000
0000
0100
0000
0000
1000
0000
,
0100
0000
0000
0001
0000
0000
0100
0000
0001
0000
0000
0010
0000
0000
0001
1000
,
0200
0000
0000
0001
0300
0000
0001
0000
2000
0000
0000
0001
3000
0000
0001
0000
,
0020
0000
0000
1000
0030
0000
1000
0000
0002
0000
0000
1000
0003
0000
1000
0000
,
0020
0000
0000
1000
0030
0000
1000
0000
0002
0000
0000
1000
0003
0000
1000
0000
,
0200
0000
0000
0001
0300
0000
0001
0000
2000
0000
0000
0001
3000
0000
0001
0000
,
2000
0000
0000
0010
3000
0000
0010
0000
0200
0000
0000
0010
0300
0000
0010
0000
,
0002
0000
0000
0100
0003
0000
0100
0000
0020
0000
0000
0100
0030
0000
0100
0000
,
0002
0000
0000
0100
0003
0000
0100
0000
0020
0000
0000
0100
0030
0000
0100
0000
,
2000
0000
0000
0010
3000
0000
0010
0000
0200
0000
0000
0010
0300
0000
0010
0000
,
2200
0000
0000
0000
,
3000
0000
0000
0000
,
0320
0000
0000
0000
,
2000
0000
0000
0000
,
0030
0000
0000
0000
,
3002
0000
0000
0000
,
0023
0000
0000
0000
,
0230
0000
0000
0300
,
2020
0000
3030
0000
0000
0000
0000
0002
,
0023
0000
0030
0200
0000
0300
2000
0000
,
3000
0000
0000
0001
0000
0000
0010
0000
0000
0000
0000
0100
0000
0000
1000
0000
,
0000
0000
0000
0010
0000
0000
0001
0000
0000
0000
0000
0100
0000
0000
0001
0000
,
0020
0000
0030
0100
0000
0000
1000
0000
0000
0000
0000
0000
0000
0000
0002
0000
,
0203
0000
0300
0020
0000
0030
2000
0000
,
3000
0200
0000
0000
0000
0000
0000
0000
,
0300
0000
2000
3000
,
1010
0100
1000
0010
1000
0001
1000
0010
,
0001
0000
0100
0000
0001
0000
0010
0000
0001
0000
0100
0000
0001
0000
0010
0100
,
0010
0100
0010
1000
0010
0100
0010
0001
,
0100
0000
0010
0000
0100
0000
0001
0000
0100
0000
1000
0000
0100
0000
1000
0100
,
1000
0010
1000
0100
1000
0100
0010
0001
,
1000
0000
0100
0000
1000
0000
0010
0000
0001
0000
0010
0000
0100
0000
1000
0100
,
1000
0000
0000
0100
0000
0000
1000
0000
0001
0000
0000
0010
0000
0000
0001
0000
,
0010
0000
0000
0100
0000
0000
0010
0000
1000
0000
0000
0001
0000
0000
1000
0000
,
0000
0000
0000
0010
0000
0000
0010
0000
0000
0000
0000
0010
0000
0000
0001
0000
,
0000
0000
0000
0100
0000
0000
0100
0000
0000
0000
0000
0100
0000
0000
1000
0000
,
0000
0000
0000
0100
0000
0000
0100
0000
0000
0000
0000
0100
0000
0000
0010
0000
,
0000
0000
0000
1000
0000
0000
0010
0000
0000
0000
0000
0010
0000
0000
0001
0000
,
0200
0000
0000
0000
0000
0000
0300
0020
,
2030
3000
0000
0002
0003
0000
2000
3000
,
0000
0020
0000
0000
0000
0000
0000
0000
,
0000
0000
0030
0000
,
0220
0000
0000
0000
,
0330
0000
0000
0000
;

//---------------dance-single - Mad Guns22----------------
#NOTES:
     dance-single:
     Mad Guns22:
     Medium:
     5:
     0.317,0.391,0.015,0.377,0.015:
0000
0000
0000
0000
,
0000
0000
0000
0000
,
0000
0000
0000
0000
,
0000
0000
0000
0000
,
0000
1000
0000
0001
,
0000
1000
0000
0100
,
0000
0100
0000
0001
,
0000
1000
0000
0010
,
0001
0001
1000
1000
,
0100
0010
0100
0000
1000
0010
1000
0001
,
1000
1000
0001
0001
,
0010
0100
0010
0100
0001
0100
0001
0010
,
0100
0100
1000
1000
,
0100
0010
0100
0000
1000
0010
1000
0100
,
0001
0001
1000
1000
,
0100
0010
0100
0010
1000
0010
1000
0001
,
0200
0000
0000
0000
,
0320
0000
0000
0000
,
0032
0000
0000
0000
,
2003
0000
0000
0000
,
3020
0000
0000
0000
,
0032
0000
0000
0000
,
0203
0000
0000
0000
,
0320
0000
0000
0000
0000
0000
0000
0030
,
1000
0100
1000
0000
0001
0010
0001
0000
,
1000
0100
1000
0000
0001
0010
0100
1000
,
0010
0100
0010
0000
0100
0010
0100
0000
,
0010
0100
0010
0000
0001
1000
0100
0010
,
1000
0100
1000
0000
0001
1000
0001
0000
,
0010
0001
0010
0000
0001
1000
0001
1000
,
0100
0010
0100
0000
1000
0100
1000
0000
,
0001
0010
0001
0000
1000
0100
0010
0100
,
0001
0010
0001
0000
0100
0010
0100
0000
,
0001
0010
0100
0000
0100
0010
0001
1000
,
0001
0010
0100
0000
0100
1000
0001
0000
,
0001
1000
0100
0000
0010
0001
1000
0100
,
0002
0000
0000
0003
2000
0000
0000
3000
,
0020
0000
0000
0030
1000
0000
0001
0000
,
0020
0000
0000
0030
0002
0000
0000
0003
,
0200
0000
0000
0000
0300
0000
0000
0000
2000
0000
0000
0001
3000
0000
0001
0000
,
2000
0000
0000
3000
0002
0000
0000
0003
,
0200
0000
0000
0300
0001
0000
1000
0000
,
0200
0000
0000
0300
2000
0000
0000
3000
,
0020
0000
0000
0000
0030
0000
0000
0000
0002
0000
0000
1000
0003
0000
1000
0000
,
0200
0000
0000
0000
,
0000
0000
0000
0000
,
0320
0000
0000
0000
,
0000
0000
0000
0000
,
0230
0000
0000
0000
,
0302
0000
0000
0000
,
0203
0000
0000
0000
,
0000
0000
0000
0300
,
2020
0000
3030
0000
0000
0000
0000
0002
,
0023
0000
0030
0200
0000
0300
2000
0000
,
3000
0000
0000
0000
0001
0000
0100
0000
0000
0000
0000
1000
0000
0000
0010
0000
,
0000
0000
0000
0000
0100
0000
0001
0000
0000
0000
0000
1000
0000
0000
0001
0000
,
0200
0300
1000
0010
0000
0000
0000
0002
,
2003
0000
3000
0020
0000
0030
2000
0000
,
3000
0200
0000
0000
0000
0000
0000
0000
,
0300
0000
0000
0000
,
0001
0010
0001
0000
0001
1000
0001
0100
,
1000
0010
1000
0000
1000
0010
1000
0100
,
0001
0010
0100
0000
0100
0010
0100
1000
,
0010
0100
0010
0000
0010
0001
0010
0001
,
1000
0100
0001
0000
0001
0010
0100
1000
,
0001
0010
0001
0000
1000
0100
0010
0001
,
1000
0100
0000
0000
0001
0010
0000
0001
,
0010
0100
0000
0000
1000
0001
0000
1000
,
0020
0000
0030
0000
0000
0000
0000
0200
,
0302
0000
0003
0200
0000
0300
2000
0000
,
0000
0000
0000
0000
,
0000
0000
0000
0000
0000
0000
0000
3000
,
0200
0000
0000
0000
0000
0300
0000
0002
,
0023
0000
0030
0002
0000
0003
2000
0000
,
3000
0200
0000
0000
0000
0000
0000
0000
,
0000
0000
0000
0300
,
0202
0000
0000
0000
,
0303
0000
0000
0000
;

//---------------dance-single - Mad Guns22----------------
#NOTES:
     dance-single:
     Mad Guns22:
     Beginner:
     1:
     0.082,0.140,0.044,0.109,0.000:
0000
0000
0000
0000
,
0000
0000
0000
0000
,
0000
0000
0000
0000
,
0000
0000
0000
0000
,
0001
0000
0000
0000
,
1000
0000
0000
0000
,
0001
0000
0000
0000
,
0100
0000
0000
0000
,
1100
0000
0000
0000
,
0001
0000
0000
0000
,
0001
0000
0000
0000
,
0001
0000
0000
0000
,
0100
0000
0000
0000
,
0100
0000
0000
0000
,
0010
0000
0000
0000
,
0001
0000
0000
0000
,
0200
0000
0000
0000
,
0300
0000
0000
0000
,
0020
0000
0000
0000
,
0030
0000
0000
0000
,
2000
0000
0000
0000
,
3000
0000
0000
0000
,
0002
0000
0000
0000
,
0003
0000
0000
0000
,
1100
0000
0000
0000
,
0001
0000
0000
0000
,
0100
0000
0000
0000
,
0010
0000
0000
0000
,
0001
0000
0000
0000
,
1000
0000
0000
0000
,
0001
0000
0000
0000
,
0010
0000
0000
0000
,
0100
0000
0000
0000
,
0010
0000
0000
0000
,
1000
0000
0000
0000
,
0001
0000
0000
0000
,
0010
0000
0000
0000
,
1000
0000
0000
0000
,
0100
0000
0000
0000
,
0001
0000
0000
0000
,
0001
0000
0000
0000
,
0100
0000
0000
0000
,
1000
0000
0000
0000
,
0010
0000
0000
0000
,
0002
0000
0000
0000
,
0003
0000
0000
0000
,
0000
0000
0000
0000
,
0000
0000
0000
0000
,
0020
0000
0000
0000
,
0000
0000
0000
0000
,
0030
0000
0000
0000
,
0020
0000
0000
0030
,
0110
0000
0000
0000
,
1000
0000
0000
2000
,
0000
0000
0000
0000
,
3000
0000
0000
0000
,
1001
0000
0000
0000
,
0001
0000
0000
0002
,
0000
0000
0000
0000
,
0003
0000
0000
0000
,
1100
0000
0000
0000
,
0001
0000
0000
0000
,
0100
0000
0000
0000
,
0010
0000
0000
0000
,
1000
0000
0000
0000
,
0001
0000
0000
0000
,
0100
0000
0000
0000
,
1000
0000
0000
0000
,
0200
0000
0000
0000
,
0300
0000
0000
0000
,
0002
0000
0000
0000
,
0003
0000
0000
0000
,
2000
0000
0000
0000
,
3000
0000
0000
0000
,
0020
0000
0000
0000
,
0030
0000
0000
0000
,
2200
0000
0000
0000
,
3300
0000
0000
0000
;
