#TITLE:Bla Bla Bla;
#SUBTITLE:;
#ARTIST:Gigi D'Agostino;
#TITLETRANSLIT:;
#SUBTITLETRANSLIT:;
#ARTISTTRANSLIT:;
#GENRE:;
#CREDIT:Mad Guns22;
#BANNER:Project default banner.png;
#BACKGROUND:Project default background.png;
#LYRICSPATH:;
#CDTITLE:MadGuns22Icon.png;
#MUSIC:Bla Bla Bla.mp3;
#OFFSET:-0.046;
#SAMPLESTART:18.045;
#SAMPLELENGTH:12.000;
#SELECTABLE:YES;
#DISPLAYBPM:133.000;
#BPMS:0.000=133.000;
#STOPS:;
#BGCHANGES:;
#KEYSOUNDS:;

//---------------dance-single - Mad Guns22----------------
#NOTES:
     dance-single:
     Mad Guns22:
     Hard:
     8:
     0.515,0.553,0.450,0.133,0.000:
0000
0000
0000
0000
,
0000
0000
0000
0000
,
1000
0000
1000
0000
1100
0000
0010
0100
,
0001
0000
0001
0000
0011
0000
0001
0100
,
0010
0000
0010
0000
0110
0000
1000
0010
,
0100
0010
0100
0010
0110
0000
0001
0100
,
0010
0100
0010
1000
1010
0000
0001
1000
,
0100
0000
0100
0000
0101
0000
0100
1000
,
0001
0000
0001
0000
1001
0000
0010
0001
,
1000
0000
1000
0001
1001
0000
0000
0000
,
0100
0000
0100
0000
1100
0000
0010
1000
,
0001
0000
0001
0000
0011
0000
0001
1000
,
0010
0000
0010
0000
1010
0000
0100
0010
,
1000
0010
1000
0010
1010
0000
0001
1000
,
0010
1000
0010
0100
0110
0000
0001
0100
,
1000
0000
1000
0000
1001
0000
1000
0100
,
0001
0000
0001
0000
0101
0000
0010
0001
,
0100
0010
0100
0010
,
0100
0010
0100
0010
0110
0000
0001
0100
,
0010
0000
0010
0000
0011
0000
0100
1000
,
0001
0000
0001
0000
0101
0000
0010
1000
,
1000
0100
1100
1000
1000
0100
1001
1000
,
1000
0100
1100
1000
1000
0010
1010
0001
,
0001
0010
0011
0001
0001
0010
1001
0001
,
0001
0010
0011
0001
0001
0100
0101
0001
,
0010
1000
1010
0010
0010
1000
0110
0010
,
0010
1000
1010
0010
0010
0001
0011
0010
,
1000
0010
1000
0010
1010
0000
0001
1000
,
0010
0000
0010
0000
0110
0000
0001
0100
,
1000
0000
1000
0000
1001
0000
1000
0100
,
0001
0010
0001
0100
0101
0000
0020
0000
,
1000
1030
1000
1000
,
0001
0001
0001
0001
,
1000
0100
1000
0100
,
0001
0100
0001
0100
,
0001
0100
0001
0000
0001
0100
0001
0000
,
1000
0100
1000
0000
1000
0100
1000
0000
,
1000
0100
0010
0000
0001
0100
0010
0000
,
1000
0001
0100
0000
0010
1000
0001
0000
,
0101
0010
0001
0000
0001
0000
0002
0003
,
1000
0100
1000
0000
1000
0000
2000
3000
,
0101
1000
0010
0000
0001
0000
0020
0030
,
1000
0100
0010
0000
1000
0000
0020
0030
,
1000
0010
1000
0000
1000
0010
2000
3000
,
0001
0010
0001
0000
0001
0010
0002
0003
,
0001
0010
0100
0000
1000
0010
0200
0300
,
0001
1000
0010
0000
0100
0001
2000
3000
,
1000
0000
1000
0000
1000
0000
2000
3000
,
0001
0000
0001
0000
0001
0000
0002
0003
,
1000
0000
0100
0000
1000
0000
0200
0300
,
0001
0000
0100
0000
0001
0000
0200
0300
,
0001
0100
0001
0000
0001
0100
0002
0003
,
1000
0100
1000
0000
1000
0100
2000
3000
,
1000
0100
0010
0000
0001
0100
0020
0030
,
1001
0110
1001
0110
,
0001
0000
0001
0000
1001
0000
1000
0100
,
0010
0000
0010
0000
0110
0000
0100
1000
,
0010
0000
1000
0000
1010
0000
0100
0010
,
0001
1000
0001
1000
0110
0000
1000
0001
,
1000
0100
1000
0100
1001
0000
0001
0010
,
0100
0000
0100
0000
0110
0000
0010
0001
,
0100
0000
0001
0000
0101
0000
0010
0100
,
1000
0001
1000
0001
0110
0000
0000
0000
,
0100
0000
0100
0000
1100
0000
0010
1000
,
0001
0000
0001
0000
0011
0000
0001
1000
,
0010
0000
0010
0000
1010
0000
0100
0010
,
1000
0010
1000
0010
1010
0000
0001
1000
,
0010
1000
0010
0100
0110
0000
0001
0100
,
1000
0000
1000
0000
1001
0000
1000
0100
,
0001
0000
0001
0000
0101
0000
0010
0001
,
0100
0100
0110
0010
0100
0100
0110
0010
,
0100
0010
0100
0010
0110
0000
1000
0010
,
0001
0000
1000
0000
1001
0000
0001
0100
,
0010
0000
0010
0000
1010
0000
0100
0010
,
0100
1000
0001
0010
0100
0000
0220
0000
,
0330
0000
0000
0000
;
