#TITLE:Bangarang;
#SUBTITLE:;
#ARTIST:Skrillex feat. Sirah;
#TITLETRANSLIT:;
#SUBTITLETRANSLIT:;
#ARTISTTRANSLIT:;
#GENRE:;
#CREDIT:Mad Guns22;
#MUSIC:Bangarang.ogg;
#BANNER:Project default banner.png;
#BACKGROUND:Project default background.png;
#CDTITLE:MadGuns22Icon.png;
#SAMPLESTART:95.980;
#SAMPLELENGTH:12.000;
#SELECTABLE:YES;
#OFFSET:-0.007;
#BPMS:0.000=110.000
,47.500=220.000
,48.000=110.000
,79.500=220.000
,80.000=110.000
,140.000=220.000
,144.000=110.000
,145.500=220.000
,146.000=110.000
;
#STOPS:47.500=0.136
,79.500=0.136
,145.500=0.136
;
#DISPLAYBPM:110.000;
#BGCHANGES:;
#FGCHANGES:;

//--------------- dance-single - Mad Guns22 ----------------
#NOTES:
     dance-single:
     Mad Guns22:
     Hard:
     9:
     1,1,0.885,1,1:
0000
0000
0000
0000
,
0000
0000
0000
0000
,
0000
0000
0000
0000
,
0000
0000
0000
0000
,
0001
0000
1000
0000
0001
0000
0100
0000
0001
0000
1000
0001
1000
0001
1000
0001
,
1000
0001
1000
0010
1000
0001
0011
0110
,
1000
0000
0001
0000
1000
0000
0010
0000
1000
0000
0001
1000
0001
1000
0001
1000
,
0001
1000
0001
0100
0001
1000
1100
0110
,
0100
0000
0010
0000
0100
0000
1000
0000
0100
0000
0010
0100
0010
0100
0010
0100
,
0010
0100
0010
0001
0010
0100
0101
1001
,
0010
0000
0100
0000
0010
0000
0001
0000
0010
0000
0100
0010
0100
0010
0100
0010
,
0100
0000
0010
0000
0100
0000
1000
0000
0100
0000
0010
0002
0003
0000
000M
0000
,
2002
0000
0000
0000
3003
0000
0000
0000
0000
0000
0000
0000
0010
0000
0000
0000
0000
0000
0100
0000
0000
0000
0000
0000
0001
0000
0000
0000
0000
0000
1000
0000
0000
0001
0000
0000
1000
0000
0000
0000
0000
0000
1000
0000
0000
0000
0000
0000
,
1000
0001
1000
0000
0001
1000
0001
0000
1000
0000
0100
0010
0000
0000
0020
0030
,
2002
0000
0000
0000
3003
0000
0000
0000
0000
0000
0000
0000
0100
0000
0000
0000
0000
0000
0010
0000
0000
0000
0000
0000
1000
0000
0000
0000
0000
0000
0001
0000
0000
1000
0000
0000
0001
0000
0000
0000
0000
0000
0001
0000
0000
0000
0000
0000
,
0001
1000
0001
0000
1000
0001
1000
0000
0002
0000
0013
0000
0200
0000
1300
0000
,
0220
0000
0000
0000
0330
0000
0000
0000
0000
0000
0000
0000
1000
0000
0000
0000
0000
0000
0001
0000
0000
0000
0000
0000
0010
0000
0000
0000
0000
0000
0100
0000
0000
0010
0000
0000
0100
0000
0000
0000
0000
0000
0100
0000
0000
0000
0000
0000
,
0100
0010
0100
0000
0010
0100
0010
0000
0100
0000
0001
1000
0000
0000
2000
3000
,
0220
0000
0000
0000
0330
0000
0000
0000
0000
0000
0000
0000
0001
0000
0000
0000
0000
0000
1000
0000
0000
0000
0000
0000
0100
0000
0000
0000
0000
0000
0010
0000
0000
0100
0000
0000
0010
0000
0000
0000
0000
0000
0010
0000
0000
0000
0000
0000
,
0010
0100
0010
0000
0100
0010
0100
0000
0020
0000
1030
0000
0002
0000
0103
0000
,
0220
0000
0000
0000
0330
0000
0000
0000
0000
0000
0000
0000
0001
0000
0000
0000
0000
0000
1000
0000
0000
0000
0000
0000
0100
0000
0000
0000
0000
0000
0010
0000
0000
0100
0000
0000
0010
0000
0000
0000
0000
0000
0010
0000
0000
0000
0000
0000
,
0010
0100
0010
0000
0100
0010
0100
0000
0010
0000
1000
0001
0000
0000
0002
0003
,
2002
0000
0000
0000
3003
0000
0000
0000
0000
0000
0000
0000
0100
0000
0000
0000
0000
0000
0010
0000
0000
0000
0000
0000
1000
0000
0000
0000
0000
0000
0001
0000
0000
1000
0000
0000
0001
0000
0000
0000
0000
0000
0001
0000
0000
0000
0000
0000
,
0001
1000
0001
0000
1000
0001
1000
0000
0002
0000
0013
0000
0200
0000
1300
0000
,
2002
0000
0000
0000
3003
0000
0000
0000
0000
0000
0000
0000
0010
0000
0000
0000
0000
0000
0100
0000
0000
0000
0000
0000
0001
0000
0000
0000
0000
0000
1000
0000
0000
0001
0000
0000
1000
0000
0000
0000
0000
0000
1000
0000
0000
0000
0000
0000
,
1000
0001
1000
0000
0001
1000
0001
0000
1000
0000
0100
0010
0000
0000
0020
0030
,
0220
0000
0000
0000
0330
0000
0000
0000
0000
0000
0000
0000
1000
0000
0000
0000
0000
0000
0001
0000
0000
0000
0000
0000
0010
0000
0000
0000
0000
0000
0100
0000
0000
0010
0000
0000
0100
0000
0000
0000
0000
0000
0100
0000
0000
0000
0000
0000
,
0100
0010
0100
0000
0010
0100
0010
0000
0200
0000
0301
0000
2000
0000
3010
0000
,
0220
0000
0330
0000
0100
0000
1000
0000
0100
0000
0010
0100
0010
0100
0010
0100
,
0010
0100
0010
0001
0010
0100
0101
1001
,
0010
0000
0100
0000
0010
0000
0001
0000
0010
0000
0100
0010
0100
0010
0100
0010
,
0100
0000
0010
0000
0100
0000
1000
0000
0100
0000
0010
1000
0000
0000
0001
0000
,
1001
0000
0001
0000
1000
0000
0010
0000
1000
0000
0001
1000
0001
1000
0001
1000
,
0001
1000
0001
0100
0001
1000
1100
0110
,
0001
0000
1000
0000
0001
0000
0100
0000
0001
0000
1000
0001
1000
0001
1000
0001
,
0200
0310
2000
3001
,
0010
0000
0100
0020
0030
0000
00M0
0000
2000
0000
3200
0000
0301
0000
0001
0000
,
1000
0100
0010
0000
0001
0010
0100
1000
0002
0000
0023
0000
1030
0000
2000
3000
,
1000
0100
0010
0002
0000
0000
0000
0003
2000
0000
3200
0000
0301
0000
0001
0000
,
0001
0010
0100
0000
1000
0100
0010
0001
1000
0000
1000
0000
0100
0000
0100
0000
,
0020
0130
0002
1003
0200
0302
0013
0010
,
0100
0001
1000
0000
0010
1000
0001
0100
0020
0000
2030
0000
3100
0000
0200
0300
,
0100
0001
1000
0020
0000
0000
0000
0030
0200
0000
0302
0000
0013
0000
0010
0000
,
0010
1000
0001
0000
0100
0001
1000
0010
0100
0000
0100
0000
0001
0000
0001
0000
,
2000
0000
3001
0000
1000
0001
1000
0001
2000
0000
3000
0000
0100
0000
0010
0000
,
1000
0000
0001
1000
0001
0000
0001
0000
0001
1000
0001
1000
0001
1000
0001
0000
,
0001
0000
0000
0000
0000
0000
0010
0000
0000
0100
0000
0000
0000
0000
0000
0000
0000
0000
0200
0000
0000
0300
0000
0000
2002
0000
0000
0000
3003
0000
0000
0000
0000
0000
0000
0000
0010
0000
0000
0000
0000
0000
0100
0000
0000
0000
0000
0000
,
0001
0000
1000
0001
1000
0000
1000
0000
1000
0001
1000
0001
1000
0001
1000
0000
,
2000
0000
0000
3100
0000
0000
0020
0000
0000
0031
0000
0000
0220
0000
0330
0000
0000
0000
0001
0000
0000
1000
0000
0000
,
0100
0000
0010
0100
0010
0000
0010
0000
0010
0100
0010
0100
0010
0100
0010
0000
,
0010
0000
0000
0000
0000
0000
1000
0000
0000
0001
0000
0000
0000
0000
0000
0000
0000
0000
0002
0000
0000
0003
0000
0000
0220
0000
0000
0000
0330
0000
0000
0000
0000
0000
0000
0000
1000
0000
0000
0000
0000
0000
0001
0000
0000
0000
0000
0000
,
0010
0000
0100
0010
0100
0000
0100
0000
0100
0010
0100
0010
0100
0010
0100
0000
,
0200
0301
2000
3020
0000
0000
0000
0000
,
0000
0000
0000
0000
,
0000
0000
0000
0000
0000
0000
0000
0230
,
0000
0000
0000
0000
0000
0000
0000
0300
,
0000
0000
0000
0010
;
