#TITLE:Ajna's Theme;
#SUBTITLE:;
#ARTIST:Fredrik Miller;
#TITLETRANSLIT:;
#SUBTITLETRANSLIT:;
#ARTISTTRANSLIT:;
#GENRE:;
#CREDIT:Mad Guns22;
#MUSIC:Ajnas Theme.mp3;
#BANNER:Ajnas Theme.png;
#BACKGROUND:Ajnas Theme bg.png;
#CDTITLE:MadGuns22-FredrikIcon.png;
#SAMPLESTART:89.080;
#SAMPLELENGTH:12.000;
#SELECTABLE:YES;
#OFFSET:-0.020;
#BPMS:0.000=175.000;
#STOPS:;
#BGCHANGES:;
#FGCHANGES:;

//--------------- dance-single - Mad Guns22 ----------------
#NOTES:
     dance-single:
     Mad Guns22:
     Hard:
     9:
     0.569,0.62,0.163,0.391,0.008:
0000
0000
0000
0000
,
0000
0000
0000
0000
,
0000
0000
0000
0000
,
2000
0000
0000
0000
0000
0000
0000
0000
0000
0000
0000
3000
,
0020
0000
0000
0000
0000
0030
0200
0000
0000
0000
0000
0300
,
1000
0000
0100
0000
1000
0010
1000
0000
,
0001
0000
0100
0000
0001
0010
0001
0000
,
2000
0000
0000
0000
0000
0000
0000
0000
0000
0000
0000
3000
,
0020
0000
0000
0000
0000
0030
0200
0000
0000
0000
0000
0300
,
0001
0000
1000
0000
0010
0100
0010
0000
,
0100
0000
0001
0000
1000
0010
1000
0000
,
0200
0000
0000
0000
0000
0000
0000
0000
0000
0000
0000
0300
,
0002
0000
0000
0010
0000
0003
2000
0000
0000
0100
0000
3000
,
0011
0000
0110
0000
,
1100
0000
0011
0000
,
1000
1100
0010
1010
,
1000
0000
0001
0000
0100
0000
0010
0000
1000
0100
0010
0001
1000
0000
0000
0000
,
1000
0100
0010
0001
0010
0100
1000
0100
,
0010
0100
0010
1000
0010
0100
0010
0001
,
1000
0100
0010
0100
0001
0010
0100
0010
,
1000
0100
1000
0010
1000
0001
1000
0100
,
0001
0010
0100
1000
0100
0010
0001
0010
,
0100
0010
0100
0001
0100
0010
0100
1000
,
0001
0010
0100
0010
1000
0100
0010
0100
,
0010
0010
0110
0100
0000
0100
0110
0000
,
2000
0000
0100
0000
0010
0001
3000
0020
,
0000
0100
0000
1000
0000
0001
0000
0030
,
0200
0000
1000
0000
0001
0010
0000
0001
,
0300
0010
0001
0100
0001
1000
0001
0100
,
0002
0000
0010
0000
0100
1000
0003
0200
,
0000
0010
0000
0001
0000
1000
0000
0300
,
0001
0101
0100
1100
,
1000
0000
1001
0000
0001
0000
0101
0100
,
0102
0000
0010
0000
0100
1000
0003
0200
,
0000
0010
0000
0001
0000
1000
0000
0300
,
0020
0000
0001
0000
1000
0100
0000
1000
,
0030
0100
1000
0010
1000
0001
1000
0010
,
2000
0000
0100
0000
0010
0001
3000
0020
,
0000
0100
0000
1000
0000
0001
0000
0030
,
0002
0000
1000
0000
0100
0010
0003
0200
,
0000
1000
0000
0010
0000
0001
0000
0300
,
1000
0100
0010
0001
1000
0100
0010
0001
,
1000
0100
0010
0001
1000
0100
0010
0001
,
0010
0100
0001
0100
0010
0100
0001
0100
,
1000
0100
0001
0010
1000
0100
0001
0010
,
0001
0010
0100
1000
0001
0010
0100
1000
,
0001
0010
0100
1000
0001
0010
0100
1000
,
0100
0010
1000
0010
0100
0010
1000
0010
,
0001
0010
1000
0100
0001
0010
1000
0100
,
2000
0000
0000
0000
,
0000
0000
0000
3100
,
0002
0000
0000
0000
,
0000
0000
0000
0000
,
2003
0000
0000
0000
,
0000
0000
0000
3010
,
0002
0000
0000
0000
,
0000
0000
0000
0003
,
1000
0001
1000
0100
1000
0010
1000
0001
,
1000
0001
1000
0010
1000
0100
1000
0010
,
0001
0010
0100
0010
0100
1000
0100
1000
,
0001
0010
0001
1000
0100
0010
0100
1000
,
0001
0100
0010
0001
0010
0100
0010
1000
,
0001
0100
0010
1000
0001
0100
0010
0100
,
0001
1000
0100
0010
1000
0001
0100
0010
,
0001
0001
0011
0010
0000
0010
0110
0000
,
0002
0000
0010
0000
0100
1000
0003
0200
,
0000
0010
0000
0001
0000
1000
0000
0300
,
0020
0000
0001
0000
1000
0100
0000
1000
,
0030
0100
1000
0010
1000
0001
1000
0010
,
2000
0000
0100
0000
0010
0001
3000
0020
,
0000
0100
0000
1000
0000
0001
0000
0030
,
1000
1010
0010
0011
,
0001
0000
1001
0000
1000
0000
1010
0010
,
2010
0000
0100
0000
0010
0001
3000
0020
,
0000
0100
0000
1000
0000
0001
0000
0030
,
0200
0000
1000
0000
0001
0010
0000
0001
,
0300
0010
0001
0100
0001
1000
0001
0100
,
0002
0000
0010
0000
0100
1000
0003
0200
,
0000
0010
0000
0001
0000
1000
0000
0300
,
2000
0000
0001
0000
0010
0100
3000
0020
,
0000
0001
0000
0100
0000
1000
0000
0030
,
0200
0000
1000
0000
0001
0010
0300
0002
,
0000
1000
0000
0010
0000
0100
0000
0003
,
2000
0000
0010
0000
0100
0001
0000
0100
,
3000
0002
0003
2000
3000
0200
0000
0300
,
0020
0000
1000
0000
0001
0100
0030
0002
,
0000
1000
0000
0010
0000
0100
0000
0003
,
0200
0000
0010
0000
1000
0001
0300
2000
,
0000
0010
0000
0001
0000
0100
0000
3000
,
0002
0000
0003
0000
;
