#VERSION:0.83;
#TITLE:subtractive;
#SUBTITLE:;
#ARTIST:Expander;
#TITLETRANSLIT:;
#SUBTITLETRANSLIT:;
#ARTISTTRANSLIT:;
#GENRE:;
#ORIGIN:;
#CREDIT:;
#BANNER:subtractive.png;
#BACKGROUND:subtractive-bg.png;
#PREVIEWVID:;
#JACKET:;
#CDIMAGE:;
#DISCIMAGE:;
#LYRICSPATH:;
#CDTITLE:;
#MUSIC:subtractive.ogg;
#OFFSET:-0.109205;
#SAMPLESTART:80.070999;
#SAMPLELENGTH:15.000000;
#SELECTABLE:YES;
#BPMS:0.000=180.000,
224.000=90.000,
232.000=180.000;
#STOPS:;
#DELAYS:;
#WARPS:;
#TIMESIGNATURES:0.000=4=4;
#TICKCOUNTS:0.000=4;
#COMBOS:0.000=1;
#SPEEDS:0.000=1.000=0.000=0;
#SCROLLS:0.000=1.000;
#FAKES:;
#LABELS:0.000=Song Start;
#BGCHANGES:0.000=subtractive.avi=1.000=0=0=0=StretchNoLoop====,
99999=-nosongbg-=1.000=0=0=0 // don't automatically add -songbackground-
;
#KEYSOUNDS:;
#ATTACKS:
;

//---------------dance-single - ----------------
#NOTEDATA:;
#CHARTNAME:;
#STEPSTYPE:dance-single;
#DESCRIPTION:;
#CHARTSTYLE:;
#DIFFICULTY:Hard;
#METER:13;
#RADARVALUES:0.661825,0.651484,0.235122,0.226414,0.152394,532.000000,505.000000,27.000000,26.000000,0.000000,0.000000,0.000000,0.000000,0.000000,0.661825,0.651484,0.235122,0.226414,0.152394,532.000000,505.000000,27.000000,26.000000,0.000000,0.000000,0.000000,0.000000,0.000000;
#CREDIT:;
#NOTES:
0000
0000
0000
0000
,
0000
0000
0000
0000
,
0000
0000
0000
0000
,
0000
0000
0000
0000
,
1000
0010
0100
0100
0010
0001
0010
1000
,
0000
0001
0001
0001
0010
1000
0010
0001
,
0000
0100
1000
0100
1000
0010
0001
0100
,
1000
1000
0010
1001
,
0010
0100
0010
0001
1000
0020
0000
0030
,
0100
0000
0000
0000
0100
1000
0100
0000
0010
0000
0100
0000
1000
0000
0100
0000
,
0010
0001
0100
0001
0010
1000
0010
0010
,
0100
0000
0000
0010
0000
0000
0001
0000
0000
0000
0000
0000
1000
0000
0000
0000
1000
0000
0010
0000
0100
0000
0010
0000
,
0100
1000
0001
0000
0010
0001
0000
0001
,
1000
0100
1000
0010
1000
0001
0010
0100
,
0010
0001
0100
0000
1000
1000
0001
0100
,
0020
0032
2003
3001
,
0000
0000
1000
0010
1000
0000
0000
0000
0100
0000
0001
0000
0100
0000
0010
0000
,
0100
1000
0100
0010
0001
1000
0001
0001
,
0000
0100
0010
0000
1010
1000
0000
1000
,
0100
0010
0100
0001
0010
0000
0011
0000
,
1000
0100
2000
0000
3010
0100
0010
0001
,
0100
0000
0100
0001
0000
0000
0001
0000
0010
0000
0010
1000
0000
0000
0100
0000
,
0010
0000
0110
0000
0001
1000
0001
0000
,
0100
0010
1000
0100
0001
0000
0010
0000
,
2000
0000
0200
3300
,
0100
0000
0001
0000
0012
0010
0000
1000
,
0013
0000
0100
0000
0200
1000
0000
1000
,
0300
0001
0010
0000
1100
0000
0101
0000
,
0010
0100
0010
1000
0000
0010
0001
0010
,
0002
0000
0000
0100
0103
0000
0110
0000
,
1000
0100
0010
0000
1100
0100
0000
0010
,
0100
0001
0010
0000
1000
0000
1001
0000
,
0100
0000
0000
1000
0000
0000
0100
0000
0010
0000
0001
0000
0010
0000
0000
0000
,
0100
1000
0100
0010
0001
0100
0001
0000
,
0010
1000
0100
0000
0001
1000
0000
0012
,
0000
0010
0100
0003
0110
0000
1010
0000
,
0100
0000
0000
0100
0000
0010
1000
0010
,
1000
0000
0000
0000
0000
0000
1100
0000
0000
0000
0000
0000
0000
0000
0000
0010
0001
0000
0000
0000
0001
0000
1000
0000
0000
0000
0000
0000
0100
0000
0000
0000
,
0010
0100
0010
0001
1000
0100
0010
0000
,
0200
1300
0002
1003
,
0010
0000
0000
0001
0000
0000
0010
0000
1010
0000
0000
0000
0100
0000
0000
0000
,
1000
1000
0000
0011
0000
0100
0001
0000
,
0001
0100
0001
0100
0010
1000
0100
1000
,
0100
0100
0010
0100
0001
0100
1000
0000
,
0020
0000
0000
0000
1000
0000
0030
0000
0100
0001
0000
0001
0010
0000
0100
0000
,
1000
0100
0010
0001
0010
0100
0001
1000
,
0010
0000
1000
0010
0000
1000
0100
0001
,
0100
0000
0000
0000
0010
1000
0010
0000
0100
0000
0000
0000
1001
0000
0000
0000
,
2000
0000
0000
0001
3000
0000
2000
0000
0000
0001
3000
0000
0010
0000
0010
0000
,
0100
1000
0000
1000
0010
0100
0001
0000
,
1000
0010
1000
0100
0010
0001
0100
0001
,
0010
0010
1000
1000
0100
0001
0100
0010
,
0000
0000
0000
0000
2020
0000
3030
0000
0001
0000
0000
0100
0000
0000
0001
0000
,
0001
0100
0010
1000
0100
0001
0010
1000
,
0100
0000
0100
0001
0000
0001
0010
0100
,
1000
0000
0000
0000
0100
0001
0100
0000
0010
0000
0000
0000
1000
0000
0000
0000
,
0220
0300
2000
0030
0002
3000
0020
0033
,
0001
0001
0100
0010
1000
0100
0010
1001
,
0100
0000
0010
0000
0100
0000
1000
0000
0001
0000
0000
1000
0000
0000
0010
0000
,
0001
0000
0100
0000
0010
0000
1000
0000
0010
0000
0000
0100
0000
0000
0001
0000
,
0001
0000
0001
0000
1000
0000
0100
0000
1000
0000
0000
0010
0000
0000
0100
0000
,
1000
0100
0010
0001
0010
0100
1000
0000
,
0010
0000
0100
0000
0010
0000
1000
0000
0010
0000
0000
0101
0000
0000
1000
0000
,
1000
0000
0010
0000
1000
0000
0100
0000
0001
0000
0000
1100
0000
0000
0010
0000
,
0001
0000
0100
0000
0001
0000
0010
0000
0100
0000
0000
0101
0000
0000
0001
0000
,
0010
1000
0010
1000
0100
0000
0110
0000
,
1000
0010
0001
1000
0010
0001
0100
0000
,
0001
0010
1000
0010
1000
0100
0001
0000
,
0100
0000
0100
0000
0010
0000
0100
0000
0001
0000
0000
1000
0000
0000
0010
0000
,
0010
0000
0000
0100
0000
0000
0010
0000
0000
0001
0000
0000
1000
0000
0000
0000
1000
0000
0001
0000
0100
0000
0001
0000
,
0010
1000
0100
1000
0001
0010
0100
0010
,
0100
0100
0001
1000
0100
1000
0010
0100
,
0001
1000
0010
0100
0010
0001
0010
1000
,
0001
0010
0001
0100
0010
0100
0001
0000
,
1000
1000
1000
0000
0102
0000
0100
0000
,
0103
0000
0000
0000
0010
0000
0010
0000
0001
0000
0001
0000
1000
0001
1000
0000
,
0100
0000
0010
0010
0000
1100
0000
1000
,
0100
0000
0000
0010
0000
0000
0000
0000
0000
0001
0000
0000
0010
0000
0000
0000
0010
0000
0100
0000
0001
0000
0100
0000
,
1000
0000
0100
0000
1000
0000
0010
0000
0100
0000
0000
0001
0010
0000
0010
0000
,
0000
0000
1000
0000
1000
0100
1000
0000
0010
0000
0001
0000
0100
0000
0001
0000
,
0000
0100
0100
0100
0010
1000
0001
0010
,
0000
0010
0001
0010
1000
0100
0010
2002
,
0000
0000
0000
0000
,
0000
3003
0000
0000
0000
0000
0000
0000
;

//---------------dance-single - ----------------
#NOTEDATA:;
#CHARTNAME:;
#STEPSTYPE:dance-single;
#DESCRIPTION:;
#CHARTSTYLE:;
#DIFFICULTY:Challenge;
#METER:18;
#RADARVALUES:0.947952,1.339161,0.417995,0.609576,0.910009,762.000000,714.000000,48.000000,70.000000,0.000000,0.000000,0.000000,0.000000,0.000000,0.947952,1.339161,0.417995,0.609576,0.910009,762.000000,714.000000,48.000000,70.000000,0.000000,0.000000,0.000000,0.000000,0.000000;
#CREDIT:;
#NOTES:
0000
0000
0000
0000
,
0000
0000
0000
0000
,
0000
0000
0000
0000
,
0000
0000
0000
0000
,
0100
0000
1000
0010
1000
0000
0001
0000
0010
0000
0000
0010
0001
0000
1000
0000
,
0000
0000
0010
0100
1000
0100
0001
0100
1000
0000
0110
0000
1100
0000
0101
0000
,
0000
0000
0010
1000
0010
0000
0001
0000
0010
0000
1000
0000
0010
0000
0010
0000
,
0000
0000
0001
1000
0001
1000
0001
0010
0100
0010
0100
0001
1000
0000
0000
0000
,
1001
0010
1000
0001
0100
1000
0000
0000
,
0010
0000
0000
0000
0000
0000
0010
0000
0000
0000
0000
0000
1000
0000
0000
0100
0000
0000
1000
0000
0000
0100
0000
0000
0001
0000
0000
0000
0010
0000
0000
0000
0100
0000
0000
0000
0010
0000
0000
0100
0000
0000
0010
0000
0000
0000
0000
0000
,
2000
3020
2030
3002
0023
2030
3100
0100
,
0010
0000
0000
0100
0000
0000
1000
0000
0000
0010
0000
0000
1010
0000
0000
0000
1010
0000
0100
0000
0100
0000
0100
0000
,
1000
0100
0010
0100
1000
0010
0000
0010
,
0100
0000
0001
0000
0100
0000
0010
0000
0100
0000
1000
0000
0100
0001
0100
0010
,
2000
3200
0320
2030
3200
0302
0023
2030
,
3100
0000
0001
0000
0010
0000
0001
0000
1000
0000
1000
0000
0001
0010
0001
0000
,
0101
0000
1000
0001
0100
0001
1000
0000
0010
0000
0100
0000
0010
0000
1000
0000
,
0001
0000
1000
0000
0100
0010
0100
0010
0001
0000
0100
0001
0100
0000
0010
1000
,
0010
0000
0001
0010
0001
0000
1000
0000
0100
0000
0010
0000
0001
0000
1000
0000
,
0001
0000
1000
0010
0100
0000
0100
0000
0010
0000
0010
0001
1000
0001
0020
0000
,
0000
0000
1030
0100
1000
0100
1000
0000
0110
0000
1000
0000
0100
0000
0001
0000
,
0010
0000
0100
0001
0010
0000
0010
0000
1000
0000
1000
0001
0100
0001
0100
0000
,
0010
0000
0010
0000
0100
1000
0001
0100
0010
0000
0001
0000
0010
0000
0100
0000
,
1000
0000
1000
0000
0100
0000
0010
0000
0001
0000
0001
0010
0100
0010
1000
0000
,
0100
1000
0001
0100
0022
0000
0000
0033
,
1000
0000
1000
0000
1010
2000
0000
0010
,
3010
0000
0000
0000
0011
0000
0000
0000
0010
0000
1000
0100
1000
0000
0101
0000
,
0000
0001
0100
0000
0220
0330
2002
3003
,
0010
0001
1000
0001
0000
0010
0100
0010
,
0202
0000
0000
0000
0303
0000
1000
0001
1000
0000
0100
0000
0010
0000
0001
0000
,
0010
1000
0100
0000
0011
1000
0100
0000
,
2000
0000
0020
3000
0200
0000
0000
0330
,
0011
0000
0000
1010
0000
0000
0110
0000
0001
0000
0100
0000
0010
0000
0001
0000
,
1000
0100
0010
1000
0001
0100
0010
0010
,
0100
0000
0010
0000
0100
0000
1000
0000
0010
0000
0100
0010
0001
0000
1001
0000
,
0000
1000
0100
0000
0110
0000
1010
0000
,
0100
0000
0000
0010
0000
0000
0100
0000
0000
0000
1000
0000
0100
0000
0010
0000
,
1100
0000
0000
0000
0000
0000
1100
0000
0000
0000
0000
0000
0000
0000
0000
1000
0100
0000
0000
0000
0001
0000
0100
0000
0010
0000
0000
0000
0010
0000
0001
0000
,
1000
0010
1000
0000
0001
0100
0000
0100
,
0010
0110
0001
1001
,
1000
0010
1000
0020
0000
0000
0031
1000
0001
2000
0000
0000
3010
0001
0010
0000
,
0100
0000
1000
0000
0010
0000
1000
0000
0000
0100
0000
0100
0010
0000
0001
0000
,
0020
0032
2003
3020
2030
3200
0320
2030
,
3001
0100
0001
0100
1000
0100
1000
0100
0010
0100
0001
0100
0010
0001
1000
0100
,
1000
0000
0000
0000
0011
0000
1000
0000
0100
0010
0000
0010
1000
0000
0100
0000
,
0002
2003
3200
0302
2003
3020
0230
0302
,
1003
0000
0000
0000
1000
0000
0010
0000
0000
0000
0010
0000
1000
0000
0100
0001
,
0010
0000
0000
0000
0100
0010
0100
0001
1000
0010
0100
0000
1001
0000
0000
0000
,
0100
1000
0100
2000
0000
0000
3100
0010
0100
0020
0000
0000
1030
0100
1000
0000
,
0010
0000
1000
0000
0001
0000
1000
0000
0100
0001
0000
1000
0010
0000
0100
0000
,
2000
3200
2300
3200
0320
0032
0023
0230
,
1300
0001
1000
0010
0100
0010
0100
0001
1000
0100
0010
0001
0100
0010
1000
0100
,
0001
0000
0000
0000
2100
0000
0000
0000
3010
0001
0000
0100
0001
0000
1000
0000
,
0020
0032
0203
2300
3020
0230
2300
3200
,
0310
0000
0000
0000
0010
0000
0100
0000
0000
0000
0100
0000
1000
0000
0010
1000
,
0100
0000
0000
0000
1000
0100
0010
0100
0010
0000
0001
0010
1000
0100
0001
1000
,
0001
0000
0010
0000
0001
0000
0000
0000
1001
0000
0010
0000
0100
0000
0010
0000
0100
0001
0100
0000
0010
0100
0010
0000
1000
0000
0100
0000
1000
0000
1000
0000
,
0200
0000
0000
0000
0000
0000
0310
0000
1000
0000
0010
0000
0101
0000
0000
1000
0000
0000
0010
0000
0000
0010
0000
0000
0100
0000
0000
0100
0000
0000
1000
0000
0000
0001
0000
0000
0100
0000
0000
0010
0000
0000
0011
0000
0000
0000
0000
0000
,
0010
0001
0010
0001
0000
0000
1000
0100
1000
0100
0000
0010
0000
0000
1000
0010
,
0100
0010
1000
0010
0000
0000
0100
0001
0010
0001
0000
0001
0000
0000
0100
0000
,
0100
1000
0010
1000
0000
0000
0010
0100
1000
0100
0000
0001
0000
0000
0100
0010
,
1000
0001
1000
0000
0010
1000
0010
0000
0001
0010
0001
0000
0100
1000
0100
0000
,
1000
0010
1000
0100
0000
0000
0001
1000
0100
1000
0000
0011
0000
0000
1000
0010
,
0100
0001
1000
0001
0000
0000
0010
1000
0100
0010
0000
0110
0000
0000
1000
0100
,
0001
1000
0100
1000
0000
0000
0100
0010
1000
0100
0000
1001
0000
0000
0001
0010
,
1000
0010
0100
0000
0010
0100
1000
0000
0001
0100
0010
0000
0001
0010
1000
0000
,
0100
1000
0010
0000
0100
0000
0010
1000
0010
0001
0000
1000
0000
0000
0010
0100
,
0010
0001
1000
0000
1000
0000
0001
0010
0001
0100
0000
1000
0000
0000
0010
0000
,
0010
0100
0010
0000
1000
0000
0100
0010
0001
0010
0000
1000
0000
0000
0001
1000
,
0010
0000
0000
1000
0000
0000
0100
0000
0000
0000
0000
0000
0010
0000
0000
0100
0000
0000
0001
0000
0000
0000
0000
0000
0101
0000
0000
0000
0000
0000
0000
0000
0101
0000
0000
0000
1000
0000
0000
0000
0001
0000
0000
0000
0010
0000
0000
0000
,
0100
0010
0100
0000
0001
0000
1000
0100
0010
0100
0000
1000
0000
0000
0100
0010
,
1000
0001
0100
1000
0000
0000
0001
0100
0010
0100
0000
0001
0000
0000
0100
0010
,
0001
0010
0100
0000
1000
0000
0100
1000
0100
0000
0000
0010
0000
0000
0100
0010
,
0001
0100
1000
0000
0100
0001
0010
0000
1000
0000
0200
0000
0002
0000
0303
0000
,
1000
1000
1000
0100
0012
1000
0000
1000
,
0003
0000
0000
0000
0000
0000
0000
0000
0000
0000
0000
0000
0100
0000
0000
0001
0000
0000
1000
0000
0000
0001
0000
0000
0010
0000
0000
0000
0001
0000
0000
0000
1000
0000
0000
0000
0100
0000
0000
0010
0000
0000
0100
0000
0000
0000
0000
0000
,
1001
0000
0000
0000
1010
0000
1100
0000
0000
0000
0101
0000
0000
0000
0010
0001
,
1000
0000
0000
0110
0000
0000
0000
0000
0000
0101
0000
0000
1100
0000
0000
0000
1000
0000
0010
0000
0010
0000
0010
0000
,
0010
0000
0100
0000
0001
0000
0100
0000
1000
0000
0000
1000
0100
0000
0100
0000
,
0000
0000
0100
1000
0001
0010
0100
1000
0010
0000
0011
0000
1100
0000
1001
0000
,
0000
0001
0100
0100
1000
0100
0001
0100
,
0000
0000
1000
0010
0100
1000
0010
0001
0100
0010
1000
0100
1000
0010
0002
2000
,
0000
0000
0000
0000
,
0000
3003
0000
0000
0000
0000
0000
0000
;

//---------------dance-single - ----------------
#NOTEDATA:;
#CHARTNAME:;
#STEPSTYPE:dance-single;
#DESCRIPTION:;
#CHARTSTYLE:;
#DIFFICULTY:Medium;
#METER:11;
#RADARVALUES:0.563546,0.579097,0.200289,0.191581,0.008708,453.000000,430.000000,23.000000,22.000000,0.000000,0.000000,0.000000,0.000000,0.000000,0.563546,0.579097,0.200289,0.191581,0.008708,453.000000,430.000000,23.000000,22.000000,0.000000,0.000000,0.000000,0.000000,0.000000;
#CREDIT:;
#NOTES:
0000
0000
0000
0000
,
0000
0000
0000
0000
,
0000
0000
0000
0000
,
0000
0000
0000
0000
,
0000
1000
0001
0000
0010
0000
0100
0001
,
0000
0010
0100
0010
0100
0000
0101
0000
,
0000
0010
1000
0000
1000
0100
0010
0000
,
0000
0001
0100
1000
0100
0010
1000
0000
,
0100
0001
0100
0000
0010
1000
0000
0000
,
0011
0000
0100
1000
0001
0010
0001
0000
,
1000
0100
1000
0000
0100
0010
0001
0000
,
1000
0000
0000
0010
0000
0000
0110
0000
0100
0001
0000
0001
,
1000
0000
0001
0010
0001
0000
0010
0100
,
0000
0010
1000
0000
1000
0010
0001
0000
,
0010
0000
1000
1000
0000
0010
0100
0000
,
0001
0100
1000
0100
0001
0000
1001
0000
,
0002
0100
0103
0000
0010
0100
0010
0000
,
1000
0010
1000
0100
1000
0000
1010
0000
,
0020
1000
1030
0000
0001
0100
0010
0000
,
0001
1000
0010
0000
0100
1000
0010
0000
,
0100
0010
0200
0000
0301
0010
1000
0000
,
0001
0010
0001
0000
0100
0010
0100
0000
,
0002
0000
0203
0000
0301
0010
1000
0000
,
0001
1000
0010
1000
0001
0000
0101
0000
,
0002
0000
0023
0000
,
2030
0000
0000
0000
3020
0100
0000
0100
,
1030
0000
0001
0000
0010
1000
0000
0110
,
0000
0001
0100
0000
0200
0000
0320
0000
,
0130
1000
0100
0001
0000
0100
0010
0000
,
1000
0000
0010
0100
0000
0001
0001
0000
,
0010
1000
0100
0000
1000
0010
0000
1100
,
0000
0100
0001
0000
0010
0100
1000
0000
,
0010
0000
1010
0000
0100
0010
0001
0000
,
0010
1000
0100
1000
0010
0000
0001
0000
,
0100
0001
0010
0000
1000
0100
1000
0100
,
0000
0001
0010
0000
0200
0000
2300
0000
,
3001
0000
0010
0001
0000
1000
0100
1000
,
0020
0000
0000
0030
0000
0000
0000
0000
0010
0000
1000
0000
0010
0000
0000
0000
,
0001
0100
0010
0000
0010
0001
1000
0000
,
0001
1000
0220
0330
,
1000
0000
0000
1000
0100
0000
0010
0000
,
0001
0000
0010
0100
0000
0100
1000
0000
,
0001
0010
1000
0000
1000
0100
0010
0000
,
0100
0010
1000
0010
0001
0000
0011
0000
,
0010
0000
1000
0000
1000
0001
1000
0000
,
0010
0000
0001
0010
0000
0010
0100
0000
,
0010
0100
1000
0000
0100
0010
0001
0000
,
0100
0010
1000
0010
1000
0000
1001
0000
,
0010
0000
0100
0000
0010
0001
1000
0000
,
1000
0000
0100
0010
0000
0010
1000
0000
,
0010
0001
0100
0000
0100
1000
0010
0000
,
1000
0001
0010
1000
0100
0000
1100
0000
,
0200
0000
0001
0000
0310
0000
0010
1000
,
0100
0000
0001
1000
0000
0001
0100
0000
,
0010
0000
0010
1000
0000
1000
0001
0000
,
0010
0100
1000
0100
0001
0010
0100
0000
,
0100
0110
1000
1010
,
0010
0100
1000
0010
1000
1000
0110
0000
,
0010
0100
1000
0000
0001
0000
0010
0100
,
0010
0000
0100
0001
1000
0100
0001
0000
,
0001
0100
0010
0000
0100
0000
1000
0100
,
0010
0000
0100
0001
0100
0010
1000
0000
,
0100
1000
0001
0010
0100
0000
0010
1000
,
0001
0000
1000
0100
1000
0010
1000
0000
,
0010
0100
0010
1000
0100
0000
0001
0100
,
0010
0000
0100
0010
0100
0000
1001
0000
,
0010
1000
0010
0000
0100
0010
0100
0000
,
1000
0001
0010
0001
0100
1000
0100
0000
,
1000
0010
0100
1000
0100
0000
0010
1000
,
0010
0000
1000
0001
0100
0100
0020
0000
,
1030
0100
1000
0000
0110
0000
0001
1000
,
0001
0000
0101
0000
0010
0001
1000
0000
,
0001
0010
0100
0010
0001
1000
0100
0000
,
0100
1000
0010
0000
1100
0000
1001
0000
,
0010
1000
0010
0000
1000
0001
0000
0001
,
0100
0000
0010
0000
0100
0001
0100
0000
,
1000
0000
0010
1000
0000
0010
0001
0000
,
0100
0010
0100
0010
0002
0000
2003
0000
,
3100
0000
0010
0000
0100
0010
1000
0000
,
0001
0000
1000
0010
0000
0010
0100
0000
,
0001
0010
1000
0000
0010
0100
1000
0000
,
0001
0001
0001
0000
0110
0000
2002
0000
,
0000
0000
0000
0000
,
0000
3003
0000
0000
0000
0000
0000
0000
;

//---------------dance-single - ----------------
#NOTEDATA:;
#CHARTNAME:;
#STEPSTYPE:dance-single;
#DESCRIPTION:;
#CHARTSTYLE:;
#DIFFICULTY:Easy;
#METER:6;
#RADARVALUES:0.323448,0.320354,0.104499,0.391870,0.000000,260.000000,248.000000,12.000000,45.000000,0.000000,0.000000,0.000000,0.000000,0.000000,0.323448,0.320354,0.104499,0.391870,0.000000,260.000000,248.000000,12.000000,45.000000,0.000000,0.000000,0.000000,0.000000,0.000000;
#CREDIT:;
#NOTES:
0000
0000
0000
0000
,
0000
0000
0000
0000
,
0000
0000
0000
0000
,
0000
0000
0000
0000
,
0000
0001
1000
0010
,
0000
0100
1000
1000
,
0000
0010
1000
0010
,
0000
0010
0100
0001
,
0020
0000
0002
0033
,
0100
1000
0200
0300
,
1000
0010
1000
0001
,
1000
0010
0020
0030
,
0001
1000
0100
0000
,
1000
0010
1000
0000
,
0001
0010
0001
0100
,
0010
0100
1000
0000
,
2002
3003
0010
0010
,
0100
0001
0200
0300
,
0100
0010
1000
0100
,
1000
0100
0010
0000
,
0220
0330
1000
0100
,
0010
0001
0020
0030
,
1000
0010
0100
0001
,
0010
0100
0002
0003
,
0100
0000
1001
0000
,
1000
0000
0100
0001
,
0100
0000
1000
0000
,
1000
1000
0100
0000
,
0010
0000
0110
0000
,
1000
0100
0001
0000
,
1000
0001
1000
1000
,
0010
0100
0001
0000
,
2002
3000
0013
0100
,
1000
0100
0200
0300
,
1000
0001
0010
0100
,
0010
0001
0020
0030
,
0001
0010
0100
1000
,
0220
0330
0010
0010
,
1000
0100
1000
0010
,
0100
0100
1000
0000
,
0002
0003
2000
3000
,
0010
1000
0020
0030
,
0100
0010
1000
1000
,
0001
0010
0100
0100
,
0020
0030
0002
0003
,
0010
1000
0002
0003
,
1000
0010
0001
1000
,
0010
0100
0010
0000
,
0202
0300
2000
3003
,
0100
1000
0020
0030
,
1000
0100
0010
0100
,
0010
1000
0002
0003
,
1001
0000
1000
1000
,
0010
1000
0001
0010
,
0200
0300
2000
3000
,
0010
0100
0020
0030
,
0001
0001
0100
0100
,
1000
0010
2002
3003
,
1000
0010
0100
0000
,
0100
0010
1000
0000
,
0001
0100
0001
1000
,
0010
0010
0100
0000
,
1000
0010
0100
0000
,
0010
0100
0010
0000
,
0001
1000
0001
0100
,
0010
0100
1001
0000
,
0100
0010
0100
0010
,
1000
0100
1000
0100
,
0001
0010
0100
1000
,
0010
0001
0010
0010
,
1000
0100
0200
0300
,
0010
1000
2000
3000
,
0001
1000
0100
0001
,
0100
0010
0220
0330
,
0100
0001
0200
0300
,
0001
1000
0001
0001
,
2000
3000
0002
0003
,
0010
0100
0020
0030
,
0001
1000
0100
1000
,
0100
0001
0010
1000
,
0002
0003
2000
3000
,
0100
0001
0220
0330
;

//---------------dance-single - ----------------
#NOTEDATA:;
#CHARTNAME:;
#STEPSTYPE:dance-single;
#DESCRIPTION:;
#CHARTSTYLE:;
#DIFFICULTY:Beginner;
#METER:3;
#RADARVALUES:0.170432,0.249164,0.078374,0.139332,0.000000,137.000000,128.000000,9.000000,16.000000,0.000000,0.000000,0.000000,0.000000,0.000000,0.170432,0.249164,0.078374,0.139332,0.000000,137.000000,128.000000,9.000000,16.000000,0.000000,0.000000,0.000000,0.000000,0.000000;
#CREDIT:;
#NOTES:
// measure 0
0000
0000
0000
0000
,  // measure 1
0000
0000
0000
0000
,  // measure 2
0000
0000
0000
0000
,  // measure 3
0000
0000
0000
0000
,  // measure 4
0100
0000
0000
0000
,  // measure 5
0010
0000
0100
0000
,  // measure 6
0001
0000
0000
0000
,  // measure 7
1001
0000
0000
0000
,  // measure 8
0100
0000
1000
0000
,  // measure 9
0010
0000
0010
0000
,  // measure 10
0001
0000
1000
0000
,  // measure 11
0100
0000
0200
0000
,  // measure 12
0300
0000
0001
0000
,  // measure 13
1000
0000
0001
0000
,  // measure 14
0010
0000
0100
0000
,  // measure 15
0020
0000
0030
0000
,  // measure 16
0110
0000
0000
0000
,  // measure 17
0010
0000
0001
0000
,  // measure 18
1000
0000
0000
0000
,  // measure 19
0001
0000
1000
0000
,  // measure 20
0100
0000
0000
0000
,  // measure 21
0010
0000
0001
0000
,  // measure 22
1000
0000
0000
0000
,  // measure 23
1001
0000
0000
0000
,  // measure 24
0002
0000
0003
0000
,  // measure 25
2000
0000
3000
0000
,  // measure 26
0020
0000
0030
0000
,  // measure 27
0200
0000
0300
0000
,  // measure 28
0010
0000
0010
0000
,  // measure 29
0100
0000
0100
0000
,  // measure 30
1000
0000
0001
0000
,  // measure 31
1000
0000
1001
0000
,  // measure 32
0020
0000
0030
0000
,  // measure 33
0100
0000
1000
0000
,  // measure 34
0002
0000
0003
0000
,  // measure 35
2000
0000
3000
0000
,  // measure 36
0010
0000
0100
0000
,  // measure 37
0110
0000
0000
0000
,  // measure 38
1000
0000
0100
0000
,  // measure 39
0001
0000
0001
0000
,  // measure 40
2000
0000
3000
0000
,  // measure 41
0010
0000
0010
0000
,  // measure 42
0100
0000
0000
0000
,  // measure 43
0010
0000
1000
0000
,  // measure 44
0020
0000
0030
0000
,  // measure 45
0100
0000
0010
0000
,  // measure 46
1000
0000
0000
0000
,  // measure 47
0110
0000
0000
0000
,  // measure 48
0002
0000
0003
0000
,  // measure 49
1000
0000
0001
0000
,  // measure 50
0010
0000
0000
0000
,  // measure 51
0100
0000
1000
0000
,  // measure 52
0100
0000
0000
0000
,  // measure 53
0010
0000
0010
0000
,  // measure 54
2000
0000
3000
0000
,  // measure 55
0020
0000
0030
0000
,  // measure 56
0100
0000
1000
0000
,  // measure 57
0001
0000
1001
0000
,  // measure 58
0010
0000
1000
0000
,  // measure 59
0010
0000
0010
0000
,  // measure 60
0100
0000
0001
0000
,  // measure 61
0100
0000
0100
0000
,  // measure 62
1000
0000
0001
0000
,  // measure 63
1000
0000
1000
0000
,  // measure 64
0001
0000
0010
0000
,  // measure 65
0001
0000
0001
0000
,  // measure 66
0100
0100
0100
0000
,  // measure 67
0001
0000
0100
0000
,  // measure 68
1000
1000
1000
0000
,  // measure 69
0001
0000
1000
0000
,  // measure 70
0010
0010
0010
0000
,  // measure 71
1000
0000
0010
0000
,  // measure 72
0100
0100
0100
0000
,  // measure 73
1001
0000
0000
0000
,  // measure 74
2000
0000
3000
0000
,  // measure 75
0100
0000
0001
0000
,  // measure 76
0200
0000
0300
0000
,  // measure 77
0010
0000
0010
0000
,  // measure 78
0001
0000
0000
0000
,  // measure 79
1000
0000
0001
0000
,  // measure 80
0010
0000
0000
0000
,  // measure 81
1001
0000
0100
0100
;
