#VERSION:0.83;
#TITLE:spiral galaxy;
#SUBTITLE:-L.E.D. STYLE SPREADING PARTICLE BEAM MIX-;
#ARTIST:Remixed by L.E.D.;
#TITLETRANSLIT:;
#SUBTITLETRANSLIT:;
#ARTISTTRANSLIT:;
#GENRE:;
#ORIGIN:;
#CREDIT:;
#BANNER:spiral galaxy -L.E.D. STYLE SPREADING PARTICLE BEAM MIX-.png;
#BACKGROUND:spiral galaxy -L.E.D. STYLE SPREADING PARTICLE BEAM MIX--bg.png;
#PREVIEWVID:;
#JACKET:;
#CDIMAGE:;
#DISCIMAGE:;
#LYRICSPATH:;
#CDTITLE:;
#MUSIC:spiral galaxy -L.E.D. STYLE SPREADING PARTICLE BEAM MIX-.ogg;
#OFFSET:-0.508685;
#SAMPLESTART:50.380970;
#SAMPLELENGTH:15.000000;
#SELECTABLE:YES;
#BPMS:0.000=154.000;
#STOPS:223.750=3.117;
#DELAYS:;
#WARPS:;
#TIMESIGNATURES:0.000=4=4;
#TICKCOUNTS:0.000=4;
#COMBOS:0.000=1;
#SPEEDS:0.000=1.000=0.000=0;
#SCROLLS:0.000=1.000;
#FAKES:;
#LABELS:0.000=Song Start;
#BGCHANGES:;
#KEYSOUNDS:;
#ATTACKS:
;

//---------------dance-single - ----------------
#NOTEDATA:;
#CHARTNAME:;
#STEPSTYPE:dance-single;
#DESCRIPTION:;
#CHARTSTYLE:;
#DIFFICULTY:Hard;
#METER:12;
#RADARVALUES:0.525642,0.585580,0.302424,0.176414,0.184815,438.000000,402.000000,36.000000,21.000000,0.000000,0.000000,0.000000,0.000000,0.000000,0.525642,0.585580,0.302424,0.176414,0.184815,438.000000,402.000000,36.000000,21.000000,0.000000,0.000000,0.000000,0.000000,0.000000;
#CREDIT:;
#NOTES:
0000
0000
0000
0000
,
0000
0000
0000
0000
,
0000
0000
0000
0000
,
0000
0000
0000
0000
,
1000
1000
0100
0001
,
0010
0010
0001
1000
,
0110
0100
0001
0010
,
0200
0000
1000
1300
,
0010
0000
0001
0000
0010
1000
0100
1000
,
0100
0000
0001
0000
0100
0010
0001
0010
,
0010
0000
1000
0000
0001
1000
0001
0010
,
0100
0000
0001
0000
0010
1000
0100
0001
,
0011
0000
1000
0000
0001
0100
0001
0010
,
1000
0000
0100
0000
1000
0001
0100
0001
,
0001
0000
0010
1000
0100
1000
0001
0000
,
0010
0000
0010
0000
1000
0000
0100
0000
1000
0001
0000
1000
0010
0000
0001
0000
,
0100
0000
0010
0000
0100
0000
0000
0001
0000
0000
1000
0000
0001
0000
0000
1000
,
0000
0000
0010
0000
0001
0000
0000
0010
0000
0000
0100
0000
1000
0000
0100
0000
,
0001
0000
0100
0000
0001
0000
0000
0010
0000
0000
1000
0000
0100
0000
0000
1000
,
0000
0000
0001
0000
0100
0000
0000
0001
0000
0000
0010
0000
0100
0000
0001
0000
,
0100
0000
1000
0000
0010
0000
0000
0010
0000
0000
0001
0000
0100
0000
0000
0100
,
0000
0000
1000
0000
0001
0000
0000
0001
0000
0000
0010
0000
1000
0000
0100
0000
,
1000
0000
0001
0000
1000
0000
0000
1000
0000
0000
0100
0000
0010
0000
0001
0000
,
2002
0000
0000
0003
0100
0000
3100
0000
,
0010
0001
0100
0010
1000
0000
1020
0000
,
0130
0000
0001
0100
0000
0010
1000
0000
,
0100
0001
0100
0010
1000
0000
0201
0000
,
0301
0000
1000
0000
0001
0010
0010
0000
,
0001
0010
0100
1000
0001
0000
0012
0000
,
1003
0000
0010
0100
0010
1000
0001
0000
,
1000
0010
1000
0100
0001
0000
2001
0000
,
0020
0000
3000
0000
0001
0001
0031
0000
,
0100
0000
0000
0001
0000
0000
0100
0000
0010
0000
0001
0000
0010
1000
0000
0000
,
0001
0000
0000
0100
0000
0000
0001
0000
1000
0000
0100
0000
1000
0010
0000
0000
,
0001
0000
0000
1000
0000
0000
0001
0000
0010
0000
0100
0000
0010
0100
0000
0000
,
1000
0000
0000
0100
0000
0000
0001
0000
0100
0000
0010
0000
0100
0001
0000
0000
,
0010
0000
0000
1010
0000
0000
0100
0000
0010
0000
0010
0000
1000
0010
0000
0000
,
0001
0000
0000
0101
0000
0000
0100
0000
1000
0000
1000
0000
0001
1000
0000
0000
,
0100
0000
0000
1001
0000
0000
0010
0000
0001
0000
0001
0000
0100
0001
0000
0000
,
1000
0000
0000
0101
0000
0000
1000
0000
0010
0000
0010
0000
0010
0100
0000
0000
,
1000
0100
0010
0100
0001
0010
1000
0000
,
0001
0100
0001
0100
0010
1000
0100
0000
,
0010
0001
0010
0100
1000
0100
0001
0000
,
1000
0001
1000
1000
0010
0001
0100
0000
,
0110
0000
0001
0010
0100
0010
1000
0000
,
0011
0000
0010
0001
0010
1000
0100
0000
,
1010
0000
1000
0100
0101
0000
0010
0001
,
0011
0000
1010
0000
0110
1000
0001
0010
,
2002
0000
0000
0000
,
0000
0000
0000
3000
,
0020
0000
0000
0030
,
0200
0000
0000
0303
,
0022
0033
2200
3300
,
2020
3030
0202
0303
,
1100
0110
1010
0011
,
0100
0000
1000
0000
0100
0000
0001
0000
1000
0000
0001
0000
0010
0100
0010
0100
,
1000
0000
0010
0000
1000
0000
0000
0100
0000
0000
0001
0000
0100
0000
0000
0010
,
0000
1000
0001
0010
1000
0100
0001
0100
,
0100
0000
1000
0000
0010
0000
0000
0100
0000
0000
0010
0000
0001
0000
0000
0010
,
0000
0100
0010
0100
0001
1000
1000
0010
,
0100
0000
0010
0000
0000
0100
0000
0000
0001
0000
0000
1000
0000
0000
0010
0000
,
1000
0000
0100
0000
0000
1000
0000
0000
0001
0000
0010
0000
0001
0000
0100
0000
,
0010
0000
1000
0000
0000
0010
0000
0000
0100
0000
0000
0001
0000
0000
1000
0000
,
0100
0000
1000
0000
0001
0100
0000
0001
0000
1000
0000
0010
0000
0010
1000
0000
,
1100
0000
0001
0010
1000
0010
0001
0100
,
0010
1000
0001
0100
0100
0010
0001
0100
,
0010
1000
0001
0100
0010
0001
0100
1000
,
0001
0010
0001
1000
0010
0100
0001
0001
,
1001
0000
0010
0100
0010
0100
0001
0010
,
1010
0000
0100
1000
0100
0010
1000
0001
,
0101
0000
0010
0001
1100
0000
0100
0001
,
0011
0000
0101
0000
0110
0010
1001
0100
,
0020
0000
0000
0000
,
0000
0000
0000
0030
0000
0000
0000
0000
;

//---------------dance-single - ----------------
#NOTEDATA:;
#CHARTNAME:;
#STEPSTYPE:dance-single;
#DESCRIPTION:;
#CHARTSTYLE:;
#DIFFICULTY:Medium;
#METER:8;
#RADARVALUES:0.387631,0.428540,0.201616,0.235219,0.000000,323.000000,299.000000,24.000000,28.000000,0.000000,0.000000,0.000000,0.000000,0.000000,0.387631,0.428540,0.201616,0.235219,0.000000,323.000000,299.000000,24.000000,28.000000,0.000000,0.000000,0.000000,0.000000,0.000000;
#CREDIT:;
#NOTES:
0000
0000
0000
0000
,
0000
0000
0000
0000
,
0000
0000
0000
0000
,
0000
0000
0000
0000
,
0020
0000
0100
0100
,
1000
0001
1000
0030
,
2002
3000
0010
1000
,
0200
0000
0000
0303
,
1000
0000
0100
0000
1000
0000
0001
0010
,
0001
0000
0100
0000
0001
0000
0100
0010
,
0100
0000
1000
0000
0100
0000
1000
0010
,
1000
0000
0001
0000
0010
0000
0010
1000
,
0010
0000
1000
0000
1000
0100
1000
0000
,
0100
0000
0001
0000
0001
0100
0001
0000
,
0010
0000
0100
0000
0100
1000
0100
0000
,
0001
0000
0100
0000
0010
0010
0010
0000
,
0100
0000
1000
0000
0010
0001
0100
0000
,
0010
0000
0100
0001
0000
0100
1000
0000
,
0001
0000
0010
0000
0001
1000
0100
0000
,
0100
0010
1000
0000
0001
0000
0101
0000
,
1000
0000
1000
0010
0001
0000
0001
0100
,
0010
0000
0010
0001
0010
0000
0100
0000
,
1000
0000
0100
1000
0001
0100
0010
0000
,
0220
0000
0330
1001
,
0010
0000
0001
0010
1000
0000
2000
0000
,
0000
0010
0000
3010
,
0100
0000
0001
1000
0100
0000
0200
0000
,
0000
1000
0001
0301
,
0010
0000
1000
0100
0010
0000
0020
0000
,
0100
1000
0100
0031
,
1000
0000
0010
1000
0001
0000
0002
0000
,
0010
0100
0103
1100
,
1000
0000
0100
0000
0001
0000
0100
1000
,
0100
0000
0010
0000
0001
0000
0010
0100
,
0010
0000
1000
0000
0001
0000
1000
0010
,
1000
0000
0001
0000
0100
0000
0100
0010
,
1000
0000
0001
0000
0010
1000
0010
0000
,
0100
0000
1000
0000
0100
0010
0100
0000
,
0001
0000
1000
0000
0100
0001
0100
0000
,
0010
0000
1000
0000
0001
0001
0001
0000
,
0100
0000
0001
0000
0011
0000
1000
0100
,
1000
0000
0001
0000
0101
0000
0010
1000
,
0010
0000
0100
0000
1001
0000
0010
0001
,
0010
0000
0100
0000
1000
0010
0010
0000
,
2000
0000
3001
0000
0001
1000
0100
0000
,
0200
0000
0310
0000
0010
0001
0100
0000
,
0002
0000
1003
0010
2000
0000
3100
0010
,
0100
1000
1010
0101
,
1001
0000
0000
0000
,
0000
0000
0000
0000
,
0000
0000
0000
0000
,
0200
0000
0000
0300
,
1001
0000
1100
0000
,
0011
0000
0110
0000
,
0100
1000
0001
0010
,
1010
0000
0011
0000
0100
0010
0100
0001
,
1000
0000
0001
0000
0100
0000
0010
1000
,
0001
0000
1000
0010
0100
0010
1000
0000
,
0001
0000
0010
0000
0100
0000
0001
0100
,
1000
0000
0001
0010
0100
0010
0001
0000
,
1000
0000
0001
0000
1000
0000
0001
0010
,
0001
0000
0100
1000
0010
1000
0100
0000
,
0100
0100
0010
0010
,
0100
0001
1000
0010
0100
0000
0110
0000
,
0002
0000
0100
0000
0103
0010
1000
0000
,
0200
0000
0001
0000
0301
0010
1000
0000
,
0020
0000
1000
0000
0031
0100
0010
0100
,
2000
0000
0001
0000
3010
0100
0010
0000
,
0210
1000
0010
0310
,
2010
0100
0001
3100
,
0102
1003
0120
0031
,
2100
3200
0320
0031
,
2002
0000
0000
0000
0000
0000
0000
3003
;

//---------------dance-single - ----------------
#NOTEDATA:;
#CHARTNAME:;
#STEPSTYPE:dance-single;
#DESCRIPTION:;
#CHARTSTYLE:;
#DIFFICULTY:Easy;
#METER:4;
#RADARVALUES:0.246020,0.272182,0.084007,0.142812,0.000000,205.000000,195.000000,10.000000,17.000000,0.000000,0.000000,0.000000,0.000000,0.000000,0.246020,0.272182,0.084007,0.142812,0.000000,205.000000,195.000000,10.000000,17.000000,0.000000,0.000000,0.000000,0.000000,0.000000;
#CREDIT:;
#NOTES:
0000
0000
0000
0000
,
0000
0000
0000
0000
,
0000
0000
0000
0000
,
0000
0000
0000
0000
,
0001
1000
0001
0000
,
0100
0010
0100
0000
,
0010
1000
0100
0001
,
0200
0000
0000
0300
,
0010
0000
0001
1000
,
1000
0000
0100
0010
,
0010
0000
0001
1000
,
0001
0100
0100
0000
,
0010
0001
1000
0000
,
0001
0100
0010
0000
,
0100
0010
1000
0001
,
0010
0000
0110
0000
,
0001
0010
0001
0000
,
0100
1000
0010
0100
,
0001
1000
0010
0000
,
1000
0001
1000
1000
,
0100
0010
0001
0000
,
0010
1000
0001
1000
,
0010
0100
0001
0000
,
0020
0000
0000
0030
,
1000
0001
1000
0002
,
0000
0003
0000
0000
,
0010
1000
0100
0020
,
0000
0030
0000
0000
,
0001
0100
1000
0200
,
0000
0300
0000
0000
,
0001
0010
1000
0000
,
2002
0000
0000
3003
,
0010
0100
0010
0000
,
0010
0001
0010
0000
,
1000
0001
1000
0000
,
0100
1000
0100
0000
,
0100
0010
0100
0010
,
1000
0100
1000
0100
,
0010
0001
0100
0010
,
1000
0000
1001
0000
,
0010
0001
0010
0010
,
0100
0001
0100
0100
,
1000
0010
1000
1000
,
0001
1000
0001
0001
,
0020
0030
1000
0100
,
0002
0003
0010
0100
,
2000
3000
0020
0030
,
0200
0300
0002
0003
,
0110
0000
0000
0000
,
0000
0000
0000
0000
,
0000
0000
0000
0000
,
0000
0000
0000
0000
,
1001
0000
0110
0000
,
1001
0000
0110
0000
,
1000
1000
0001
0001
,
0010
1000
0100
0001
,
0010
0100
1000
0100
,
0001
0010
0010
0000
,
0001
0010
0100
0010
,
0100
1000
1000
0000
,
0010
0000
0010
0000
,
0100
0100
0001
0000
,
0100
1000
0010
0001
,
0100
0000
1001
0000
,
0100
0001
0100
1000
,
0010
0001
0010
0010
,
1000
0001
1000
0010
,
0100
0001
1000
1000
,
0002
0003
0100
1000
,
0200
0300
0010
1000
,
0002
0003
2000
3000
,
0010
0010
0100
0100
,
0110
0000
0000
0000
;

//---------------dance-single - ----------------
#NOTEDATA:;
#CHARTNAME:;
#STEPSTYPE:dance-single;
#DESCRIPTION:;
#CHARTSTYLE:;
#DIFFICULTY:Beginner;
#METER:3;
#RADARVALUES:0.172814,0.211697,0.050404,0.050404,0.000000,144.000000,138.000000,6.000000,6.000000,0.000000,0.000000,0.000000,0.000000,0.000000,0.172814,0.211697,0.050404,0.050404,0.000000,144.000000,138.000000,6.000000,6.000000,0.000000,0.000000,0.000000,0.000000,0.000000;
#CREDIT:;
#NOTES:
// measure 0
0000
0000
0000
0000
,  // measure 1
0000
0000
0000
0000
,  // measure 2
0000
0000
0000
0000
,  // measure 3
0000
0000
0000
0000
,  // measure 4
1000
0000
1000
0000
,  // measure 5
0001
0000
0001
0000
,  // measure 6
0100
0000
0100
0000
,  // measure 7
0020
0000
0030
0000
,  // measure 8
0100
0000
0100
0000
,  // measure 9
1000
0000
1000
0000
,  // measure 10
0001
0000
0001
0000
,  // measure 11
0010
0000
0010
0000
,  // measure 12
1000
0000
0010
0000
,  // measure 13
1000
0000
0010
0000
,  // measure 14
0001
0000
0100
0000
,  // measure 15
0001
0000
0100
0000
,  // measure 16
1000
0000
1000
0000
,  // measure 17
0001
0000
1000
0000
,  // measure 18
0010
0000
0010
0000
,  // measure 19
0001
0000
0010
0000
,  // measure 20
0100
0000
0100
0000
,  // measure 21
0010
0000
0100
0000
,  // measure 22
0001
0000
0001
0000
,  // measure 23
1000
0000
1001
0000
,  // measure 24
0010
0000
0010
0020
,  // measure 25
0030
0000
0010
0000
,  // measure 26
0100
0000
0100
0200
,  // measure 27
0300
0000
0100
0000
,  // measure 28
1000
0000
1000
2000
,  // measure 29
3000
0000
1000
0000
,  // measure 30
0001
0000
0001
0000
,  // measure 31
2002
0000
3003
0000
,  // measure 32
0010
0000
0010
0000
,  // measure 33
0100
0000
0100
0000
,  // measure 34
0001
0000
0001
0000
,  // measure 35
1000
0000
1000
0000
,  // measure 36
0010
0000
0100
0000
,  // measure 37
0010
0000
0100
0000
,  // measure 38
0001
0000
1000
0000
,  // measure 39
0001
0000
1000
0000
,  // measure 40
0100
0100
0100
0000
,  // measure 41
0001
0001
0001
0000
,  // measure 42
1000
1000
1000
0000
,  // measure 43
0010
0010
0010
0000
,  // measure 44
1000
1000
1000
0000
,  // measure 45
0001
0001
0001
0000
,  // measure 46
0100
0000
0100
0000
,  // measure 47
0010
0000
0010
0000
,  // measure 48
0110
0000
0000
0000
,  // measure 49
0000
0000
0000
0000
,  // measure 50
0000
0000
0000
0000
,  // measure 51
0000
0000
0000
0000
,  // measure 52
1001
0000
0000
0000
,  // measure 53
0110
0000
0000
0000
,  // measure 54
0001
0000
1000
0000
,  // measure 55
0001
0000
1000
0000
,  // measure 56
0100
0000
0100
0000
,  // measure 57
0010
0000
0010
0000
,  // measure 58
1000
0000
1000
0000
,  // measure 59
0001
0000
0001
0000
,  // measure 60
0100
0100
0100
0000
,  // measure 61
0001
0001
0001
0000
,  // measure 62
1000
1000
1000
0000
,  // measure 63
0010
0010
0010
0000
,  // measure 64
0100
0000
1000
0000
,  // measure 65
0100
0000
1000
0000
,  // measure 66
0001
0000
0010
0000
,  // measure 67
0001
0000
0010
0000
,  // measure 68
1000
1000
1000
0000
,  // measure 69
0001
0001
0001
0000
,  // measure 70
0100
0000
0100
0000
,  // measure 71
0010
0000
0010
0000
,  // measure 72
1001
0000
0000
0000
;
