#TITLE:ouroboros;
#SUBTITLE:-twin stroke of the end-;
#ARTIST:Cranky VS MASAKI;
#TITLETRANSLIT:;
#SUBTITLETRANSLIT:;
#ARTISTTRANSLIT:;
#GENRE:;
#CREDIT:;
#MUSIC:ouroboros -twin stroke of the end-.ogg;
#BANNER:ouroboros -twin stroke of the end-.png;
#BACKGROUND:ouroboros -twin stroke of the end--bg.png;
#CDTITLE:;
#SAMPLESTART:78.516;
#SAMPLELENGTH:15.000;
#SELECTABLE:YES;
#OFFSET:-0.085;
#BPMS:0.000=188.000;
#STOPS:31.500=0.319
,360.000=0.160
,360.250=0.160
,360.500=0.160
,360.750=0.160
,361.000=0.160
,361.250=0.160
,361.500=0.160
,361.750=0.160
;
#BGCHANGES:;
#FGCHANGES:;

//--------------- dance-single - ----------------
#NOTES:
     dance-single:
     :
     Beginner:
     4:
     0,0,0,0,0:
0000
0000
0000
0000
,
0000
0000
0000
0000
,
0000
0000
0000
0000
,
0000
0000
0000
0000
,
0000
0000
0000
0000
,
0000
0000
0000
0000
,
0000
0000
0000
0000
,
0000
0000
0000
0000
,
0000
0100
0000
0200
,
0000
0300
0000
0001
,
0000
1000
0000
0001
,
0000
1000
0000
0010
,
0000
0100
0000
0010
,
0000
0100
0000
1000
,
0000
0100
0000
1000
,
0000
0100
0000
0001
,
0000
0010
0000
0001
,
0000
0010
0000
1000
,
1000
1000
0000
0001
,
0000
1000
0000
0010
,
0010
0010
0000
0100
,
0000
0010
0000
0001
,
0001
0001
0000
1000
,
1000
1000
0000
0010
,
0010
0010
0000
0100
,
0000
0100
0000
0110
,
0000
0100
0000
0010
,
0000
0100
0000
0001
,
0000
0001
0000
1000
,
0000
0001
0000
1001
,
0000
1000
0000
0001
,
0000
0001
0000
1000
,
0000
0010
0000
0100
,
0000
0001
0000
0100
,
0000
0010
0000
0100
,
0000
0010
0000
0100
,
0000
0100
0000
0200
,
0000
0300
0000
1000
,
0000
1000
0000
0001
,
0000
0001
0000
1000
,
0000
0001
0000
0100
,
0000
0010
0000
0100
,
0000
0100
0000
0010
,
0000
0010
0000
0100
,
0000
0010
0000
0001
,
0000
1000
0000
0001
,
0000
1000
0000
0001
,
0000
0001
0000
0010
,
0000
0100
0000
0010
,
0000
0100
0000
1000
,
0000
1000
0000
0001
,
0000
1000
0000
0010
,
0000
0100
0000
0010
,
0000
0100
0000
0001
,
0000
0001
0000
1000
,
0000
1000
0000
1001
,
0000
0000
0000
0000
,
0000
0000
0000
0010
,
0000
0010
0000
0100
,
0000
0100
0000
0020
,
0000
0000
0000
0030
,
0000
0010
0000
0110
,
0000
0100
0000
0010
,
0000
0100
0000
1000
,
0000
1000
0000
0001
,
0000
1000
0000
0001
,
0000
1000
0000
0010
,
0000
0010
0000
0100
,
0000
0001
0000
1000
,
0000
1000
0000
0010
,
0000
1000
0000
0100
,
0000
0100
0000
0001
,
0000
1000
0000
0010
,
0000
0010
0000
0100
,
0000
0001
0000
0100
,
0000
1000
0000
0010
,
0000
0100
0000
0020
,
0000
0030
0000
1000
,
0000
0001
0000
1000
,
0000
0001
0000
0100
,
0000
0010
0000
0100
,
0000
0010
0000
1001
,
0000
0000
0000
1000
,
0000
0001
0000
2000
,
0000
3000
0000
0002
,
0000
0003
0000
0010
,
0000
0100
0000
0010
,
0000
0010
0000
0100
,
0000
1000
0000
0100
,
0000
0100
0000
0001
,
0000
1000
0000
0000
0001
0000
1000
0000
0000
0000
0000
0000
0010
0000
0000
0000
,
0000
0100
0000
0010
,
0000
0100
0000
0001
,
0000
0000
1000
0000
,
0000
0001
0000
0000
,
1000
0000
0000
0010
,
0000
0000
0100
0000
,
0000
0010
0000
0000
,
0100
0000
0000
0001
,
0001
0000
1000
1000
,
0000
0010
0010
0000
,
0100
0100
0000
0001
,
0001
0000
1000
1000
,
0000
0010
0010
0000
,
0100
0000
0000
0110
,
0000
0000
0000
0000
,
0000
0000
0000
0000
,
0000
0000
0000
0000
,
0000
0000
0000
0100
,
0000
0000
0000
1000
,
0000
0000
0000
0010
,
0000
0000
0000
0001
;

//--------------- dance-single - ----------------
#NOTES:
     dance-single:
     :
     Easy:
     7:
     0,0,0,0,0:
0000
0000
0000
0000
,
0000
0000
0000
0000
,
0000
0000
0000
0000
,
0000
0000
0000
0000
,
0000
0000
0000
0000
,
0000
0000
0000
0000
,
0000
0000
0000
0000
,
0000
0000
0000
0000
,
0001
0001
0001
0002
,
0000
0000
0003
1000
,
0001
1000
1000
0010
,
0100
0010
0001
1000
,
0001
1000
1000
0001
,
1000
0100
1000
0010
,
0100
0010
0010
0100
,
0010
0001
0010
0100
,
0001
0100
0100
1000
,
0001
0100
0110
1000
,
0001
0100
0100
0010
,
0100
0001
0100
1000
,
0010
0100
0100
0001
,
1000
0001
1000
0010
,
0010
0001
0010
0100
,
0100
0010
0100
1000
,
0001
1000
0001
0010
,
1000
0100
0001
2001
,
0000
0010
0000
0100
,
0000
0010
3000
0120
,
0000
0100
0000
1000
,
0000
0100
0030
0201
,
0000
0010
0000
0001
,
0000
1000
0300
1020
,
0000
0001
0000
0100
,
0000
0001
0030
1000
,
0010
0001
0010
1000
,
0100
0001
0100
2000
,
3000
0002
0003
0200
,
0300
0020
0030
1000
,
0000
0001
0000
0000
1000
0000
0000
0001
,
0000
0010
0100
0020
,
0000
0000
0030
0100
,
0100
0010
0100
0001
,
1000
0100
1000
0100
,
0010
0001
0010
0001
,
0000
0100
0000
0000
1000
0000
0010
0000
,
0100
0010
0100
0001
,
0000
1000
0000
0000
0001
0000
1000
0000
,
0000
0010
0000
0000
0100
0000
0001
0000
,
1000
0010
0100
0010
,
0100
1000
0001
1000
,
0000
0001
0000
0000
0100
0000
0010
0000
,
0000
0100
0000
0000
0001
0000
0100
0000
,
1000
0100
0010
0100
,
0100
0001
0001
1000
,
0001
1000
0010
0100
,
0001
0100
0010
2002
,
0000
0000
0000
3003
,
0000
0000
0000
2000
,
0000
3002
0000
2003
,
0000
3020
0000
0230
,
0000
0000
0000
0300
,
0000
0010
0001
0020
,
0000
0130
0100
0010
,
0100
1000
0100
0002
,
0000
1003
1000
0001
,
1000
0010
0100
0001
,
0100
0001
0100
0010
,
1000
0100
1000
0020
,
0000
1030
1000
0010
,
0100
0010
1000
0002
,
0000
0013
0010
0001
,
0100
0010
0100
2000
,
0000
3010
0010
1000
,
0100
1000
0100
0010
,
0100
0010
0001
0010
,
0001
0100
1000
0100
,
0100
0010
0010
0200
,
0000
0000
0300
1000
,
0100
0001
0100
0010
,
0100
0001
1000
0010
,
1000
0001
0100
0010
,
1000
0001
0100
0010
,
0220
0000
0330
1000
,
0001
0100
0010
1000
,
1000
0002
0000
0000
0003
0000
0100
0000
,
0010
0000
0000
0110
0000
0000
0100
0000
,
0001
0100
0100
0010
,
1000
0010
0010
0100
,
1000
0100
0100
0001
,
0100
0010
0010
1000
,
0001
1000
0001
1000
0001
0000
0010
0000
,
0000
0100
0000
0000
0010
0000
0000
0100
,
0000
0010
0100
1000
,
0100
1000
0001
1000
,
0001
0010
0001
0010
,
0100
0010
0001
0010
,
0100
0010
1000
0010
,
1000
0100
1000
0100
,
0001
0100
0010
1000
,
0001
1000
0010
1000
,
0010
1000
0100
0001
,
0100
0010
0100
0001
,
0001
0011
1000
1000
,
1010
0100
0100
0110
,
0002
0000
0000
0200
,
0000
0000
0000
0000
,
0000
0000
0000
0000
,
0303
0000
0000
0000
,
0000
0000
0000
0000
,
0000
0001
0000
1000
,
0000
0001
0000
1000
,
0000
0010
0000
0100
,
0000
0110
0000
0000
;

//--------------- dance-single - ----------------
#NOTES:
     dance-single:
     :
     Medium:
     10:
     0,0,0,0,0:
0000
0000
0000
0000
,
0000
0000
0000
0000
,
0000
0000
0000
0000
,
0000
0000
0000
0000
,
0000
0000
0000
0000
,
0000
0000
0000
0000
,
0000
0000
0000
0000
,
0000
0000
0000
0000
,
0100
0000
0010
0100
0010
0100
0020
0000
,
0000
0000
0030
1000
,
0001
1000
1000
0001
,
1000
0000
0001
0000
0100
0010
0100
0000
,
0010
0100
0001
1000
,
0010
0000
1000
0010
1000
0001
0100
0000
,
0010
0100
0001
1000
,
0010
0000
0100
0000
0001
0010
0001
0000
,
0100
0001
1000
0010
,
1000
0000
0010
0100
0010
1000
0001
0000
,
1000
0010
0100
0010
,
1000
0000
0001
0000
0100
0001
0100
0000
,
0010
1000
0001
1000
,
0010
0000
0100
0000
0001
0100
0001
0000
,
0100
0010
0000
1000
0010
1000
0001
0000
,
0100
0010
0000
0100
0010
1000
0001
0000
,
0100
0001
0000
1000
0010
0000
0100
0000
,
0100
0001
0001
2000
,
3000
2002
3003
0010
,
0001
0022
0033
0200
,
0300
2200
3300
0010
,
0100
0220
0330
0020
,
0030
2002
3003
1000
,
0100
2200
3300
0020
,
0030
2020
3030
0001
,
0010
0001
0100
2020
,
3030
0001
0100
1000
,
0001
1000
0001
1001
,
0000
0110
0000
1001
,
0000
0010
0000
0200
,
0300
0020
0000
0030
0200
0000
0300
0002
,
0000
0003
1000
0000
0010
0000
0200
0000
,
0002
0000
0303
1000
,
1000
0000
0010
1000
0100
0000
0001
0000
,
0010
0100
1000
0100
,
0010
0001
0100
0110
,
0000
1100
0000
0000
1010
0000
0100
0000
,
0001
0100
0010
1000
,
0000
1000
0000
0000
0001
0000
0100
0000
,
0000
0100
0000
0000
0010
0000
1000
0000
,
0100
1000
0010
0100
,
0001
0100
0010
0001
,
0000
0010
0000
0000
0010
0000
0001
0000
,
0000
0100
0000
0000
0001
0000
1000
0000
,
0001
0100
0010
0100
,
0100
0000
0010
0000
0100
0000
0001
1000
,
0001
0000
1000
0010
1000
0000
0001
1000
,
0100
1000
0010
0001
1000
0000
0220
0000
,
0000
0000
0000
0330
,
0000
0000
0000
1000
,
1000
0001
1000
0010
,
0100
0001
0100
0020
,
0000
0000
0030
0000
,
0000
0000
0010
0000
0100
0001
0020
0000
,
0030
0100
1000
0100
,
0010
0000
0100
0000
0010
1000
0002
0000
,
0003
0001
0010
0001
,
0100
1000
0100
0010
,
0100
0001
0010
0100
,
1000
0000
0100
0000
0100
0010
2000
0000
,
3000
0010
0100
0010
,
0010
0000
0001
0000
0100
0010
0002
0000
,
0003
0010
0010
0001
,
0100
0000
1000
0000
0100
0010
2000
0000
,
3000
0010
0100
0010
,
1000
0010
0100
0001
,
1000
0100
0010
0100
,
0010
1000
0100
0001
,
0001
0100
0100
2002
,
0000
0000
3003
0010
,
1000
0000
0010
0000
0100
0010
0100
0000
,
0001
0000
0100
0000
0001
0010
0001
0000
,
1000
0000
0100
0000
1000
0100
1000
0000
,
0010
0000
0100
0000
0001
0100
0001
0000
,
0220
0000
0330
0010
,
0100
0010
1000
0001
,
0001
0020
0000
0000
0030
0000
1000
0000
,
0001
0000
1000
1001
0000
0000
0100
0000
,
0010
0000
0100
0010
0100
0000
0010
0000
,
1000
0000
0010
1000
0010
0000
0100
0000
,
0001
0000
0100
1000
0001
0000
1000
0000
,
0010
0000
0001
0010
0100
0000
0010
0000
,
1000
0001
1000
0001
0100
0000
0020
0000
,
0030
0200
0000
0300
0020
0000
0030
2000
,
0000
3000
0001
0000
0110
0000
0001
0000
,
0001
0010
0100
0100
,
0010
1000
1000
0010
,
0100
0100
0010
1000
,
1000
0001
0100
0100
,
0010
0100
0100
0001
,
0010
0100
0001
1000
,
0100
1000
0100
0000
0010
0000
0100
0010
,
0100
0000
0001
0000
0010
0001
0010
0000
,
1000
0100
0001
1000
,
0001
1000
0001
0000
0100
0000
0010
0100
,
0010
0000
0100
0000
0001
0100
0001
0000
,
2000
0000
3000
0022
,
0000
0000
0000
0000
,
0000
0000
0000
0033
,
0000
0000
0000
0000
,
0000
0000
0000
0000
,
0000
0100
0000
0001
,
0000
0100
0000
1000
,
0000
0010
0100
0001
,
1000
0100
1001
0000
;

//--------------- dance-single - ----------------
#NOTES:
     dance-single:
     :
     Hard:
     15:
     0,0,0,0,0:
0000
0000
0000
0000
,
0000
0000
0000
0000
,
0000
0000
0000
0000
,
0000
0000
0000
0000
,
0000
0000
0000
0000
,
0000
0000
0000
0000
,
0000
0000
0000
0000
,
0000
0000
0000
0000
,
1000
0000
0001
0001
0001
0001
0002
0000
,
0000
0000
0000
0000
0000
0000
0000
0000
0003
0000
0000
0000
0010
0000
0100
1000
,
0010
0000
0100
0000
0001
0000
0000
0100
0000
0000
0001
0000
0010
0000
0000
0000
,
0100
0000
1000
0000
0000
0000
0100
0000
0001
0000
1000
0000
0001
0000
1000
0100
,
1000
0000
0100
0000
0010
0000
0000
0100
0000
0000
0010
0000
1000
0000
0000
0000
,
0100
0000
0001
0000
0000
0000
0010
0000
0100
0000
0001
0000
0100
0000
0001
0010
,
0001
0000
0010
0000
0100
0000
0000
0001
0000
0000
0100
0000
0010
0000
0000
0000
,
0100
0000
1000
0000
0000
0000
0100
0000
0001
0000
1000
0000
0001
0000
0010
0100
,
0010
0000
1000
0000
0010
0000
0000
1000
0000
0000
0010
0000
0100
0000
0000
0000
,
1000
0000
0010
0000
0000
0000
0001
0000
0100
0000
0010
0000
0100
0000
0010
1000
,
0010
0000
0001
0000
0100
0000
0000
0001
0000
0000
0100
0000
0010
0000
0000
0000
,
0100
0000
1000
0000
0000
0000
0001
0000
0010
0000
1000
0000
0010
0000
1000
0100
,
1000
0000
0100
0000
0001
0000
0000
1000
0000
0000
0001
0000
0100
0000
0000
0000
,
1000
0010
0000
1000
0100
0001
0100
0000
,
0010
0100
0000
0001
0100
0010
0100
0000
,
0001
1000
0000
0010
1000
0001
0100
0000
,
0010
0000
0000
0100
0000
0000
0001
0000
0000
1000
0000
0000
0100
0000
0000
0010
0000
0000
0100
0000
0001
0000
0010
0000
,
0100
0010
1000
0100
0001
0010
0100
0010
1000
0100
0000
0000
,
0000
0000
0001
0000
1000
0000
0000
0001
0000
0000
1000
0000
0000
0000
0010
0000
,
0000
0010
0000
0100
0000
0100
0010
0000
,
0000
0000
0000
1000
0000
0000
0010
0000
1000
0000
0001
0000
0010
0000
0000
0100
0000
0000
0001
0000
0000
0000
0000
0000
,
0100
0000
0000
0010
0000
0000
0100
0000
0001
0000
1000
0000
0010
0000
0001
0000
0100
0000
1000
0000
0000
0000
0000
0000
,
0000
0000
0001
0000
0100
0000
0000
0010
0000
0000
0100
0000
0000
0000
0001
0000
,
0000
0001
0000
1000
0000
1000
0001
0000
,
0000
0000
0000
0100
0000
0000
0010
0000
0001
0000
1000
0000
0001
0000
0000
0100
0000
0000
0010
0000
0000
0000
0000
0000
,
0100
0000
0000
0001
0000
0000
0100
0000
0001
0000
0010
0000
1000
0000
0100
0000
0010
0000
0001
0000
0000
0000
0000
0000
,
0100
1000
0100
0010
,
0100
0001
0100
1001
,
0000
0110
0000
1100
,
0000
0000
0101
0000
0000
0000
0010
1000
,
0000
0010
0100
0000
0010
1000
0000
0010
,
0100
0000
0010
1000
0001
1000
0020
0000
,
0000
0000
0000
0000
0000
0000
0000
0000
0030
0000
0000
0000
0100
0000
0000
0001
,
0000
0000
0000
0100
0000
0000
0010
0000
0000
0100
0000
0000
0001
0000
0000
1000
0000
0000
0010
0000
0000
0000
0010
0000
,
0001
0000
0001
0010
0000
0010
0100
0000
0100
0010
0000
0010
,
1000
0000
0000
0000
0000
0000
0000
0000
1000
0000
0000
0000
0001
0000
0000
0000
0000
0000
0000
0000
0001
0000
0000
0000
0100
0000
0000
0000
0000
0000
0000
0000
0100
0000
0000
0000
1000
0000
0000
0001
0000
0000
0000
0000
0000
1000
0000
0000
,
0001
0000
1000
0010
0000
1000
0010
0000
1000
0000
0001
0000
0100
0000
1000
0000
,
0010
0000
0100
0000
1000
0000
0100
0000
0001
0000
1000
0000
0010
0000
0000
0100
,
0000
0000
0010
0000
0000
0100
0000
0000
0010
0000
1000
0000
0001
0000
0000
0010
,
0000
0000
0100
0000
0000
0001
0000
0000
0100
0000
0000
0000
0010
0000
1000
0000
,
0001
0000
1000
0000
0010
0000
0100
0000
0001
0000
0100
0000
0010
0000
1000
0001
,
0000
0100
0010
0000
1000
0000
0000
0100
0000
0000
0010
0000
0100
0000
0000
0001
,
0000
0000
0100
0000
0000
0010
0000
0000
0100
0000
0001
0000
0100
0000
0000
0010
,
0000
0000
1000
0000
0000
0001
0000
0000
1000
0000
0000
0000
0010
0000
1000
0000
,
0001
0000
1000
0000
0010
0000
1000
0000
0001
0000
0100
0000
0010
0000
0100
1000
,
0000
0001
0100
0000
0010
0000
0100
0000
0001
0000
0100
0000
1000
0000
1000
0000
,
1000
1000
0001
0001
0001
0001
0010
0010
,
0010
0000
0010
0000
0100
0000
0100
0000
0100
0010
0100
0010
0200
0000
0000
0000
,
0000
0000
0300
1000
,
0001
0100
1000
0010
,
0010
0100
0010
0001
,
0010
0100
1000
2002
,
0000
0000
0000
3003
,
0000
0000
0000
0000
0010
0000
0000
0100
0000
0000
0010
0000
0100
0000
0000
0000
,
0000
0000
0100
0001
0100
0000
0000
1000
0000
0000
0010
0000
1000
0000
0000
0000
,
0001
0100
0010
1000
,
0000
0000
1000
0010
1000
0000
0000
1000
0000
0000
0001
0000
0100
0000
0000
0000
,
0010
0000
0100
0000
0001
0000
0100
1000
,
0010
0100
0010
0100
,
0001
0000
0000
0000
0100
0000
0000
0010
0000
1000
0000
0010
0100
0000
0000
0000
,
0000
0000
0100
0010
0100
0000
0000
0010
0000
0000
0100
0000
0001
0000
0000
0100
,
0000
0000
0001
0000
0100
0000
0000
0001
0000
0000
0100
0000
0010
0000
0000
0000
,
0000
0000
1000
0010
1000
0000
0000
0010
0000
0000
1000
0000
0001
0000
0000
0000
,
0100
0010
1000
0001
,
0000
0000
0010
0100
0010
0000
0000
0100
0000
0000
0001
0000
0100
0000
0000
0000
,
0010
0100
0001
1000
,
0010
0100
0001
0100
,
0010
0000
0000
0000
1000
0000
0000
0000
0001
0000
0000
0000
1000
0000
0000
1000
,
0000
0000
0001
0100
1000
0000
0000
0100
0000
0000
0010
0000
2000
0000
0000
0000
,
0000
0000
0000
0000
3000
0000
0010
0100
,
0010
0000
0100
0000
0001
0000
0000
0100
0000
0000
0010
0000
0100
0000
0001
0000
,
0010
0000
1000
0000
0010
0000
0000
0100
0000
0000
0001
0000
0100
0000
0010
0000
,
0100
0000
0001
0000
0100
0000
0000
0010
0000
0000
1000
0000
0001
0000
0000
0000
,
1000
0000
0000
0000
0010
0000
1000
0100
0000
0001
0100
0000
0010
0000
0000
0000
,
2002
0000
0000
0000
0000
0000
3003
0000
0000
1000
0001
0100
,
1000
0000
0000
0000
0001
0000
0000
0000
1000
0000
0000
0000
0010
0000
0000
0000
0000
0000
0100
0000
0000
0000
0000
0000
0001
0000
0000
0000
0000
0000
1000
0000
0000
0000
0000
0000
0001
0000
0000
0000
0000
0000
0000
0000
0000
1000
0000
0000
,
0001
0010
0000
0000
0000
0000
0100
0100
,
0010
0000
0000
0100
0000
0000
0110
0000
0000
0000
0000
0000
1000
0000
1000
0000
,
0001
0000
1000
0000
0001
0000
0000
0001
0000
0000
0010
0000
0100
0000
0100
0000
,
0001
0000
0100
0000
0010
0000
0000
0010
0000
0000
1000
0000
0010
0000
0010
0000
,
0001
0000
0100
0000
0001
0000
0000
0001
0000
0000
0010
0000
0100
0000
0100
0000
,
1000
0000
0100
0000
1000
0000
0000
1000
0000
0000
0001
0000
0010
0000
0100
0000
,
2000
3002
0023
0230
2300
3200
2300
3020
0230
0000
0302
0000
0013
0000
0000
1000
,
0100
0000
0010
0000
0000
0100
0010
0000
0001
0000
0000
1000
0100
0000
0010
0000
,
0000
1000
0001
0000
0010
0000
0100
0000
0110
0000
0000
0000
0001
0000
0000
1000
,
0000
0000
0001
0000
1000
0000
0010
0000
1000
0000
0000
0001
0000
0000
0100
0000
,
0001
0000
0100
0000
0001
0000
0000
0100
0000
0000
0010
0000
0100
0000
1000
0000
,
0100
0000
0000
0001
0000
0000
0100
0000
0001
0000
0000
0000
1000
0000
0000
0010
,
0000
0000
1000
0000
0010
0000
1000
0000
0001
0000
0000
0100
0000
0000
0001
0000
,
0100
0000
0001
0000
0100
0000
0000
0010
0000
0000
0100
0000
0010
0000
0100
0000
,
0001
0000
0000
1000
0000
0000
0010
0000
1000
0000
0000
0000
0010
0000
0000
0100
,
0000
0000
0010
0000
1000
0000
0010
0000
1000
0000
0000
0001
0000
0000
0100
0000
,
0010
0000
0100
0000
0001
0000
0000
0100
0000
0000
0010
0000
1000
0000
0001
0000
,
1000
0000
0000
0010
0000
0000
1000
0000
0001
0000
0000
0000
1000
0000
0000
1000
,
0000
0000
0001
0000
1000
0000
0001
0000
0100
0000
0000
0100
0000
0000
0010
0000
,
0100
0000
0010
0000
0001
0000
0000
0001
0000
0000
0001
0000
0100
0000
0000
0000
,
0002
0000
0000
1003
,
0000
0000
0001
0100
0001
0000
0000
0100
0000
0000
0001
0000
0100
0000
0000
0000
,
0010
0000
0100
0000
0010
2000
0000
0000
,
0000
0000
0000
3000
,
0002
0000
0003
0000
,
0100
0000
0000
0000
0010
0000
0000
0100
0000
0000
0010
0000
1000
0000
0000
0000
,
0010
0000
0100
0000
0000
0000
0010
0000
0000
0000
1000
0001
2000
0000
0000
0000
,
3000
0000
0001
1000
0010
0100
0001
0100
,
0010
0100
0001
0100
0010
1000
0000
0000
;

//--------------- dance-single - ----------------
#NOTES:
     dance-single:
     :
     Challenge:
     19:
     0,0,0,0,0:
0000
0000
0000
0000
,
0000
0000
0000
0000
,
0000
0000
0000
0000
,
0000
0000
0000
0000
,
0000
0000
0000
0000
,
0000
0000
0000
0000
,
0000
0000
0000
0000
,
0000
0000
0000
0000
,
1100
0000
0101
0101
0101
0101
0404
0000
,
0000
0000
0000
0000
0000
0000
0000
0000
0303
0000
0000
0000
1000
0000
0010
0100
,
0010
0100
0010
0000
1000
0000
0100
0001
0000
0100
1000
0000
0010
0000
0100
0001
,
0100
0000
0000
0000
0000
0000
0010
0000
0000
0000
0000
0000
1000
0000
0100
0000
0010
0000
0001
0000
0000
0000
0000
0000
0100
0000
0000
0000
0000
0000
0001
0000
0000
0000
0000
0000
0100
0000
0000
0000
0000
0000
0010
0000
0000
1000
0000
0000
,
0100
0010
0100
0000
0010
0000
0001
0100
0000
0001
0100
0000
0010
0000
1000
0010
,
0100
0000
0000
0000
0000
0000
0001
0000
0000
0000
0000
0000
0100
0000
0010
0000
1000
0000
0001
0000
0000
0000
0000
0000
1000
0000
0000
0000
0000
0000
0001
0000
0000
0000
0000
0000
0100
0000
0000
0000
0000
0000
1000
0000
0000
0001
0000
0000
,
0100
0000
0010
0000
0001
0000
1000
0010
0000
1000
0100
0000
0010
0000
1000
0100
,
0001
0000
0000
0000
0000
0000
1000
0000
0000
0000
0000
0000
0010
0000
1000
0000
0100
0000
0001
0000
0000
0000
0000
0000
1000
0000
0000
0000
0000
0000
0010
0000
0000
0000
0000
0000
1000
0000
0000
0000
0000
0000
0010
0000
0000
1000
0000
0000
,
0001
0000
0100
0000
1000
0000
0001
1000
0000
0010
1000
0000
0010
0000
0001
0100
,
1000
0000
0000
0000
0000
0000
0001
0000
0000
0000
0000
0000
0001
0000
0010
0000
0100
0000
1000
0000
0000
0000
0000
0000
0100
0000
0000
0000
0000
0000
0010
0000
0000
0000
0000
0000
0100
0000
0000
0000
0000
0000
1000
0000
0000
0010
0000
0000
,
1000
0010
1000
0000
0010
0000
0100
0010
0000
1000
0010
0000
1000
0000
1000
0010
,
0001
0000
0000
0000
0000
0000
1000
0000
0000
0000
0000
0000
0001
0000
1000
0000
0100
0000
0001
0000
0000
0000
0000
0000
0100
0000
0000
0000
0000
0000
1000
0000
0000
0000
0000
0000
0010
0000
0000
0000
0000
0000
0100
0000
0000
1000
0000
0000
,
0010
1000
0010
0000
1000
0000
0001
1000
0000
0001
1000
0000
0010
0000
0100
0001
,
1000
0000
0000
0000
0000
0000
0001
0000
0000
0000
0000
0000
1000
0000
0100
0000
0001
0000
1000
0000
0000
0000
0000
0000
0010
0000
0000
0000
0000
0000
1000
0000
0000
0000
0000
0000
0010
0000
0000
0000
0000
0000
0100
0000
0000
0001
0000
0000
,
0100
0000
0001
0000
1000
0100
0010
0000
1000
0000
0010
0000
0100
0000
0001
1000
,
0100
0000
0001
0000
1000
0100
0010
0000
1000
0000
0010
0000
0100
0000
0001
0010
,
0100
0000
0000
0010
0000
0000
0100
0000
0000
0000
0000
0000
1000
0000
0000
0100
0000
0000
1000
0000
0000
0000
0000
0000
0100
0000
0000
0010
0000
0000
0100
0000
0000
0010
0000
0000
1000
0000
0000
0000
0100
0000
0000
0000
0010
0000
0000
0000
,
0001
0010
0100
1000
0100
0001
0010
0100
0001
2000
0000
0000
,
3000
0000
0000
0000
0000
0000
0010
0000
0000
0100
0000
0000
0010
0000
0000
0000
0000
0000
0000
0000
1000
0000
0000
0000
0000
0000
0000
0000
1000
0000
0000
0000
0000
0000
0000
0000
0000
0000
0000
0000
0000
0000
0101
0000
0000
0000
0000
0000
,
0000
0101
0000
1100
0000
1100
1010
0000
,
0000
0000
0000
0000
0000
0000
0010
0000
0000
0100
0000
0000
0010
0000
0000
0000
0001
0000
0000
0000
1000
0000
0000
0000
0100
0000
0000
0000
0000
0000
1000
0000
0000
0000
0000
0000
0001
0000
0000
0000
0000
0000
0000
0000
0000
0000
0000
0000
,
1000
0000
0000
0100
0000
0000
0010
0000
0000
0100
0000
0000
0010
0000
0000
0000
0001
0000
0000
0000
1000
0000
0000
0000
0100
0000
0000
0000
0010
0000
0000
0000
1000
0000
0000
0000
0002
0000
0000
0000
0000
0000
0000
0000
0000
0000
0000
0000
,
0003
0000
0000
0000
0000
0000
0010
0000
0000
1000
0000
0000
0010
0000
0000
0000
0000
0000
0000
0000
0001
0000
0000
0000
0000
0000
0000
0000
1000
0000
0000
0000
0000
0000
0000
0000
0000
0000
0000
0000
0000
0000
0011
0000
0000
0000
0000
0000
,
0000
0011
0000
0101
0000
0101
1001
0000
,
0000
0000
0000
0000
0000
0000
0100
0000
0000
1000
0000
0000
0010
0000
0000
0000
0001
0000
0000
0000
1000
0000
0000
0000
0100
0000
0000
0000
0000
0000
0010
0000
0000
0000
0000
0000
0001
0000
0000
0000
0000
0000
0000
0000
0000
0000
0000
0000
,
1000
0000
0000
0001
0000
0000
0010
0000
0000
1000
0000
0000
0010
0000
0000
0000
1000
0000
0000
0000
0100
0000
0000
0000
0001
0000
0000
0000
1000
0000
0000
0000
0100
0000
0000
0000
0020
0000
0000
0000
0000
0000
0000
0000
0000
0000
0000
0000
,
0130
1000
0010
0001
1000
0010
0100
0001
1000
0010
0100
0001
,
0100
0010
1000
0001
0100
0010
0100
0001
1000
0022
0000
0000
,
0033
2002
3003
0220
,
0330
0000
0000
0000
2000
0000
3000
0000
0101
0000
0000
0000
0001
0010
0001
0010
,
0000
0000
0100
1000
0100
1000
0000
0000
0010
0100
0010
0100
0000
0000
1000
0001
,
1000
0001
0000
0000
0010
0001
0100
0010
1000
0100
1000
0001
0020
0000
0000
0000
,
0100
0000
0000
1000
0000
0000
0100
0000
0000
0000
0030
0000
1000
0000
1000
0001
,
0000
0000
0000
0001
0000
0000
0010
0000
0000
0000
0000
0000
0100
0000
0000
0000
0000
0000
0010
0000
1000
0000
0001
0000
0010
0000
0000
0000
0000
0000
0100
0000
0000
0000
0000
0000
0001
0000
0000
0000
0010
0000
0000
0000
1000
0000
0000
0000
,
0001
0100
0010
0100
0001
1000
0010
0001
0100
0010
1000
0001
,
1000
0000
0000
0000
0100
0000
0000
0000
1000
0000
0000
0000
0001
0000
0000
0000
0010
0000
0000
0000
0100
0000
0000
0000
0001
0000
0000
0000
1000
0000
0000
0000
0010
0000
0000
0000
0100
0000
0000
1000
0000
0000
0100
0000
0000
1000
0000
0000
,
0100
0000
0010
0001
0000
0001
0010
0000
0001
0000
1000
0000
0001
1000
0100
0010
,
0100
0000
0100
0001
1000
0100
0001
0100
0010
1000
0001
0100
0001
0000
0000
0001
,
0000
0000
1000
0000
0000
1000
0000
0000
0010
0000
0100
0000
0010
0000
0000
0010
,
0000
0000
0100
0000
0000
0001
0000
0000
1000
0000
0000
0000
0001
0010
0100
0010
,
1000
0010
0100
0010
0001
1000
0010
1000
0100
0001
1000
0001
0100
0000
0010
0100
,
0000
0010
1000
0000
0001
0000
1000
0001
0000
1000
0100
0000
0001
0000
0000
0001
,
0000
0000
1000
0000
0000
1000
0000
0000
0010
0000
1000
0000
0100
0000
0000
0100
,
0000
0000
0001
0000
0000
0010
0000
0000
1000
0000
0000
0000
0010
0001
0100
0010
,
1000
0100
0010
0001
0100
0010
1000
0100
0001
1000
0010
0100
0010
0000
0001
0010
,
0000
0100
0010
0000
1000
0100
0000
0100
1000
0000
0001
0000
1100
0000
1100
0000
,
1100
1100
0101
0101
0101
0101
0011
0011
,
1010
0000
1010
0000
1001
0000
0110
0000
0010
0001
1000
0001
1001
0000
0000
0000
,
0000
0000
0000
0000
0000
0000
0000
0000
0000
0000
0000
0000
0100
1000
0010
0100
,
0001
0000
0000
0010
0000
0000
1000
0000
0000
0100
0000
0000
0010
0000
0000
0001
0000
0000
1000
0000
0000
0100
0000
0000
1000
0000
0000
0001
0000
0000
0010
0000
0000
1000
0000
0000
0001
0000
0000
0000
0010
0000
0000
0000
0100
0000
0000
0000
,
0001
0010
0100
1000
0001
0100
1000
0001
0100
0010
0001
0100
,
1000
0010
0100
0001
0010
1000
0100
0010
0001
2000
0000
0000
,
0000
0000
0000
3000
,
0000
0000
0000
0000
0001
0000
1000
0001
0000
1000
0010
0000
0200
0000
0000
0000
,
0000
0000
0310
0100
0010
0000
1000
0100
0000
1000
0001
0000
0010
0000
0100
0010
,
0100
0000
1000
0100
1000
0000
0001
1000
0001
0000
0010
0001
0020
0000
0000
0000
,
0000
0000
1030
0001
1000
0000
0010
0001
0000
0010
0001
0000
0100
0000
0010
1000
,
0010
0000
0100
0001
0100
0000
0010
1000
0010
0000
0100
0001
0100
0000
0010
0100
,
0010
0000
1000
0001
1000
0000
0100
0001
0010
0000
0100
1000
0010
0000
0100
0001
,
0010
0000
1000
0100
0001
0000
0010
0001
0010
0100
0010
0100
2000
0000
0000
0000
,
0000
3100
0001
0010
0001
0000
0100
0001
0000
0100
0010
0000
1000
0000
0100
1000
,
0000
0100
1000
0000
0001
0000
1000
0010
0000
1000
0010
0000
0200
0000
0000
0000
,
0000
0000
0301
1000
0001
0000
0010
0001
0000
0010
0100
0000
0010
0000
1000
0100
,
1000
0000
0001
0100
0001
0000
1000
0010
1000
0000
0001
0010
0002
0000
0000
0000
,
0000
0000
0103
0010
0100
0000
1000
0100
0000
0001
0100
0000
0010
0000
1000
0001
,
1000
0000
0010
0100
0010
0000
0001
0010
0001
0000
0100
0001
0100
0000
0010
0001
,
1000
0000
0010
0100
0001
0000
1000
0100
0010
0000
0100
0001
0010
0000
0100
1000
,
0001
0000
1000
0001
0010
0000
1000
0100
0010
0000
0001
0100
0010
0000
0010
0001
,
0000
0001
1000
0010
0100
0000
0100
1000
0000
1000
0001
0000
0020
0000
0000
0000
,
0000
0000
0000
0000
0000
0000
0000
0000
0030
0000
0000
0000
1000
0000
0100
0001
,
0100
0000
0010
0100
0010
0000
0001
0010
0000
0100
0010
0000
1000
0000
0100
0010
,
0100
0000
0001
0100
0001
0000
0010
0001
0000
0001
0010
0000
1000
0000
0001
1000
,
0001
0000
0010
0001
0010
0000
0100
0010
0000
0010
0100
0000
1000
0000
0001
1000
,
0001
0000
0010
0100
0010
1000
0100
0001
0010
0100
1000
0000
0002
0000
0000
0000
,
2003
0000
0000
0000
0000
0000
0000
0000
0000
0200
0000
0000
3000
0000
0000
0000
0000
0000
0020
0000
0000
0000
0000
0000
0300
0000
0000
0000
0000
0000
0030
0000
0000
0000
0000
0000
1000
0000
0000
0000
0001
0000
0000
0000
0100
0000
0000
0000
,
0010
0000
0000
0000
0100
0000
0000
0000
1000
0000
0000
0000
0100
0000
0000
0010
0000
0000
1000
0000
0000
0001
0000
0000
0100
0000
0000
0010
0000
0000
0001
0000
0000
1000
0000
0000
0100
0000
0000
0000
0000
0000
0010
0000
0000
0100
0000
0000
,
0010
0000
0002
0000
0000
0000
0000
0000
0003
0000
0000
0000
0100
0010
0100
0010
,
0100
0000
0000
0001
0000
0000
0010
1000
0001
0100
0000
0000
0000
0000
0000
0000
0000
0000
0010
0000
0000
0001
0000
0000
,
1000
0000
0010
0001
0100
0000
0010
1000
0000
0001
1000
0000
0100
0000
0010
0000
,
1000
0000
0001
0100
0001
0000
0010
0001
0000
0100
0010
0000
1000
0000
0100
0000
,
1000
0000
0010
0100
0001
0000
0010
0001
0000
0010
0100
0000
1000
0000
0001
0000
,
1000
0000
0010
0100
0010
0000
1000
0001
0000
0001
0100
0000
0100
0000
0010
0000
,
1100
0011
1010
1001
0101
0110
1010
0011
1100
0000
0101
0000
0110
0000
0010
1000
,
0010
0000
1010
0000
1000
0100
1000
0000
1001
0000
0001
1000
0001
0000
0011
0000
,
0010
0000
0000
0100
0000
0000
0010
0000
0000
0000
0000
0000
0010
0000
1000
0000
0001
0000
0100
0000
0000
0000
0000
0000
0010
0000
0000
0000
0000
0000
0000
0000
0000
0000
0000
0000
0100
0000
0000
0001
0000
0000
0010
0000
0000
1000
0000
0000
,
0100
1000
0010
1000
0001
0000
0100
0000
0010
0001
0010
0100
0010
0100
1000
0001
,
0100
0000
0010
0000
0010
0001
0100
1000
0010
0100
0001
0000
1000
0000
0001
1000
,
0001
0000
0010
0001
0000
0010
1000
0000
0200
0000
0000
0000
0310
0001
1000
0010
,
0001
1000
0010
0001
0100
0000
0010
0000
1000
0100
0001
1000
0100
0001
1000
0100
,
0001
0000
0000
0000
0000
0000
0010
0000
0000
0000
0000
0000
0100
0000
0000
1000
0000
0000
0010
0000
0000
0100
0000
0000
1000
0000
0000
0010
0000
0000
0100
0000
0000
1000
0000
0000
0001
0000
0000
0000
0000
0000
0010
0000
0001
0000
0010
0000
,
0001
0000
1000
0100
0000
1000
0010
0000
1001
0000
0000
0000
0010
0100
0010
1000
,
0100
0001
0010
0100
0001
0000
1000
0000
0010
0100
0001
0010
0100
1000
0001
0100
,
0010
0000
1000
0000
0100
0010
0001
0100
0010
1000
0100
0010
0001
0000
1000
0000
,
0100
0000
0010
0100
0000
1000
0100
0000
0001
0000
0000
0000
1100
0000
0000
1100
,
0000
0000
1100
0000
1100
0000
0001
0000
0011
0000
0000
0011
0000
0000
0011
0000
,
0011
0000
0100
0000
0110
0000
0000
0110
0000
0000
0110
0000
0110
0000
0000
0000
,
1000
0001
1000
0001
1000
0001
1000
0001
1000
0001
1000
0001
1000
0001
1000
0001
1000
0001
1000
0000
0000
0000
0000
0000
,
0000
0000
0001
0100
0001
0000
0000
1000
0000
0000
0010
0000
0100
0000
0000
0000
,
0010
0000
0100
0000
0001
0001
0000
1000
,
0010
1000
0001
0100
0010
0100
0000
0001
,
0100
0010
0100
0001
0100
0010
0000
0000
,
1000
0000
0000
0000
0001
0000
0000
1000
0000
0000
0010
0000
1000
0000
0000
0000
,
0001
0000
0000
0100
0000
0000
0000
0000
0000
0010
0000
0000
0000
0000
0000
0100
0001
1000
0100
0000
0000
0000
0000
0000
,
0000
0000
0001
0100
0010
1000
0001
0100
,
0010
0100
0001
1000
0010
0110
0000
0000
;
