#VERSION:0.83;
#TITLE:memories;
#SUBTITLE:;
#ARTIST:TAKA;
#TITLETRANSLIT:;
#SUBTITLETRANSLIT:;
#ARTISTTRANSLIT:;
#GENRE:;
#ORIGIN:;
#CREDIT:;
#BANNER:memories.png;
#BACKGROUND:memories-bg.png;
#PREVIEWVID:;
#JACKET:;
#CDIMAGE:;
#DISCIMAGE:;
#LYRICSPATH:;
#CDTITLE:;
#MUSIC:memories.ogg;
#OFFSET:-0.850152;
#SAMPLESTART:68.349998;
#SAMPLELENGTH:15.000000;
#SELECTABLE:YES;
#BPMS:0.000=188.000;
#STOPS:;
#DELAYS:;
#WARPS:;
#TIMESIGNATURES:0.000=4=4;
#TICKCOUNTS:0.000=4;
#COMBOS:0.000=1;
#SPEEDS:0.000=1.000=0.000=0;
#SCROLLS:0.000=1.000;
#FAKES:;
#LABELS:0.000=Song Start;
#BGCHANGES:;
#KEYSOUNDS:;
#ATTACKS:
;

//---------------dance-single - ----------------
#NOTEDATA:;
#CHARTNAME:;
#STEPSTYPE:dance-single;
#DESCRIPTION:;
#CHARTSTYLE:;
#DIFFICULTY:Hard;
#METER:11;
#RADARVALUES:0.541819,0.682598,0.382600,0.399235,0.033270,456.000000,410.000000,46.000000,48.000000,0.000000,0.000000,0.000000,0.000000,0.000000,0.541819,0.682598,0.382600,0.399235,0.033270,456.000000,410.000000,46.000000,48.000000,0.000000,0.000000,0.000000,0.000000,0.000000;
#CREDIT:;
#NOTES:
0000
0000
0000
0000
,
0000
0000
0000
0000
,
0000
0000
0000
0000
,
0000
0000
0000
0000
,
0000
0000
0000
0000
,
0000
0000
0000
0000
,
0000
0000
0000
0000
,
0000
0000
0000
0000
,
0001
0000
1000
0010
0000
0010
0100
0000
,
0001
0000
0100
0000
0001
0000
0000
0000
0010
0000
0000
0100
0000
0000
1000
0000
,
0020
0000
0001
1000
0000
1000
0130
0000
,
1000
0000
1000
0010
0000
0010
0001
0000
,
2000
0000
3010
0001
0002
0000
1000
0000
,
0100
0000
0103
1000
0100
0010
0001
0000
,
0100
0001
0101
0000
0010
0100
0110
0000
,
1000
0100
0001
0100
0000
1000
1010
0000
,
0200
0000
0001
0000
0001
0010
1300
0000
,
0100
0000
1000
0100
0000
0010
0100
0000
,
0001
1000
0001
0000
0010
1000
0001
2002
,
0000
3000
0010
0000
0013
0100
0110
0000
,
1000
0000
0100
0000
1000
0010
0000
0100
,
0000
0100
0001
0000
0010
0000
1000
0000
,
0001
1000
0000
0100
0010
0000
0100
1000
,
0100
0010
0001
0010
0000
1000
0010
0000
,
0100
0000
1000
0020
0000
0000
0030
0001
,
1000
0000
0010
0200
0000
0000
0000
0000
,
0300
0000
0001
0000
1000
0010
0001
0010
,
0100
0000
1000
0100
0000
0010
0011
0000
,
2000
0000
3010
0000
0100
0001
0000
0010
,
0000
0010
1000
0000
0001
0000
0100
0000
,
1000
0100
0000
0100
0001
0000
0010
0001
,
0010
1000
0100
0001
0000
0001
0010
0000
,
1000
0000
0010
2000
0000
0000
3000
0100
,
0001
0000
0010
0002
0000
0000
0000
0000
,
0003
0000
1000
0000
0010
0100
0010
0100
,
1000
0000
1000
0010
0000
0010
0200
0000
,
0001
0000
1000
0000
0001
0010
0310
0000
,
2000
0000
0010
0000
3100
0010
0000
1000
,
0001
0011
1010
1100
,
0002
0000
1000
0000
1003
0100
0001
0100
,
0010
1001
0101
0110
,
0020
1000
1030
0200
,
0302
0023
2030
3200
,
0310
0000
0011
0000
1000
1010
0000
0100
,
0010
0100
0001
1000
1000
0000
1001
0000
,
0020
0000
0001
0000
1030
0001
0000
0100
,
1000
1100
0110
0011
,
0200
0000
1000
0000
0310
1000
0001
0010
,
0100
1010
0101
1001
,
2000
0010
3010
0002
,
0203
2300
3020
2030
,
3100
0001
0101
0000
1000
1100
0000
0010
,
0110
0000
0000
0000
0001
0000
0001
1000
0001
0000
0010
0000
1010
0000
0000
0000
,
0200
0000
0301
0010
0020
0000
1000
0000
,
1000
0000
0000
0000
0130
0000
0000
0000
0001
0000
0000
0100
0000
0000
1000
0000
,
0002
0010
1000
1003
,
0100
0000
0100
1000
0000
1000
0010
0000
,
0200
0000
0300
0001
2000
0000
0010
0000
,
0010
0000
0000
0000
3100
0000
0000
0000
0010
0000
0000
1000
0000
0000
0010
0000
,
1000
0000
1100
0000
0100
0101
0000
0010
,
0011
1010
0110
1000
,
0002
0000
1003
0100
0200
0000
0010
0000
,
1000
0000
0000
0000
0301
0000
0000
0000
0100
0000
0000
0001
0000
0000
1000
0000
,
0020
0100
0001
0130
,
0010
0000
0010
0001
0000
0001
1000
0000
,
0020
0000
0030
0001
2000
0000
0010
0000
,
0100
0000
0000
0000
3010
0000
0000
0000
1000
0000
0000
0001
0000
0000
1000
0000
,
0010
0100
0110
0000
1000
0100
1100
0000
,
0100
0001
0101
0000
0001
1000
0010
2001
,
0000
0100
0100
3100
,
0010
0100
0010
0100
1000
0001
0110
0000
,
0001
1000
0100
0001
0000
0001
0100
0010
,
0100
0001
1000
0100
0000
0100
0010
0001
,
0010
0000
0010
1000
0000
1000
0100
0000
,
0001
0010
0100
0010
0000
1000
1000
0000
,
0001
1000
0001
0100
0000
0001
1000
0100
,
0001
0100
0010
0001
0000
0100
1000
0100
,
0010
0010
1010
0000
0001
1001
0000
0100
,
0101
1100
1010
0200
,
0020
0000
0330
0200
,
0002
0000
0000
0303
,
0001
0000
0000
1000
0000
0000
1000
0000
0000
0100
0000
0000
0001
0000
1000
0000
,
0010
0000
0100
0020
0000
0000
0030
0000
,
0100
1000
0100
0000
0010
0100
0010
0000
,
0001
1000
0001
0000
0100
0001
0100
0000
,
0010
0100
1100
0000
1000
0010
0011
0000
,
0100
0000
0100
0001
0000
0001
1000
0000
,
1020
0100
0000
0130
,
2001
0010
0000
3010
,
0100
0001
0100
0001
0010
1000
1010
0000
,
0220
0000
0000
0000
,
0000
0000
0000
0330
0000
0000
0000
0000
0000
0000
0000
0000
0000
0000
0000
0000
;

//---------------dance-single - ----------------
#NOTEDATA:;
#CHARTNAME:;
#STEPSTYPE:dance-single;
#DESCRIPTION:;
#CHARTSTYLE:;
#DIFFICULTY:Medium;
#METER:8;
#RADARVALUES:0.419434,0.491974,0.174665,0.449139,0.000000,353.000000,332.000000,21.000000,54.000000,0.000000,0.000000,0.000000,0.000000,0.000000,0.419434,0.491974,0.174665,0.449139,0.000000,353.000000,332.000000,21.000000,54.000000,0.000000,0.000000,0.000000,0.000000,0.000000;
#CREDIT:;
#NOTES:
0000
0000
0000
0000
,
0000
0000
0000
0000
,
0000
0000
0000
0000
,
0000
0000
0000
0000
,
0000
0000
0000
0000
,
0000
0000
0000
0000
,
0000
0000
0000
0000
,
0000
0000
0000
0000
,
0100
0001
0010
0010
,
1000
0000
0001
0100
0000
0100
1000
0000
,
0010
0000
1000
0100
0000
1000
0000
0001
,
1000
0000
0010
0000
0100
0010
0100
0000
,
0001
0100
0100
0010
,
1000
0000
0010
0000
0001
0000
1000
0010
,
1000
0110
0100
1001
,
0010
0001
1000
1000
,
0020
0100
0000
0130
,
0002
0010
0000
0013
,
1000
0000
0001
1000
0100
0000
0100
0110
,
0000
0001
0001
0101
,
1000
0000
0100
0000
1000
0000
0010
0001
,
0000
0010
0100
0010
,
0001
1000
1000
0100
,
0010
0000
0010
1000
0000
1000
0001
0000
,
0010
0000
2000
0002
0000
0000
3003
0000
,
0100
0000
0020
2000
0000
0000
0000
0000
,
3030
0000
0100
0000
0001
0100
0001
0000
,
0010
0000
0100
1000
0000
0001
0100
0000
,
1000
0000
0001
0000
0010
0000
0100
1000
,
0000
0100
0001
0010
,
0001
0100
0100
0010
,
1000
0000
1000
0001
0000
0001
0010
0000
,
1000
0000
0002
0020
0000
0000
0033
0000
,
0001
0000
2000
0200
0000
0000
0000
0000
,
3300
0000
0001
0000
0001
0010
0100
0000
,
0010
0000
0001
1000
0001
0000
0100
0000
,
0010
0000
0000
1000
0000
0000
0110
0000
,
0020
1000
1030
0010
,
0100
0002
2003
3020
,
0230
0001
0301
1000
,
0010
2000
3020
0032
,
2003
0100
3100
0010
,
1000
1001
0010
0110
,
0020
0000
0000
0100
0200
0000
0330
0000
,
0002
0000
0000
1000
1003
0000
0010
0000
,
0200
0001
0301
0010
,
1000
0200
2300
3020
,
0032
1000
1003
0010
,
1000
0200
0302
2003
,
3020
0100
0130
1000
,
0100
0101
0001
0011
,
2000
0100
0001
3020
,
1000
0100
0130
1001
,
0200
0000
0300
0001
0002
0000
0100
0000
,
0000
1003
0100
0100
,
2000
0010
0000
3010
,
0001
0000
0000
0110
0000
0000
1000
0000
,
0001
0100
0100
1000
,
0010
0100
0010
0010
,
0100
0101
1000
1010
,
0002
0203
0320
1030
,
2000
0000
3000
0100
0200
0000
1000
0000
,
0000
1300
0001
0001
,
0020
0100
0000
0130
,
0100
0000
0000
1001
0000
0000
0010
0000
,
0001
1000
1000
0100
,
1000
0010
1000
0001
,
1000
1001
0010
0110
,
0010
0000
1000
0000
0100
0000
0000
0102
,
0000
1000
1000
1003
,
1000
0100
1000
0100
0001
0000
0110
0000
,
0001
0000
1000
0100
0000
0010
0100
0000
,
0010
0000
1000
0001
0000
1000
0010
0000
,
0100
0000
0010
0000
0010
1000
0100
0000
,
0001
0000
1000
0010
0000
0100
1000
0000
,
0002
0000
0010
0000
0013
0100
1000
0000
,
2000
0000
0100
0000
3100
0001
0010
0000
,
0200
0301
0020
1030
,
0100
0010
0110
0100
,
0002
1000
0000
1003
,
0020
0100
0000
0130
,
0001
1000
1000
0010
,
0001
0000
0100
0002
0000
0000
0013
0000
,
1000
1000
0001
0100
,
0010
0010
1000
0100
,
0001
0010
0001
0000
1000
0100
1000
0000
,
0010
0100
0010
0000
1000
0000
1010
0000
,
0002
1000
0100
0103
,
0020
0001
1000
1030
,
0010
1000
0001
0100
,
2002
0000
0000
0000
,
3003
0000
0000
0000
;

//---------------dance-single - ----------------
#NOTEDATA:;
#CHARTNAME:;
#STEPSTYPE:dance-single;
#DESCRIPTION:;
#CHARTSTYLE:;
#DIFFICULTY:Easy;
#METER:4;
#RADARVALUES:0.267345,0.299426,0.116443,0.249522,0.000000,225.000000,211.000000,14.000000,30.000000,0.000000,0.000000,0.000000,0.000000,0.000000,0.267345,0.299426,0.116443,0.249522,0.000000,225.000000,211.000000,14.000000,30.000000,0.000000,0.000000,0.000000,0.000000,0.000000;
#CREDIT:;
#NOTES:
// measure 0
0000
0000
0000
0000
,  // measure 1
0000
0000
0000
0000
,  // measure 2
0000
0000
0000
0000
,  // measure 3
0000
0000
0000
0000
,  // measure 4
0000
0000
0000
0000
,  // measure 5
0000
0000
0000
0000
,  // measure 6
0000
0000
0000
0000
,  // measure 7
0000
0000
0000
0000
,  // measure 8
0010
0100
0100
0000
,  // measure 9
0001
1000
0001
0000
,  // measure 10
0010
0000
1000
0000
,  // measure 11
1000
0010
0010
0000
,  // measure 12
0001
0000
0010
0001
,  // measure 13
0100
0000
0001
1000
,  // measure 14
0010
0000
0110
0000
,  // measure 15
0100
0010
0001
0000
,  // measure 16
2002
0000
0000
3003
,  // measure 17
0010
0000
0100
0000
,  // measure 18
0100
1000
0010
0001
,  // measure 19
0020
0000
0000
0030
,  // measure 20
1001
0000
0100
0000
,  // measure 21
0100
0001
0010
0000
,  // measure 22
0010
0000
1000
0010
,  // measure 23
0001
0100
0001
0000
,  // measure 24
1000
0000
2000
3000
,  // measure 25
0100
0000
0200
0000
,  // measure 26
0300
0001
0000
1000
,  // measure 27
0100
0001
0001
0000
,  // measure 28
0110
0000
1000
0000
,  // measure 29
1000
0010
0001
0000
,  // measure 30
0100
0000
1000
0100
,  // measure 31
0001
0010
0100
0000
,  // measure 32
0010
0000
0020
0030
,  // measure 33
0001
0000
0002
0000
,  // measure 34
0003
0100
0000
0100
,  // measure 35
0001
0010
0001
0000
,  // measure 36
0220
0000
0000
0330
,  // measure 37
2000
0000
3000
0001
,  // measure 38
1000
0010
0001
0010
,  // measure 39
0200
0000
0300
0010
,  // measure 40
0010
1000
0001
0100
,  // measure 41
0002
0000
0003
0010
,  // measure 42
1000
0100
1000
0001
,  // measure 43
0100
0000
1000
0000
,  // measure 44
0110
0000
0010
0000
,  // measure 45
0200
0000
0300
0001
,  // measure 46
0010
1000
0100
1000
,  // measure 47
0020
0000
0030
0001
,  // measure 48
0001
0100
0010
0100
,  // measure 49
2000
0000
3000
0010
,  // measure 50
0001
0100
0001
1000
,  // measure 51
0001
0000
0100
0000
,  // measure 52
1001
0000
1000
0000
,  // measure 53
0002
0003
1000
0010
,  // measure 54
0010
0000
1000
0001
,  // measure 55
0100
0000
0100
0000
,  // measure 56
0010
1000
1000
0000
,  // measure 57
0001
0000
1001
0000
,  // measure 58
0010
1000
0100
0000
,  // measure 59
1000
0010
0100
0001
,  // measure 60
1000
0000
0110
0000
,  // measure 61
0020
0030
1000
0010
,  // measure 62
0100
0000
0100
1000
,  // measure 63
0001
0000
0001
0000
,  // measure 64
0100
0010
0010
0000
,  // measure 65
0001
0000
1001
0000
,  // measure 66
0100
1000
0010
0000
,  // measure 67
0100
0010
0100
1000
,  // measure 68
0001
0000
0100
0000
,  // measure 69
2002
0000
0000
3003
,  // measure 70
0100
0100
0200
0300
,  // measure 71
0110
0000
1000
0100
,  // measure 72
0010
0000
0010
0001
,  // measure 73
0100
0000
0100
0010
,  // measure 74
0100
1000
0001
0000
,  // measure 75
0100
0001
0100
0000
,  // measure 76
1000
0010
1000
0000
,  // measure 77
0001
0000
0100
0010
,  // measure 78
0001
1000
1000
0000
,  // measure 79
0020
0000
0030
0001
,  // measure 80
0020
0000
0000
0030
,  // measure 81
1000
0000
0100
0000
,  // measure 82
0001
0100
0100
0000
,  // measure 83
0002
0003
0100
0010
,  // measure 84
0200
0300
1000
0010
,  // measure 85
2000
3000
0001
1000
,  // measure 86
0002
0003
0220
0330
,  // measure 87
0002
0000
0000
0003
,  // measure 88
2000
0000
0000
3000
,  // measure 89
0010
0000
1000
0000
,  // measure 90
0110
0000
0000
0000
;
