#TITLE:humming rabbit;
#SUBTITLE:;
#ARTIST:mighty puppet;
#TITLETRANSLIT:;
#SUBTITLETRANSLIT:;
#ARTISTTRANSLIT:;
#GENRE:;
#CREDIT:;
#MUSIC:humming rabbit.ogg;
#BANNER:humming rabbit.png;
#BACKGROUND:humming rabbit-bg.png;
#CDTITLE:;
#SAMPLESTART:65.775;
#SAMPLELENGTH:15.000;
#SELECTABLE:YES;
#OFFSET:-0.131;
#BPMS:0.000=202.000;
#STOPS:219.500=0.297;
#ORIGIN:;
#PREVIEWVID:;
#JACKET:humming rabbit-jacket.png;
#CDIMAGE:;
#DISCIMAGE:;
#BGCHANGES:;
#FGCHANGES:;

//--------------- dance-single - ----------------
#NOTES:
     dance-single:
     :
     Beginner:
     3:
     0,0,0,0,0:
0000
0000
0000
0000
,
0000
0000
0000
0000
,
0000
0000
0000
0000
,
0000
0000
0000
0000
,
0000
0000
0000
0000
,
0000
0000
0000
0000
,
0000
0000
0000
0000
,
0000
0020
0000
0000
,
0000
0000
0000
0000
,
0030
0002
0000
0000
,
0000
0000
0000
0003
,
0000
2000
0000
0000
,
0000
0000
0000
3000
,
0000
0200
0000
0000
,
0000
0000
0000
0300
,
0000
2000
0000
0000
,
0000
0000
0000
3000
,
0000
0002
0000
0000
,
0000
0000
0000
0003
,
0000
0200
0000
0000
,
0000
0000
0000
0300
,
0000
0020
0000
0000
,
0000
0000
0000
0030
,
0000
1000
0000
1000
,
0000
0001
0000
0001
,
0000
1000
0000
1000
,
0000
0001
0000
0001
,
0000
0100
0100
0100
,
0000
0010
0000
0010
,
0000
0010
0010
0010
,
0000
0100
0000
0100
,
0000
0001
0000
1000
,
0000
0001
0000
1000
,
0000
1000
0000
0001
,
0000
1000
0000
0001
,
0000
0010
0010
0010
,
0000
0100
0000
0100
,
0000
0100
0100
0100
,
0000
0010
0000
0010
,
0000
1000
0000
1000
,
0000
0001
0000
0001
,
0000
1000
0000
1000
,
0000
0001
0000
0001
,
0000
0100
0000
0100
,
0000
0010
0000
0010
,
0000
0100
0000
0100
,
0000
0010
0000
0010
,
0000
1000
0000
0001
,
0000
1000
0000
0001
,
0000
0001
0000
1000
,
0000
0001
0000
1000
,
0000
0100
0000
0010
,
0000
0100
0000
0010
,
0000
0010
0000
0100
,
0000
0010
0000
0110
,
0000
0000
1000
0000
,
1000
0000
1000
0000
,
0000
0000
0001
0000
,
0001
0000
0001
0000
,
0000
0000
1000
0000
,
1000
0000
1000
0000
,
0000
0000
0001
0000
,
0001
0000
0001
0000
,
0000
0000
0100
0000
,
0100
0000
0100
0000
,
0000
0000
0010
0000
,
0010
0000
0010
0000
,
0000
0000
0100
0000
,
0100
0000
0100
0000
,
0000
0000
0010
0000
,
0010
0000
0010
0000
,
0010
0000
0000
0000
,
0100
0000
0000
0000
,
0010
0000
0000
0000
,
0100
0000
0000
0000
,
0001
0000
0000
0000
,
1000
0000
0000
0000
,
0001
0000
0000
0000
,
1000
0000
0000
0000
,
1001
0000
0000
0000
,
1001
0000
0000
0000
;

//--------------- dance-single - ----------------
#NOTES:
     dance-single:
     :
     Easy:
     6:
     0,0,0,0,0:
0000
0000
0000
0000
,
0000
0000
0000
0000
,
0000
0000
0000
0000
,
0000
0000
0000
0000
,
0000
0000
0000
0000
,
0000
0000
0000
0000
,
0000
0000
0000
0000
,
0000
0020
0000
0000
,
0000
0000
0000
0000
,
0030
0200
0000
0000
,
0000
0000
0000
0000
,
0300
2000
0000
0000
,
0000
0000
0000
0000
,
3000
0002
0000
0000
,
0000
0000
0000
0000
,
0003
0020
0000
0100
,
0000
0100
0000
0100
,
0030
0002
0000
1000
,
0000
1000
0000
1000
,
0003
0200
0000
0001
,
0000
0001
0000
0001
,
0300
2000
0000
0010
,
0000
0010
0000
0010
,
3000
0010
0000
0100
,
0000
0010
0000
0001
,
0000
1000
0000
0100
,
0000
1000
0000
0010
,
0000
0100
0100
0001
,
0000
0100
0010
0100
,
0000
1000
1000
0100
,
0000
0001
0010
0001
,
0000
0010
0000
0100
,
0000
1000
0000
0010
,
0000
0001
0000
0100
,
0000
0010
0000
1000
,
0000
0100
0100
0010
,
0000
0001
1000
0001
,
0000
0001
0001
0100
,
0000
0001
0010
1000
,
0010
0100
0000
0101
,
0000
0100
0000
0110
,
0000
1000
0000
1100
,
0000
1000
0000
1010
,
0000
0001
0000
0011
,
0000
0100
0000
0110
,
0000
1000
0000
1100
,
0000
0010
0000
0110
,
0000
0010
0000
0011
,
0000
0100
0000
1100
,
0000
0010
0000
0011
,
0000
0100
0000
1100
,
0000
0010
0000
0110
,
0000
0001
0000
1001
,
0000
0020
0000
0100
,
0000
0001
0030
1001
,
0000
1000
0001
1000
,
0010
0000
0000
0100
0000
0000
0000
0000
,
0000
0010
1000
0010
,
0001
0000
0000
0100
0000
0000
0000
0000
,
0000
1000
0100
1000
,
0001
0000
0000
0010
0000
0000
0000
0000
,
0000
0100
0010
0100
,
0001
0000
0000
1000
0000
0000
0000
0000
,
0000
0010
0001
0010
,
1000
0000
0000
0100
0000
0000
0000
0000
,
0000
0001
0100
0001
,
0010
0000
0000
1000
0000
0000
0000
0000
,
0000
0001
1000
0001
,
0100
0000
0000
0010
0000
0000
0000
0000
,
0100
0000
0000
0001
0000
0000
0220
0000
,
0000
0000
0000
0330
,
1000
0000
0000
0001
0000
0000
1000
0000
,
0000
0001
0000
0000
1000
0000
1000
0000
,
0010
0000
0000
0100
0000
0000
0010
0000
,
0000
0100
0000
0000
0010
0000
0010
0000
,
0001
0000
0000
0100
0000
0000
0001
0000
,
0000
0100
0000
0000
0001
0000
0001
0000
,
0010
0000
0000
1000
0000
0000
0010
0000
,
0000
1000
0000
0000
0010
0000
0010
0000
,
1000
1000
0000
0001
,
0001
0000
0000
0000
;

//--------------- dance-single - ----------------
#NOTES:
     dance-single:
     :
     Medium:
     9:
     0,0,0,0,0:
0000
0000
0000
0000
,
0000
0000
0000
0000
,
0000
0000
0000
0000
,
0000
0000
0000
0000
,
0000
0000
0000
0000
,
0000
0000
0000
0000
,
0000
0000
0000
0000
,
0000
0000
1001
0000
0000
1000
0000
0000
,
0001
0000
0000
1000
0000
0000
0010
0000
,
0100
0000
0110
0000
0000
0010
0000
0000
,
0001
0000
0000
0010
0000
0000
0001
0000
,
0100
0000
1001
0000
0000
0100
0000
0000
,
0010
0000
0000
0100
0000
0000
0010
0000
,
0100
0000
1100
0000
0000
0010
0000
0000
,
0100
0000
0000
0001
0000
0000
0100
0000
,
0010
0000
1010
0000
0000
0010
0000
0000
,
0100
0000
0000
1000
0000
0000
0100
0000
,
0010
0000
0011
0000
0000
0001
0000
0000
,
0100
0000
0000
0010
0000
0000
0100
0000
,
1000
0000
0110
0000
0000
0100
0000
0000
,
0001
0000
0000
0100
0000
0000
0010
0000
,
0100
0000
0101
0000
0000
0010
0000
0000
,
0001
0000
0000
0010
0000
0000
0100
0000
,
0001
1000
0100
1000
,
0100
1000
0001
1000
,
0010
0001
0100
0010
,
0100
0001
0100
0010
,
0001
1000
1000
0001
,
0000
1000
0000
0000
1000
0000
0010
0000
,
0100
0001
0001
0010
,
0000
0100
0000
0000
0100
0000
0010
0000
,
0100
0001
0001
1000
,
1000
0010
0010
0100
,
0100
0001
0001
0010
,
0010
0000
0100
0000
0100
0000
1000
0100
,
1000
0001
0001
1000
,
0000
0001
0000
0000
0001
0000
0010
0000
,
0010
0001
0001
0100
,
0000
0010
0000
0000
0010
0000
0100
0010
,
0100
2000
3100
2000
,
3100
0002
0103
0002
,
0103
0020
0031
0020
,
0031
0020
0130
0020
,
0130
0020
1030
0020
,
1030
0020
0130
0020
,
0130
0002
0013
0002
,
0013
0002
0103
0002
,
1003
0002
0103
0020
,
0130
0002
0103
0020
,
1030
0002
0103
0020
,
1030
0002
0103
0020
,
1030
0002
0103
0020
,
1030
0002
0103
0020
,
0130
0001
1000
0010
,
0100
0000
0001
0000
1000
0000
1001
0001
,
0000
0010
0100
0010
,
1000
0000
0100
0010
0000
0010
0100
0000
,
0001
1000
0010
1000
,
0001
0000
0100
0001
0000
0001
0100
0000
,
0010
0100
0001
0100
,
1000
0000
0010
0001
0000
0001
0010
0000
,
0100
1000
0001
0100
,
0010
0000
0001
0010
0000
0010
0001
0000
,
1000
0100
0001
0100
,
1000
0000
0100
0010
0000
0010
0100
0000
,
0001
1000
0010
0100
,
1000
0000
0100
1000
0000
1000
0100
0000
,
0010
0100
0001
0100
,
0010
0000
0100
0001
0000
0001
0100
0000
,
0010
0000
0000
1000
0000
0000
0201
0000
,
0000
0010
0010
0310
,
0100
0001
0100
0010
,
1000
0010
0100
0001
,
0100
0010
0100
0001
,
1000
0000
0010
0000
0001
1000
0001
0000
,
0100
0010
0100
0001
,
1000
0010
0100
0001
,
0100
0010
1000
0001
,
0100
0010
0100
0001
,
1000
0000
1000
0001
0000
0000
0100
0000
,
0100
0001
0000
0000
0000
0000
0000
0000
;

//--------------- dance-single - ----------------
#NOTES:
     dance-single:
     :
     Hard:
     14:
     0.588075,0.737077,0.366819,0.17322,0,404,368,36,17,0,0,0,0,0,0.588075,0.737077,0.366819,0.17322,0,404,368,36,17,0,0,0,0,0:
0000
0000
0000
0000
,
0000
0000
0000
0000
,
0000
0000
0000
0000
,
0000
0000
0000
0000
,
0000
0000
0000
0000
,
0000
0000
0000
0000
,
0000
0000
0000
0000
,
0000
2002
0000
0000
,
0000
0000
0000
0000
,
3003
2020
0000
0000
,
0000
0000
0000
0000
,
3030
0202
0000
0000
,
0000
0000
0000
0000
,
0303
0022
0000
0000
,
0000
0000
0000
0000
,
0033
0000
0210
0000
0000
1000
0000
0000
,
0010
0000
0000
0001
0000
0000
0010
0000
,
0301
0000
0102
0000
0000
1000
0000
0000
,
0010
0000
0000
1000
0000
0000
0100
0000
,
1003
0000
2100
0000
0000
0001
0000
0000
,
0010
0000
0000
0001
0000
0000
0100
0000
,
3001
0000
0021
0000
0000
0100
0000
0000
,
1000
0000
0000
0100
0000
0000
0001
0000
,
0130
1000
1000
0001
,
0001
0000
0100
0000
0100
0000
0010
1000
,
0010
1000
0100
0000
0100
0000
0001
0000
,
0001
0000
1000
0000
1000
0000
0010
0100
,
0001
0100
1001
0000
1001
0000
0100
0010
,
0100
1100
0000
1000
1100
0000
0010
0100
,
0001
0100
0110
0000
0110
0000
0010
1000
,
0010
0011
0000
0001
0011
0000
0100
0010
,
0100
0001
1000
0000
1000
0000
0010
0000
,
0010
0100
0100
0001
,
0001
1000
1000
0001
,
0001
0000
0010
0000
0010
0000
1000
0001
,
0100
0010
1100
0000
1100
0000
0010
0100
,
0001
0101
0000
0100
0101
0000
1000
0100
,
1000
0001
1001
0000
1001
0000
0010
0100
,
0010
1010
0000
1000
1010
0000
0001
0001
,
1000
1000
0100
1000
0100
1000
0001
0000
,
0100
0010
0100
0010
1000
0000
0010
0100
,
0010
0000
1000
0010
1000
0010
0001
0000
,
0100
0001
0100
0001
0010
0000
1000
1000
,
0010
0010
0100
0001
0100
0001
1000
0000
,
0010
0100
0010
0100
0001
0000
1000
0001
,
1000
0000
0100
0010
0100
0010
1000
0000
,
0001
0010
0001
0010
0100
0000
0001
0001
,
0010
0100
0110
0010
1000
0010
1000
0000
,
0100
0001
0100
0001
0010
0000
1000
0001
,
1000
0100
0010
0100
0010
0100
0001
0000
,
1000
0010
1000
0010
0100
0000
0100
0100
,
0001
0100
0101
0010
0001
0010
1000
0000
,
0100
0010
0100
0010
1000
0000
0001
1000
,
0001
0010
0001
0100
0001
0100
0010
0000
,
0100
0010
0100
0010
1000
0000
1001
1001
,
0100
0000
0010
0000
0100
0001
0100
0000
,
1000
0000
0001
0010
0000
0010
0001
0000
,
1000
0000
0010
0000
0001
1000
0001
0000
,
0100
0000
0010
1000
0000
1000
0010
0000
,
0110
0000
0001
0000
0010
0001
0010
0000
,
1000
0000
0100
1000
0000
1000
0100
0000
,
0010
0000
0001
0000
1000
0010
1000
0000
,
0100
0000
0010
0000
0001
0010
0100
1000
,
1001
0000
1000
0000
0010
0010
0100
0000
,
0001
0000
0100
0010
0000
0010
0100
0000
,
0001
0000
0100
0000
1000
1000
0001
0000
,
1000
0000
0010
0100
0000
0100
0010
0000
,
1001
0000
0100
0000
1000
1000
0010
0000
,
1000
0000
0100
0001
0000
0001
0100
0000
,
0020
0000
1030
0020
0000
0130
0102
0000
,
0010
0000
0010
0003
0100
0010
0100
0010
,
1010
1000
0010
0100
0000
0100
0001
0100
,
0010
1000
0000
1000
0001
1000
0010
0100
,
0110
0100
0010
1000
0000
1000
0001
0100
,
0010
0100
0000
0100
0010
0100
0001
1000
,
1010
0010
0100
0001
0000
0001
0010
0100
,
0010
1000
0000
1000
0100
1000
0001
0100
,
0101
0001
0010
0100
0000
0100
0001
1000
,
0001
0010
0000
0010
0100
0010
0001
0010
,
0100
1000
0100
0200
0000
0300
0010
0100
,
0010
0020
0000
0030
0000
0000
0000
0000
;
