#TITLE:heliodor;
#SUBTITLE:;
#ARTIST:TIME CAPSULE Lab.;
#TITLETRANSLIT:;
#SUBTITLETRANSLIT:;
#ARTISTTRANSLIT:;
#GENRE:;
#CREDIT:;
#BANNER:heliodor.png;
#BACKGROUND:heliodor-bg.png;
#LYRICSPATH:;
#CDTITLE:;
#MUSIC:heliodor.ogg;
#OFFSET:0.406011;
#SAMPLESTART:20.724001;
#SAMPLELENGTH:15.000000;
#SELECTABLE:YES;
#BPMS:0.000000=182.000000
;
#STOPS:
;
#BGCHANGES:20.000=heliodor.avi=1.000=0=0=0=StretchNoLoop====,
330.500=heliodor-bg.png=1.000=0=0=1=====,
99999=-nosongbg-=1.000=0=0=0 // don't automatically add -songbackground-
;
#KEYSOUNDS:;
#ATTACKS:;

//---------------dance-single - ----------------
#NOTES:
     dance-single:
     :
     Hard:
     14:
     0.685700,1.039008,0.447752,0.555212,0.116415,536.000000,486.000000,50.000000,62.000000,0.000000,0.000000,0.685700,1.039008,0.447752,0.555212,0.116415,536.000000,486.000000,50.000000,62.000000,0.000000,0.000000:
0000
0000
0000
0000
,
0000
0000
0000
0000
,
0000
0000
0000
0000
,
0000
0000
0000
0000
,
0000
0000
0000
0000
,
0100
0010
0100
0000
0001
0010
0000
0010
,
1000
0100
0001
0010
0000
1000
1000
0000
,
0010
1000
0100
0000
0001
0001
0000
1010
,
0000
1200
0000
0010
0010
0001
1300
0000
,
0010
0000
0001
0010
0000
0001
0110
0000
,
0100
0000
1000
0100
0010
1000
1001
0000
,
0100
0001
0100
0000
1000
1000
0000
0010
,
0100
0010
0100
0002
1000
1000
1003
0000
,
0010
0100
0010
0001
0010
1000
0000
0100
,
0001
0010
0001
0010
0101
0000
1001
0000
,
0020
0230
0020
0330
,
0002
0000
0000
0000
0103
0000
1000
0010
2000
0000
0000
0000
0010
0000
0000
0000
,
0001
0000
3001
0010
0200
0000
0301
0020
,
0000
0000
1000
0000
0130
0100
0001
0010
,
0001
1000
0001
0001
0010
0100
0010
0100
,
2000
0000
3001
0020
0000
0031
0200
0000
,
1000
0010
0300
0010
0001
0100
1000
0100
,
0001
0000
0010
1020
0000
0100
0130
0000
,
0010
1000
0100
1000
1000
0010
0100
0001
,
0020
0000
0000
0000
1030
0000
0100
0001
0200
0000
0000
0000
0010
0000
0000
0000
,
0001
0000
0301
0010
2000
0000
3001
0020
,
0000
0000
1000
0000
1030
0001
0100
0010
,
0100
0100
0001
0100
1000
0010
0001
0010
,
0002
0000
1003
2000
0000
0100
0100
0000
,
0010
0100
3010
0000
0001
1000
0100
1000
,
1100
0100
0010
0001
0101
0100
0010
0001
,
1001
0001
1000
0010
0110
1000
0100
0001
,
0021
0000
0000
1000
0000
0000
0100
0000
,
0000
0001
2030
0000
0000
0100
0000
0000
,
0001
0000
3001
0000
0010
0000
1000
0100
,
0000
1010
0000
0100
0001
0100
0010
0000
,
1000
0001
0000
0102
0000
0100
1003
0200
,
0010
0010
1300
0000
0010
0110
0000
1000
,
0100
0001
0100
0010
0011
0010
0001
0100
,
0010
2000
0000
0010
3001
0100
0010
0100
,
0202
0000
0000
0000
0303
0010
1000
0100
,
0001
1000
0001
0000
0110
0000
0000
0000
0100
0000
2100
0000
0000
0000
0000
0000
,
0001
0000
0001
0000
3100
0020
0000
0030
,
1001
0000
1000
1100
0000
0100
0110
0000
,
0010
1010
0000
0010
0001
0100
0010
2000
,
0000
0002
3000
0200
0003
0010
0310
1000
,
0001
0010
2000
0000
3001
0002
0000
0013
,
0020
0000
0130
0200
0000
0001
0310
0001
,
0000
1010
0000
0010
0200
0000
1000
0000
,
1300
0002
0000
0003
0100
1000
0010
0100
,
0001
0010
2010
0000
0000
0100
0000
0000
,
3001
0000
0001
0010
0000
0010
0100
0000
,
0100
0001
0000
0001
0011
0000
0010
1010
,
0000
1000
0220
0000
0030
0001
1300
0010
,
1100
0000
1000
0021
0000
0000
0001
0000
,
0100
0000
1030
2000
0000
3000
0110
0000
,
0001
1001
0000
0100
1010
0000
0010
1001
,
0000
0001
0100
0010
0100
0002
0000
0200
,
0003
1000
1300
0010
0001
0010
1000
0001
,
0020
0000
0031
0200
0000
1300
0002
0000
,
0013
2000
0000
0000
3010
0001
0000
0110
,
0000
0010
2000
0000
0001
0000
3001
0200
,
0000
0300
1000
0010
0001
1000
0020
0000
,
0031
0100
0001
2000
0000
0000
3100
0000
,
1000
0010
0000
0001
1000
0000
0010
1000
,
0000
0001
0110
0000
0010
1100
0000
0100
,
1002
0000
1000
0000
1003
0000
0100
0001
,
0100
0000
0010
0001
0010
0000
1001
0000
0000
0000
0010
0000
1000
0000
1000
0000
,
0100
1000
0100
0000
0001
0000
0000
2020
0000
0000
3030
0000
0010
0000
0001
0000
,
0100
0000
0010
0100
0020
0000
0000
0000
0030
0000
1000
0100
1000
0000
0001
0000
,
1000
0000
0010
0000
0100
0000
0000
0202
0000
0000
0303
0000
1000
0100
0001
0100
,
1000
0000
0010
0001
0100
0001
0010
0000
0000
0000
0001
0010
1000
0000
0100
0010
,
1000
0010
0001
0000
0010
0000
0010
0100
1000
0100
0010
0000
0100
1000
0001
0000
,
0100
0001
0010
0000
2200
0000
0000
0000
3300
0000
0001
1000
0010
0000
0010
0000
,
0100
0000
0100
0000
0001
1000
0001
1000
0001
0000
0000
0000
0010
0000
1000
0000
,
0001
1000
0010
1000
0001
1000
0100
0010
,
0001
0010
0100
0010
0001
0010
1000
0100
,
0010
0100
1000
0100
0010
0100
1000
0001
,
0100
0001
1000
0001
0100
0001
0010
0100
,
0001
1000
0010
0100
0001
1000
0100
1000
,
0010
0001
0100
1000
0010
0001
1100
0001
,
0011
0010
1010
1000
1001
0100
0110
1100
,
0101
0000
1000
0010
1000
0001
0100
0010
0001
0000
0202
0000
0000
0000
0303
0000
;

//---------------dance-single - ----------------
#NOTES:
     dance-single:
     :
     Medium:
     10:
     0.500203,0.591928,0.322381,0.394022,0.000000,391.000000,355.000000,36.000000,44.000000,0.000000,0.000000,0.500203,0.591928,0.322381,0.394022,0.000000,391.000000,355.000000,36.000000,44.000000,0.000000,0.000000:
0000
0000
0000
0000
,
0000
0000
0000
0000
,
0000
0000
0000
0000
,
0000
0000
0000
0000
,
0000
0000
0000
0000
,
0001
0000
0100
0000
1000
0100
0000
0010
,
0000
1000
0001
1000
0000
0001
0100
0000
,
0001
0000
0100
0000
0010
0100
0000
1000
,
0000
0010
0001
0010
0100
0000
1001
0000
,
2000
0000
3001
0002
0000
0010
0013
0000
,
0200
0000
1300
2000
0001
0000
3001
0000
,
0100
0000
0010
0000
0100
1000
0000
0101
,
0000
0100
0000
0001
0010
0100
0010
0000
,
0100
1000
0001
0000
0010
0010
0000
0100
,
0000
0100
0001
1000
0001
0010
1000
0000
,
0022
0000
0033
1001
,
1000
0000
0010
0100
0000
0010
0000
1000
,
0000
1100
0000
0100
0002
0000
0023
0000
,
0031
0000
0100
1000
0000
0001
0000
0010
,
0000
0110
0000
0001
0100
0010
0100
0000
,
1000
0000
0100
1000
0000
0010
0001
0000
,
1000
0100
0000
0010
0100
0000
0101
0000
,
0010
0001
0010
0100
0000
0001
0000
1001
,
0000
0100
1000
0001
1000
0100
0001
0000
,
0010
0000
0001
1000
0000
0010
0000
0100
,
0000
1010
0000
0100
2000
0000
3002
0000
,
1003
0000
0100
0100
0000
0010
0000
0001
,
0000
1000
0100
1000
0001
0001
0010
0000
,
1000
0000
0000
0110
0000
0010
1000
0000
,
0001
0100
0010
0000
0100
1000
0010
0000
,
0021
0030
0210
0300
,
0102
0000
0013
0000
2001
0000
3001
0100
,
0020
0000
0000
2030
0000
0000
3001
0000
,
0100
0000
0002
0000
0000
0023
0000
0000
,
1030
0100
2000
0001
,
0100
0010
3010
0200
,
1000
0010
1000
0001
,
0301
0000
1000
0000
0100
0010
0100
0000
,
0001
0010
0001
0100
0000
1000
0000
0010
,
1000
0010
0000
1000
1000
0000
0001
0000
,
0220
0000
0300
0001
,
0031
0000
1001
0000
0100
0001
0100
0000
,
0010
0100
0000
0010
0000
0001
0000
0001
,
0200
0000
0000
0302
0000
0000
0023
0000
,
0000
2000
0030
0000
3100
0000
0100
0001
,
0000
1000
0000
0001
0000
0010
0010
0000
,
1010
0000
0100
0000
0100
0010
0000
1000
,
1000
0000
0010
0000
0101
0000
0100
0010
,
0000
0100
0000
1000
0000
0001
1000
0000
,
1000
0100
0010
0000
0100
0000
1000
0100
,
0000
0001
0010
0001
0000
0100
0001
0000
,
0200
0000
0000
1000
0000
0000
2300
0000
,
0000
0001
0000
0000
3010
0000
0000
1100
,
0000
0000
0101
0000
0000
1002
0000
0000
,
0013
0000
0100
0010
0000
1000
0000
0001
,
0000
1000
0000
0001
0010
0000
0002
0000
,
0000
2003
0000
0000
3020
0000
0000
0230
,
0000
0000
0310
0001
0000
1000
0000
1000
,
0000
1010
0000
0100
0100
0000
0010
0000
,
0001
0000
1000
0001
0000
0001
0010
0000
,
0010
0100
0000
0100
0001
0000
1000
0100
,
0000
0010
0000
0100
0000
1000
0100
0000
,
0101
1000
0010
0100
,
1000
0001
0000
0110
0000
0000
0200
0000
,
0000
2300
0000
0000
3200
0000
0000
0302
,
0000
0000
1003
0000
0000
0110
0000
0000
,
1010
0000
0000
1001
0000
0000
0100
0000
,
1000
0100
0000
1000
0000
0010
0000
0001
,
0000
0010
0100
0000
1100
0000
0010
1000
,
0000
0100
0000
0001
0000
0010
0000
0100
,
1000
0100
0001
0000
1001
0000
0010
0000
,
0001
0100
0002
0000
0003
0000
0100
0010
,
1000
0000
0010
1000
0001
0000
0100
1000
,
0100
0010
0000
0001
0000
1001
0000
0100
,
0010
0001
0100
0000
0110
0000
2000
0000
,
3100
0002
0103
0020
,
0100
1000
0031
0200
,
0301
1000
0002
0000
0013
0100
0020
0000
,
0031
1000
1000
0000
1010
0000
0100
0010
,
0100
0000
0001
1000
0001
0000
1000
0010
,
0100
0000
0010
0001
1000
0000
0010
0001
,
1000
0001
0100
0010
0100
0000
1010
0000
,
1100
0000
1001
0000
0010
0110
0000
0000
;

//---------------dance-single - ----------------
#NOTES:
     dance-single:
     :
     Easy:
     6:
     0.317264,0.369955,0.232831,0.394022,0.000000,248.000000,222.000000,26.000000,44.000000,0.000000,0.000000,0.317264,0.369955,0.232831,0.394022,0.000000,248.000000,222.000000,26.000000,44.000000,0.000000,0.000000:
0000
0000
0000
0000
,
0000
0000
0000
0000
,
0000
0000
0000
0000
,
0000
0000
0000
0000
,
0000
0000
0000
0000
,
0010
0000
1000
0000
,
0010
1000
0001
0000
,
1000
0001
0100
1000
,
0100
1000
2000
3000
,
0010
0100
0001
0000
,
1000
0100
0100
0000
,
1000
0001
1000
1000
,
0010
0010
0200
0300
,
0010
0100
0010
0000
,
1000
0010
1000
0000
,
2002
0000
0000
3003
,
0002
0003
0200
0300
,
0001
0100
0002
0003
,
1000
1000
0100
1000
,
0100
0010
0020
0030
,
0002
0003
0020
0030
,
0100
1000
0200
0300
,
0001
0010
0001
1000
,
0010
0100
0200
0300
,
0002
0003
0200
0300
,
0010
1000
2000
3000
,
0010
0100
0001
0100
,
0001
0001
2000
3000
,
0100
0010
2000
3000
,
1000
0100
0020
0030
,
0110
0000
0011
0000
,
1100
0000
1001
0000
,
0020
0000
0001
0000
,
1030
2000
0000
0010
,
0000
3001
0200
0000
,
1000
1000
0300
0002
,
0000
0010
0010
0010
,
0003
1000
0000
1010
,
0000
0100
0010
0000
,
0011
0000
0010
1000
,
2000
0000
3000
1000
,
0100
0200
0300
0002
,
0003
0010
1000
0010
,
0001
0000
1001
0000
,
1010
0000
1000
0100
,
0010
0000
1000
0010
,
0100
0010
0001
0100
,
0000
0110
0000
1000
,
0100
0020
0030
1000
,
0001
0010
2000
3000
,
0100
0200
0300
0010
,
0010
0000
0101
0000
,
0110
0000
1000
0000
,
0011
0000
1001
0000
,
0010
1000
0010
0000
,
1000
1000
0100
0010
,
0000
0001
1000
0001
,
0100
0010
0000
0001
,
0001
0100
0001
1000
,
0020
0030
0200
0300
,
2002
3003
0010
1000
,
1000
0000
0100
0010
,
0100
0001
0001
0100
,
1000
0010
0000
0110
,
0000
1010
0000
1100
,
0000
0101
0000
0011
,
0000
1001
0000
0002
,
0003
0200
0300
1000
,
0100
1000
0010
0001
,
0001
0020
0030
0100
,
0100
1000
0100
0010
,
1000
0002
0003
0100
,
0010
0100
1000
0010
,
0001
0200
0300
1000
,
1000
0200
0300
1000
,
0000
1100
0000
0001
,
1000
0100
1000
0001
,
0000
1010
0000
1000
,
1000
0010
0100
0200
,
0300
2002
3003
0020
,
0030
0220
0330
0001
,
1000
0010
0001
0100
,
0010
0000
0010
0000
0000
1001
0000
0000
;

//---------------dance-single - ----------------
#NOTES:
     dance-single:
     :
     Beginner:
     4:
     0.204687,0.258577,0.080595,0.152236,0.000000,160.000000,151.000000,9.000000,17.000000,0.000000,0.000000,0.204687,0.258577,0.080595,0.152236,0.000000,160.000000,151.000000,9.000000,17.000000,0.000000,0.000000:
// measure 0
0000
0000
0000
0000
,  // measure 1
0000
0000
0000
0000
,  // measure 2
0000
0000
0000
0000
,  // measure 3
0000
0000
0000
0000
,  // measure 4
0000
0000
0000
0000
,  // measure 5
0100
0100
0100
0000
,  // measure 6
0001
0000
0100
0000
,  // measure 7
0010
0000
1000
0000
,  // measure 8
0001
0001
0001
0000
,  // measure 9
0200
0000
0300
0000
,  // measure 10
2000
0000
3000
0000
,  // measure 11
0010
0010
0010
0000
,  // measure 12
0100
0000
0010
0000
,  // measure 13
1000
1000
1000
0000
,  // measure 14
0001
0000
1000
0000
,  // measure 15
0110
0000
0000
0000
,  // measure 16
0002
0000
0003
0000
,  // measure 17
0010
0000
1000
0000
,  // measure 18
0020
0000
0030
0000
,  // measure 19
0100
0000
0001
0000
,  // measure 20
0200
0000
0300
0000
,  // measure 21
1000
0000
0001
0000
,  // measure 22
2000
0000
3000
0000
,  // measure 23
2002
0000
3003
0000
,  // measure 24
0010
0000
0010
0000
,  // measure 25
0100
0000
0010
0000
,  // measure 26
1000
0000
1000
0000
,  // measure 27
0010
0000
1000
0000
,  // measure 28
0001
0000
0001
0000
,  // measure 29
0100
0000
0001
0000
,  // measure 30
0100
0000
0110
0000
,  // measure 31
1000
0000
1001
0000
,  // measure 32
0200
0000
0000
0300
,  // measure 33
0000
0020
0000
0000
,  // measure 34
0030
0000
2000
0000
,  // measure 35
0000
3000
0000
0002
,  // measure 36
0000
0000
0003
0000
,  // measure 37
0100
0100
0000
0010
,  // measure 38
0000
1000
1000
0000
,  // measure 39
0001
0000
1000
0000
,  // measure 40
0020
0000
0030
0110
,  // measure 41
0000
0100
0000
1000
,  // measure 42
0000
0100
0000
1000
,  // measure 43
1000
0000
0001
0000
,  // measure 44
0010
0000
0100
0000
,  // measure 45
0001
0000
1000
0000
,  // measure 46
0001
0001
0000
1000
,  // measure 47
0000
1001
0000
0010
,  // measure 48
0000
0100
0000
0001
,  // measure 49
0000
0010
0010
0000
,  // measure 50
1000
0000
0001
0000
,  // measure 51
0100
0000
0010
0000
,  // measure 52
1000
0000
0100
0000
,  // measure 53
0001
0000
1001
0000
,  // measure 54
0010
0000
0100
0000
,  // measure 55
0001
0000
1000
1000
,  // measure 56
0000
0010
0000
0100
,  // measure 57
0000
0001
0000
1000
,  // measure 58
0000
0010
0000
0100
,  // measure 59
0100
0000
1000
0000
,  // measure 60
0001
0000
0010
0000
,  // measure 61
0010
0000
0001
0000
,  // measure 62
0100
0100
0000
0001
,  // measure 63
0000
1000
0000
0010
,  // measure 64
0000
0100
0000
0100
,  // measure 65
0000
0001
0000
1000
,  // measure 66
0000
0010
0000
0200
,  // measure 67
0000
0300
0000
1000
,  // measure 68
0000
0001
0000
2000
,  // measure 69
0000
3000
0000
0010
,  // measure 70
0000
1000
0000
0010
,  // measure 71
0010
0010
0000
0100
,  // measure 72
0000
0001
0000
1000
,  // measure 73
1000
1000
0000
2002
,  // measure 74
0000
3003
0000
0010
,  // measure 75
0000
0001
0000
0010
,  // measure 76
0000
0100
0000
1000
,  // measure 77
0000
0001
0000
1000
,  // measure 78
0000
0010
0000
0100
,  // measure 79
0100
0100
0000
1000
,  // measure 80
1000
1000
0000
0001
,  // measure 81
0000
1000
0000
0110
,  // measure 82
0000
0010
0010
0000
;
