#VERSION:0.83;
#TITLE:freaky freak;
#SUBTITLE:;
#ARTIST:kamome sano;
#TITLETRANSLIT:;
#SUBTITLETRANSLIT:;
#ARTISTTRANSLIT:;
#GENRE:;
#CREDIT:;
#MUSIC:freaky freak.ogg;
#BANNER:freaky freak.png;
#BACKGROUND:freaky freak-bg.png;
#CDTITLE:;
#SAMPLESTART:28.280;
#SAMPLELENGTH:15.000;
#SELECTABLE:YES;
#OFFSET:0.619;
#BPMS:0.000=144.979;
#STOPS:200.000=0.207
,200.500=0.207
;
#SPEEDS:0.000=1.000=0.000=0;
#SCROLLS:0.000=1.000;
#TICKCOUNTS:0.000=4;
#TIMESIGNATURES:0.000=4=4;
#LABELS:0.000=Song Start;
#COMBOS:0.000=1;
#ORIGIN:;
#PREVIEWVID:;
#JACKET:freaky freak-jacket.png;
#CDIMAGE:;
#DISCIMAGE:;
#BGCHANGES:;
#FGCHANGES:;

//--------------- dance-single - ----------------
#NOTEDATA:;
#STEPSTYPE:dance-single;
#DESCRIPTION:;
#DIFFICULTY:Beginner;
#METER:2;
#RADARVALUES:0.237845,0.261238,0.070102,0.148966,0,190,182,8,17,0,0,0,0,0,0.237845,0.261238,0.070102,0.148966,0,190,182,8,17,0,0,0,0,0;
#CHARTNAME:;
#CHARTSTYLE:;
#CREDIT:;
#NOTES:
0000
0000
0000
0000
,
0000
0000
0000
0000
,
0000
0000
0000
0000
,
0000
0000
0000
0000
,
0000
0000
0000
0000
,
0000
0000
0000
0000
,
0000
0000
0000
0000
,
0000
0000
0000
0000
,
0000
0000
0000
0000
,
0001
0000
0001
0000
,
1000
0000
1000
0000
,
0001
0000
0001
0000
,
1000
0000
1000
0000
,
0010
0000
0010
0000
,
0100
0000
0100
0000
,
0010
0000
0010
0000
,
0200
0000
0000
0000
,
0000
0000
0300
0000
,
1000
0000
0100
0000
,
1000
0000
1000
0000
,
0010
0000
0100
0000
,
0010
0000
0010
0000
,
0001
0000
0010
0000
,
0001
0000
0001
0000
,
0100
0000
0001
0000
,
0100
0100
0100
0000
,
0010
0000
0010
0000
,
1000
0000
0010
0000
,
1000
0000
1000
0000
,
0100
0000
1000
0000
,
0100
0000
0100
0000
,
0001
0000
0100
0000
,
0001
0000
0001
0000
,
0001
0000
1001
0000
,
0010
0000
0010
0000
,
0100
0000
0100
0000
,
0010
0000
0010
0000
,
0020
0000
0030
0000
,
1000
0000
0001
0000
,
1000
0000
0001
0000
,
1000
0000
1000
0000
,
2000
0000
3000
0000
,
0100
0000
0010
0000
,
0100
0000
0010
0000
,
0100
0000
0100
0000
,
0100
0000
0100
0000
,
0001
0000
1000
0000
,
0001
0000
1000
0000
,
0001
0000
0001
0000
,
0001
0000
0001
0000
,
0000
1001
0000
1000
,
0000
0001
0000
1000
,
0000
0010
0000
0100
,
0000
0010
0000
0100
,
0000
1000
0000
0001
,
0000
1000
0000
0001
,
0000
0100
0000
0010
,
0000
0100
0100
0100
,
0000
0110
0000
0010
,
0000
1000
0000
0010
,
0000
1000
0000
0001
,
0000
0100
0000
0010
,
0000
0100
0000
0001
,
0000
0100
0000
0001
,
0000
0010
0000
0010
,
0000
1000
0000
0001
,
0000
1001
0000
0000
;

//--------------- dance-single - ----------------
#NOTEDATA:;
#STEPSTYPE:dance-single;
#DESCRIPTION:;
#DIFFICULTY:Easy;
#METER:4;
#RADARVALUES:0.237845,0.261238,0.070102,0.148966,0,190,182,8,17,0,0,0,0,0,0.237845,0.261238,0.070102,0.148966,0,190,182,8,17,0,0,0,0,0;
#CHARTNAME:;
#CHARTSTYLE:;
#CREDIT:;
#NOTES:
0000
0000
0000
0000
,
0000
0000
0000
0000
,
0000
0000
0000
0000
,
0000
0000
0000
0000
,
0000
0000
0000
0000
,
1000
0000
1000
0000
,
0010
0000
0010
0000
,
0100
0000
0001
0000
,
1000
0000
0100
0000
,
1000
0100
1000
0000
,
0001
0001
0100
0000
,
0010
0100
0010
0000
,
0100
0100
0010
0000
,
2000
3000
0200
0300
,
0002
0003
0020
0030
,
1000
0001
1000
0001
,
0020
0000
0000
0000
,
0000
0000
0030
0110
,
0100
1000
0010
0000
,
0001
0010
0100
0010
,
0001
1000
0010
0000
,
0010
1000
0100
0001
,
1000
0001
1000
0000
,
0010
0010
0001
1000
,
0100
0001
0100
0000
,
1000
1000
0010
0000
,
0002
0003
0100
1000
,
0010
0001
0100
0000
,
0020
0030
1000
0001
,
0100
1000
0100
0000
,
0220
0330
0010
0001
,
0100
0010
1000
0000
,
2002
3003
0010
0001
,
0100
0010
0001
0000
,
2000
3000
0002
0003
,
0010
0100
0020
0030
,
0200
0300
0020
0030
,
0001
0100
0002
0003
,
1000
0100
1000
0000
,
0010
1000
0010
0000
,
0100
1000
0001
0000
,
0010
1000
0001
0000
,
0100
1000
0100
0010
,
0100
1000
1000
0000
,
0100
0001
0010
0001
,
1000
0100
0100
0000
,
0010
0100
1000
0010
,
0100
0001
0001
0000
,
0010
1000
0010
0001
,
0100
1000
1000
0000
,
0000
0100
0001
0100
,
0001
0010
0000
0110
,
0000
1000
0100
1000
,
0100
0010
0000
1001
,
0000
0001
1000
0001
,
1000
0010
0000
0110
,
0000
1000
0010
1000
,
0010
0001
0000
1001
,
0000
0010
1000
0100
,
0000
1000
0100
0001
,
0000
1000
0010
0001
,
0100
0010
1000
0001
,
0000
1000
0010
0001
,
0000
0100
0010
0001
,
0000
0001
1000
0100
,
0001
0010
1000
0100
,
0000
1001
0000
0000
;

//--------------- dance-single - ----------------
#NOTEDATA:;
#STEPSTYPE:dance-single;
#DESCRIPTION:;
#DIFFICULTY:Medium;
#METER:10;
#RADARVALUES:0.454409,0.464423,0.210305,0.078864,0.026288,363,339,24,9,0,0,0,0,0,0.454409,0.464423,0.210305,0.078864,0.026288,363,339,24,9,0,0,0,0,0;
#CHARTNAME:;
#CHARTSTYLE:;
#CREDIT:;
#NOTES:
0000
0000
0000
0000
,
0000
0000
0000
0000
,
0000
0000
0000
0000
,
0000
0000
0000
0000
,
0000
0000
0000
0000
,
0100
0010
0100
0010
,
1000
0001
1000
0001
,
0001
0100
0010
0100
,
1000
0010
0100
0100
,
0001
0000
0011
0000
1000
0100
0001
0000
,
1000
0000
1010
0000
0010
1000
0100
0000
,
0100
0000
0110
0000
0010
1000
0100
0000
,
0100
0000
0101
0000
0001
1000
0010
0000
,
0100
0001
0100
0000
0100
1000
0100
0000
,
0010
1000
0010
0000
0010
0001
0010
0000
,
1000
0001
1000
0001
0100
1000
0100
1000
,
0002
0000
1000
0100
,
1000
0010
0013
0110
,
0001
0010
1000
0000
1000
0010
0001
0000
,
0010
0001
0100
0000
1100
0000
0101
0000
,
1000
0100
0010
0000
0010
0001
1000
0000
,
0100
1000
0010
0000
0011
0000
1010
0000
,
0010
1000
0001
0000
0100
1000
0010
0000
,
0100
0001
0100
0010
1000
0000
1001
0000
,
0010
0100
0010
0000
1000
0100
1000
0000
,
0001
0010
0100
0010
0001
0000
0110
0000
,
0002
0000
1000
0000
1003
0100
0001
0000
,
0010
0001
0100
0010
0001
0000
1000
0000
,
0200
0000
0001
0000
0301
0010
0100
0000
,
0001
0010
0100
1000
0100
0000
0010
0000
,
0020
0000
1000
0000
1030
0100
0001
0000
,
1000
0100
1000
0001
0100
0000
0010
0000
,
1000
1000
2000
0000
3100
0010
1000
0000
,
0010
0001
0010
1000
0010
0000
1001
0000
,
0010
0000
1000
0000
0100
0010
0001
0000
,
0010
0000
0001
0000
0001
1000
0010
0000
,
0001
0000
0000
0000
1000
0000
0000
0001
0000
0000
1000
0000
0000
0010
0000
0000
,
0100
1000
0100
0000
0010
1000
0010
0000
,
0100
0000
0001
0000
0010
0100
1000
0000
,
0010
1000
0001
0000
0001
0100
0010
0000
,
0100
0001
0100
1000
0001
1000
0010
0000
,
1000
0001
1000
0100
0010
0000
0110
0000
,
1000
0000
0100
0000
0001
1000
0001
0000
,
0100
0000
0010
0000
1000
0100
0010
0000
,
0000
0000
0000
0000
0000
0000
0001
0000
0000
0000
0000
0000
0000
0000
0000
0100
0000
0000
0000
0000
0000
0000
0000
0000
0001
0000
0000
0000
0000
0000
0000
0000
0000
0001
0000
0000
0000
0000
0000
0000
1000
0000
0000
0000
0000
0000
0000
0000
,
1000
0000
0010
0000
0000
0000
0010
0000
0000
0000
0000
0000
0100
0000
0000
1000
0000
0000
1000
0000
0000
0000
0000
0000
,
0001
0100
0010
0000
0001
1000
0100
0000
,
0100
1000
0010
0100
0010
0100
0001
0000
,
0001
0101
0100
1000
,
0001
1000
0010
1000
0100
0000
1001
0000
,
0200
0320
1030
0001
1000
0000
0100
1000
,
0100
0000
0001
0010
0100
0010
0001
1000
,
0100
0000
0001
0100
0001
0000
0010
1000
,
0010
0000
0100
0010
0100
1000
0100
1000
,
0010
0000
0100
0000
0010
0000
0100
0010
,
0001
0000
1000
0000
0001
0000
0100
0010
,
1000
0000
0100
1000
0001
1000
0001
0100
,
0010
0100
0010
0000
1010
0000
0100
0000
,
2002
0000
3003
0000
0110
0000
0001
0100
,
0001
0000
0010
0001
0100
0010
1000
0000
,
1100
0000
0100
0001
0010
0000
0001
0100
,
0010
0000
1000
0100
0001
0100
0010
0000
,
0101
0000
0010
0000
0100
1000
0100
0010
,
0001
0000
0010
0100
0001
1000
0001
0000
,
1010
0000
0001
1000
0100
0010
0100
0001
,
1000
1000
1100
1010
,
1001
0100
0000
0000
;

//--------------- dance-single - ----------------
#NOTEDATA:;
#STEPSTYPE:dance-single;
#DESCRIPTION:;
#DIFFICULTY:Hard;
#METER:13;
#RADARVALUES:0.625908,0.754688,0.210305,0.09639,0.38994,500,476,24,11,0,0,0,0,0,0.625908,0.754688,0.210305,0.09639,0.38994,500,476,24,11,0,0,0,0,0;
#CHARTNAME:;
#CHARTSTYLE:;
#CREDIT:;
#NOTES:
0000
0000
0000
0000
,
0000
0000
0000
0000
,
0000
0000
0000
0000
,
0000
0000
0000
0000
,
0000
0000
0000
0000
,
0100
0100
1000
0100
,
0010
0010
0001
0010
,
1000
0000
0000
0000
0001
0000
0000
0000
1000
0000
0000
0010
0000
0000
1000
0000
,
0000
0000
0100
0000
0010
0000
0000
0000
0100
0000
0000
0001
0000
0000
0000
0000
,
1000
0000
0010
0000
1000
0000
0000
0001
0100
0000
0100
0000
0001
0100
0000
0010
,
0001
0000
1000
0000
0100
0000
0000
1000
0001
0000
0010
0000
0100
0001
0000
0100
,
0010
0000
0001
0000
1000
0001
0000
0010
0100
0000
1000
0000
1000
0010
0000
0100
,
0001
0000
1000
0000
0001
0000
0100
0010
0100
0000
1000
0000
0011
0000
0000
0000
,
1000
1000
0100
0001
0010
0010
0001
0100
,
1000
0010
1000
0100
0001
1000
0010
0100
,
1000
0100
1000
0000
0010
0001
0010
0000
0100
0001
0100
0000
0001
1000
0001
0000
,
2000
0010
0010
0010
0100
0001
0100
0010
,
0001
0001
0001
0001
3010
0000
0110
0000
,
1000
0000
0100
0000
1000
0000
0000
0100
0000
0000
0010
0000
0001
0000
0000
0001
,
0000
0000
0010
0000
0100
0000
0000
0001
0000
0000
1000
0000
1010
0000
0000
0000
,
0001
0000
1000
0000
0100
0000
0000
1000
0000
0000
0100
0000
0010
0000
0000
0100
,
0000
0001
0010
0001
0010
0100
1001
0000
,
0010
0000
0100
0000
0010
0000
0000
0001
0000
0000
1000
0000
0001
0000
0000
0100
,
0000
0010
0001
0100
0001
1000
0110
0000
,
0001
1000
0100
1000
0100
0001
0010
0000
,
0100
1000
0100
0000
0110
0000
0000
0000
0001
1000
0001
0000
1001
0000
0000
0000
,
0010
1000
0100
1000
0010
0100
0001
0000
,
0010
0001
0100
0001
1000
0010
0100
0000
,
1000
1000
0001
0010
0001
0100
0001
0000
,
0010
0001
1000
0001
0100
0100
0010
0000
,
0001
0001
0001
0100
0010
1000
0100
1000
,
0100
0001
0010
0100
0001
1000
0010
0000
,
1100
1100
1001
0000
0010
0100
0010
0001
,
1000
0100
1000
0000
1001
0000
0000
0000
0010
1000
0010
0100
0010
0000
0000
0000
,
0001
0000
0001
0000
0100
0010
0000
0000
1000
0010
0000
0000
0100
0000
1000
0100
,
0000
0010
1000
0000
0001
0010
0000
0100
0010
0000
0100
1000
0000
1000
0001
0000
,
0010
0000
0010
0000
0100
0001
0000
0100
1000
0000
0001
0010
0001
0100
1000
0000
,
0000
0010
1000
0000
0100
1000
0000
0100
0001
0000
1000
0100
1000
0010
0001
0000
,
1000
0000
0100
0000
1000
0001
0000
0010
0100
0000
0000
0010
0000
0000
0100
0000
,
0000
0010
0001
0000
0001
0010
0000
0010
1000
0000
1000
0100
0000
0100
0010
0000
,
0100
0000
1100
0000
1000
0000
0010
1000
0010
1000
0100
0010
0001
0000
1000
0001
,
1000
0001
0100
0000
0110
0000
0001
1000
0020
0000
0000
0000
1030
0000
0000
0000
,
0001
0000
0100
0000
0001
0000
0000
0010
0100
0000
0100
0000
0001
0000
0000
0000
,
0100
0000
0010
0000
1000
0000
0000
0100
0001
0010
0001
0000
1000
0000
1000
0000
,
0000
0000
0000
0100
0000
0000
1000
0000
0000
0000
0000
0000
0010
0000
0000
1000
0000
0000
0000
0000
0000
0100
0000
0000
0001
0000
0000
0000
0000
0000
0010
0000
0000
0001
0000
0000
0000
0000
0000
0000
0001
0000
0000
0000
1000
0000
0000
0000
,
0001
0000
0000
0000
0010
0000
0000
0000
0001
0000
0000
0000
0100
0000
0000
0000
0000
0000
0000
0000
0000
0010
0000
0000
1000
0000
0000
0000
0000
0000
0001
0000
0000
0000
0000
0000
1000
0000
0000
0000
0000
0000
0100
0000
0000
0000
0000
0000
,
0110
0000
0110
0000
0010
0000
0000
1000
0100
0000
0001
0000
0100
0000
1000
0000
,
0000
0010
0100
0010
0001
0100
1000
0000
,
1000
0100
0010
0100
0001
1000
0010
0001
,
0010
0100
0010
0000
1010
0000
0000
0000
0100
0001
0100
0000
1000
0100
1000
0001
,
1000
0110
0001
0010
1000
0010
0100
0001
,
0010
0010
1000
0010
1000
0100
0001
1000
,
1001
0000
0100
0010
0100
0010
0010
0100
,
0001
1000
0100
1000
0010
0100
1000
0100
,
1100
0000
0001
0100
0001
0001
0010
0100
,
1000
1000
0100
0010
1000
0100
0010
0010
,
0110
0000
0001
0100
0010
0100
1000
0100
,
1000
0000
0000
0000
0000
0000
0010
0000
0000
0000
0000
0000
0100
0000
0000
0000
0010
0000
0000
0000
0100
0000
0000
0000
0110
0000
0000
0000
0000
0000
0000
0000
0000
0000
0000
0000
1000
0000
0000
0010
0000
0000
1000
0000
0000
0010
0000
0000
,
2000
0000
3001
0000
0201
0000
0010
0010
,
0301
2000
0000
0000
3100
0001
0020
1000
,
1030
0000
0001
1000
0002
0000
0100
0000
0100
0000
0000
0000
1000
0000
0000
0000
,
0103
0000
0010
1000
0020
0000
0000
0000
1000
0000
0000
0000
0001
0000
0001
0000
,
0031
0000
0100
0001
0200
0000
0000
0000
0001
0000
0000
0000
0010
0000
0000
0000
,
0301
0000
0010
1000
0200
0000
0000
0000
1000
0000
0000
0000
1000
0000
0010
0000
,
0301
0000
0001
0100
2000
0000
0100
0000
0010
0000
0010
0000
0100
0000
0001
0000
,
3010
0000
0001
0000
1000
0010
1000
0000
1010
0000
0000
0000
0010
1000
0100
0001
,
0010
1001
0000
0000
;
