#TITLE:double thrash;
#SUBTITLE:;
#ARTIST:414;
#TITLETRANSLIT:;
#SUBTITLETRANSLIT:;
#ARTISTTRANSLIT:;
#GENRE:;
#CREDIT:;
#BANNER:double thrash.png;
#BACKGROUND:double thrash-bg.png;
#LYRICSPATH:;
#CDTITLE:;
#MUSIC:double thrash.ogg;
#OFFSET:-0.545673;
#SAMPLESTART:106.042000;
#SAMPLELENGTH:11.566269;
#SELECTABLE:YES;
#BPMS:0.000000=166.000000
;
#STOPS:
;
#BGCHANGES:4.000=double thrash.avi=1.000=0=0=0=StretchNoLoop====,
99999=-nosongbg-=1.000=0=0=0 // don't automatically add -songbackground-
;
#KEYSOUNDS:;
#ATTACKS:;

//---------------dance-single - ----------------
#NOTES:
     dance-single:
     :
     Hard:
     13:
     0.637623,0.652567,0.207227,0.239109,0.139480,560.000000,534.000000,26.000000,30.000000,0.000000,0.000000,0.637623,0.652567,0.207227,0.239109,0.139480,560.000000,534.000000,26.000000,30.000000,0.000000,0.000000:
// measure 0
0000
0000
0000
0000
,  // measure 1
0000
0000
0000
0000
,  // measure 2
0000
0000
0000
0000
,  // measure 3
0000
0000
0000
0000
,  // measure 4
0000
0000
0000
0000
,  // measure 5
2000
0000
3100
0020
0000
0100
0031
0000
,  // measure 6
0200
0010
0320
0000
1000
0000
0130
0000
,  // measure 7
0010
1000
0010
0001
0000
0001
1000
0100
,  // measure 8
0001
0000
0000
0000
1000
0001
1000
0000
0010
0000
0010
0000
0011
0000
0000
0000
,  // measure 9
0100
0000
0010
0000
0100
0000
0001
1000
0001
0000
1000
0000
0010
0000
0000
0000
,  // measure 10
0010
0000
0001
0000
0010
0000
1000
0010
1000
0000
0100
0000
0010
0000
0000
0000
,  // measure 11
1000
0000
0100
0000
0010
0000
0010
1000
0010
0000
0100
0000
0001
0000
0100
0000
,  // measure 12
1000
0000
1000
0000
0010
0000
0001
0010
0000
0000
0001
0000
1001
0000
0000
0000
,  // measure 13
1000
0000
0100
0000
0001
0000
0100
0000
1000
0000
0000
0010
0000
0000
0001
0000
,  // measure 14
0100
0000
0000
0000
1000
0000
0010
0000
1000
0000
0001
0100
0000
0000
0000
0000
,  // measure 15
0010
0000
0010
0000
1000
0000
0100
0000
0010
0000
0100
0001
0000
0100
0010
0000
,  // measure 16
0001
0000
1000
0000
0100
0010
0100
0010
0100
0000
0001
0000
0011
0000
0000
0000
,  // measure 17
2000
0000
3200
0000
0310
0001
0010
0100
,  // measure 18
0002
0000
0023
0000
1030
0100
1000
0001
,  // measure 19
2000
0000
3002
0000
0103
0010
0100
0001
,  // measure 20
0020
0000
0032
0000
1003
0100
0010
0001
,  // measure 21
0100
0000
0101
0000
0010
0001
0100
0001
,  // measure 22
1000
0000
1100
0000
0001
0100
1000
0100
,  // measure 23
0010
0000
0110
0000
1000
0010
0100
0010
,  // measure 24
1000
0000
0001
0000
0100
0000
0100
1000
0100
0000
0010
0000
0101
0000
0000
0000
,  // measure 25
0010
1000
0100
0010
0100
0001
0010
1000
,  // measure 26
0100
0100
0010
0001
1000
0001
1001
0000
,  // measure 27
0010
1000
0100
0010
0100
1000
0100
0100
,  // measure 28
0010
0000
1000
0000
0001
0000
0100
0000
0010
0000
1000
0100
1000
0000
0000
0000
,  // measure 29
0010
0001
0010
0001
0100
0010
0100
0010
,  // measure 30
1000
0100
1000
0100
0001
1000
0001
1000
,  // measure 31
0010
0001
0010
0010
0100
0001
0100
0100
,  // measure 32
0010
0000
1000
0000
0001
0010
0001
0010
0100
0000
1000
0000
1010
0000
0000
0000
,  // measure 33
0100
0000
0100
1000
0001
1000
0010
0100
,  // measure 34
0001
0000
0001
0010
0100
0001
1000
0000
,  // measure 35
1000
0001
0100
0010
0100
0001
1000
0010
,  // measure 36
0100
1000
0100
0010
1000
0001
0101
0000
,  // measure 37
0100
1000
0100
0001
1000
0010
0100
0010
,  // measure 38
0001
0010
1000
0100
0010
0100
0100
0000
,  // measure 39
1000
1000
0001
0100
0010
0010
0100
0010
,  // measure 40
1100
0000
0000
0000
0101
0000
0000
0000
1000
0100
1000
0100
0001
0000
0000
0000
,  // measure 41
2000
0000
0000
0000
0000
0010
3100
0010
,  // measure 42
0001
0010
1000
0001
0100
1000
0010
0001
,  // measure 43
1000
1000
0100
0010
0001
0001
0010
1000
,  // measure 44
0001
0000
0010
0000
0100
0000
0100
0010
1000
0000
1000
0000
1010
0000
0010
0000
,  // measure 45
0100
0001
0020
0000
0000
1000
0130
0010
,  // measure 46
1000
0001
1000
0100
0010
0100
0001
0010
,  // measure 47
0001
1000
0010
0100
0001
0100
0010
1000
,  // measure 48
0100
1000
0100
0000
1000
0010
1000
0000
0010
0000
0001
0000
0110
0000
0000
0000
,  // measure 49
0020
0000
0000
0000
0000
0000
0000
0000
1000
0000
0000
1000
0030
0000
0100
0000
,  // measure 50
0200
0000
0001
0001
0300
1000
0001
0000
,  // measure 51
1000
0010
0100
0000
0011
0000
0010
0100
,  // measure 52
0001
0000
0001
1000
0010
0100
0101
0000
,  // measure 53
0010
1000
0010
0000
0001
0100
0001
0000
,  // measure 54
0001
0010
0100
1000
0100
0100
0100
0000
,  // measure 55
1000
0001
0100
0010
0100
1000
0001
0100
,  // measure 56
0001
0000
0001
0000
0010
0000
0100
0000
0010
1000
0010
1000
0010
0000
0000
0000
,  // measure 57
1100
0000
0010
0100
0010
0101
0001
0100
,  // measure 58
0001
1000
0010
1001
0000
0100
1000
0100
,  // measure 59
0110
0000
1000
0100
1000
1100
0100
0001
,  // measure 60
0010
0100
0001
0011
0000
0010
0010
0010
,  // measure 61
1001
0000
0100
0010
0001
1000
0100
0010
,  // measure 62
0100
0001
0010
1000
0000
1000
0001
0100
,  // measure 63
1000
0010
0001
0100
0010
1000
0100
1000
,  // measure 64
0022
0000
0000
0000
0000
0000
0000
0033
,  // measure 65
0100
1000
0000
0000
1000
0100
0000
0000
0100
0010
0000
0000
0010
0001
0000
0000
,  // measure 66
0001
0100
0000
0000
0100
0010
0000
0000
0100
0000
0001
0000
1000
0000
0000
0000
,  // measure 67
0010
0001
0000
0000
0010
0001
0000
0000
0100
0010
0000
0000
0100
0010
0000
0000
,  // measure 68
0001
1000
0000
0000
0100
1000
0000
0000
0010
0000
0100
0000
0001
0000
0000
0000
,  // measure 69
2000
0000
3100
0000
0001
0100
0001
0010
,  // measure 70
0200
0000
0001
0001
0000
1000
1300
0000
,  // measure 71
0001
0100
0020
0000
0100
0000
1030
0100
,  // measure 72
0001
1000
0010
0002
0000
1000
1003
0000
,  // measure 73
2000
0000
3010
0000
0210
0000
0301
0020
,  // measure 74
0000
0001
0130
1000
0001
0010
0100
1000
,  // measure 75
0100
0010
0100
0001
0010
0001
1000
0100
,  // measure 76
1000
0100
0010
0100
0001
1000
0010
0100
,  // measure 77
0002
0000
2003
0000
3010
0100
0010
0001
,  // measure 78
1000
0100
1000
0100
0001
0010
0001
1000
,  // measure 79
0001
0001
0100
0010
1000
1000
0100
0010
,  // measure 80
0100
0100
0010
0010
1000
0001
0010
0001
,  // measure 81
2002
0000
0003
0000
0020
0000
0000
3030
;

//---------------dance-single - ----------------
#NOTES:
     dance-single:
     :
     Medium:
     9:
     0.431534,0.490173,0.151435,0.215198,0.000000,379.000000,360.000000,19.000000,27.000000,0.000000,0.000000,0.431534,0.490173,0.151435,0.215198,0.000000,379.000000,360.000000,19.000000,27.000000,0.000000,0.000000:
0000
0000
0000
0000
,
0000
0000
0000
0000
,
0000
0000
0000
0000
,
0000
0000
0000
0000
,
0000
0000
0000
0000
,
0100
0100
0001
0001
,
0010
0000
1000
0000
0010
1000
0010
0000
,
0001
0001
1000
1000
,
0001
0000
0100
0010
0200
0000
0300
0000
,
0100
1000
1000
0010
,
0001
0000
0001
0000
0010
0100
0010
0000
,
1000
0100
0001
0001
,
1000
0010
0100
0000
0001
0000
0001
0000
,
0010
0000
0100
0000
0010
0001
0010
0000
,
1000
0000
0001
0000
0100
0010
0100
0000
,
1000
0010
0001
0010
,
0100
1000
0100
0000
0100
0000
1001
0000
,
0200
2300
3001
0001
,
0020
0230
1300
1000
,
0002
2003
3010
0010
,
0200
0302
1003
0110
,
1000
0000
0100
0000
1000
0010
1000
0000
,
0001
0000
0010
0000
0001
1000
0001
0000
,
0010
0100
0010
0100
,
1000
0001
0100
0000
0100
0000
1001
0000
,
0020
0000
1000
0100
,
0001
0001
0100
1030
,
0100
0000
0010
0100
0001
0000
1000
0100
,
1000
0000
1000
0000
0010
0100
0010
0000
,
0001
0000
0001
0000
0010
0100
0010
0000
,
1000
0000
1000
0000
0001
0010
0001
0000
,
1000
0100
1000
0100
0010
0000
0100
0001
,
1000
0010
0110
1001
,
0100
1000
0100
0000
0010
0000
0010
0001
,
0010
0001
0100
0100
,
1000
0100
1000
0000
0010
0000
0001
0100
,
0001
0000
1000
0000
0001
1000
0001
0000
,
1000
0100
0001
0100
1000
0000
0001
0010
,
0100
0001
0100
0000
0001
0000
1000
0000
,
0010
0001
0100
0000
0100
0010
0001
0000
,
1000
0100
1000
0001
0010
0000
1001
0000
,
0200
0000
0000
0310
,
0001
0010
0100
0010
,
1000
1100
0010
1010
,
0100
0000
0100
0000
0001
0100
0001
0000
,
2000
0002
3000
0103
,
0010
1000
0100
1000
,
0001
0110
0100
1001
,
0020
0230
0301
1001
,
2000
0000
0010
0010
,
0001
0010
0100
3000
,
0001
0010
0001
0000
0100
0001
0100
0000
,
0010
1000
0100
1000
0020
0000
0030
0000
,
0010
1000
0100
0001
,
0010
0100
0002
0013
,
0010
0000
1000
0100
0001
0000
0001
0010
,
1000
0100
1000
0000
0001
0000
0110
0000
,
0002
0000
1003
0000
1000
0010
1000
0000
,
0100
0001
0100
0002
0000
0000
0003
0000
,
0020
0000
1030
0000
1000
0100
1000
0000
,
0010
1000
0100
2000
0000
0000
3000
0000
,
0010
0000
0110
0000
1000
0100
1000
0000
,
0001
0010
0001
0020
0000
0000
0030
0000
,
0100
0000
1100
0000
0100
0001
0100
0000
,
2002
0000
0000
3003
,
0010
0000
0010
0000
0100
0001
0010
0000
,
1000
0000
1000
0000
0001
0010
0001
0000
,
0100
0000
1000
0000
0010
0100
0001
0000
,
1000
0000
0100
0000
0010
0100
0001
0000
,
0100
0000
1000
0100
1000
0000
0010
0001
,
0100
0000
0001
0010
0001
0000
0100
1000
,
0100
0010
0001
0000
0100
0010
0100
0000
,
1000
0100
1000
0100
0001
0000
1001
0000
,
1000
0000
0010
0000
0100
0000
0100
0001
,
0000
0010
1000
0000
0100
0000
0010
0000
,
0001
1000
0001
0000
0010
1000
0010
0000
,
0100
1000
0100
1000
0010
0000
0011
0000
,
0100
0000
0010
0000
1000
0100
1000
0000
,
0001
0000
0001
0000
0010
0001
0100
0000
,
1000
0100
1000
0000
0010
0100
0010
0000
,
0001
1000
0010
0100
0001
0000
1100
0000
,
2002
0000
0000
0000
,
3003
0000
0000
0000
;

//---------------dance-single - ----------------
#NOTES:
     dance-single:
     :
     Easy:
     5:
     0.265297,0.293655,0.063762,0.263019,0.000000,233.000000,225.000000,8.000000,33.000000,0.000000,0.000000,0.265297,0.293655,0.063762,0.263019,0.000000,233.000000,225.000000,8.000000,33.000000,0.000000,0.000000:
0000
0000
0000
0000
,
0000
0000
0000
0000
,
0000
0000
0000
0000
,
0000
0000
0000
0000
,
0000
0000
0000
0000
,
0100
0000
0100
0000
,
0010
0010
0001
0000
,
1000
0001
1000
0010
,
0001
0000
1001
0000
,
0100
0000
1000
0100
,
1000
0000
0001
0010
,
0001
0000
0010
0100
,
0010
0000
0110
0000
,
0010
0000
0001
0001
,
0001
0000
1000
1000
,
1000
0000
0100
0100
,
0100
0000
1001
0000
,
2000
3000
0010
0010
,
0200
0300
0010
0010
,
2000
3000
0100
0100
,
0002
0003
1000
1000
,
2000
3000
0010
0001
,
0200
0300
0010
1000
,
0002
0003
0001
0010
,
0200
0300
0220
0330
,
1000
0100
1000
0100
,
0010
0100
0001
0000
,
0010
0001
0010
1000
,
0100
0010
1000
0000
,
1000
0001
1000
0001
,
0010
0100
0010
0000
,
1000
1000
0100
0001
,
0010
0001
0100
0000
,
1001
0000
0010
0100
,
0010
0000
0100
0010
,
1000
0000
0100
0001
,
0010
0100
1000
0000
,
0110
0000
0010
0100
,
1000
0000
0010
0001
,
0100
0000
0010
1000
,
0100
0010
0100
0000
,
0200
0000
0300
0000
,
1000
0001
0010
0000
,
0001
0100
0010
0000
,
0100
0001
1000
0100
,
0002
0000
0003
0000
,
0010
0100
0001
0000
,
0010
1000
0100
1000
,
0100
0000
1001
0000
,
0020
0000
0230
0000
,
0310
0100
0020
0030
,
2000
0000
3002
0000
,
1003
0001
2000
3000
,
0100
0100
1000
0000
,
0010
0010
0001
0000
,
0100
1000
0010
0001
,
0100
0000
1001
0000
,
0020
0030
0100
1000
,
0100
0000
0002
0003
,
2000
3000
0100
0100
,
0010
0100
0002
0003
,
0002
0003
0010
0100
,
0010
0100
2000
3000
,
0200
0300
0010
0010
,
0002
0000
0000
0003
,
0010
1000
0010
1000
,
0100
0010
0100
0000
,
0001
0010
0001
0010
,
1000
0001
1000
0000
,
1000
0100
0010
0000
,
0010
0100
0001
0000
,
0001
0010
0100
0001
,
0100
0010
0010
0000
,
2000
3000
0001
0010
,
0200
0300
0010
0100
,
0002
0003
0010
0100
,
0002
0003
2000
3000
,
0010
0001
0100
0000
,
0100
0010
1000
0000
,
1000
0100
0001
0010
,
0100
1000
0001
0000
,
2000
0000
0000
0000
0002
0000
0000
3003
;

//---------------dance-single - ----------------
#NOTES:
     dance-single:
     :
     Beginner:
     3:
     0.186732,0.225958,0.087673,0.079703,0.000000,164.000000,153.000000,11.000000,10.000000,0.000000,0.000000,0.186732,0.225958,0.087673,0.079703,0.000000,164.000000,153.000000,11.000000,10.000000,0.000000,0.000000:
0000
0000
0000
0000
,
0000
0000
0000
0000
,
0000
0000
0000
0000
,
0000
0000
0000
0000
,
0000
0000
0000
0000
,
0001
0000
0000
0010
,
0010
0000
0000
0100
,
0100
0000
1000
0000
,
0200
0000
0300
0000
,
1000
0000
0001
0000
,
1000
0000
1000
0000
,
0010
0000
1000
0000
,
0010
0000
0010
0000
,
0100
0000
0001
0000
,
0100
0000
0100
0000
,
0010
0000
0001
0000
,
0010
0000
0110
0000
,
0001
0000
1000
1000
,
1000
0000
0010
0010
,
0010
0000
0100
0100
,
0100
0000
0100
0000
,
1000
1000
1000
0000
,
0001
0000
1000
0000
,
0010
0010
0010
0000
,
1000
0000
1001
0000
,
0010
0000
0100
0000
,
0010
0000
0010
0000
,
1000
0000
0100
0000
,
1000
0000
1000
0000
,
0001
0001
0001
0000
,
1000
1000
1000
0000
,
0010
0000
0100
0000
,
0010
0000
0110
0000
,
0200
0000
0300
0000
,
0001
0000
0100
0000
,
0002
0000
0003
0000
,
1000
0000
0010
0000
,
2000
0000
3000
0000
,
0100
0000
0010
0000
,
0200
0000
0300
0000
,
0001
0000
1001
0000
,
1001
0000
0000
0000
,
0010
0000
0010
0000
,
0100
0000
0001
0000
,
0100
0100
0100
0000
,
0110
0000
0000
0000
,
1000
0000
0001
0000
,
1000
0000
1000
0000
,
0001
0000
0010
0000
,
2000
0000
3000
0000
,
0010
0000
0010
0000
,
0001
0001
0001
0000
,
1000
0000
1001
0000
,
0010
0000
0100
0000
,
0010
0000
0100
0000
,
1000
0000
0001
0000
,
1000
0000
1000
0000
,
0001
0000
0000
0000
,
0100
0000
0110
0000
,
0010
0000
0000
0000
,
1000
0000
1001
0000
,
0001
0001
0001
0000
,
0100
0000
0010
0000
,
0100
0000
0100
0000
,
0220
0000
0000
0330
,
1000
1000
1000
0000
,
0100
0000
0001
0000
,
0100
0100
0100
0000
,
0010
0000
0010
0000
,
2000
0000
3000
0000
,
0001
0000
0001
0000
,
0010
0000
0100
0000
,
0200
0000
0300
0000
,
0001
0000
1000
0000
,
0001
0000
0001
0000
,
0010
0000
0100
0000
,
0010
0000
0010
0000
,
0100
0100
0100
0000
,
1000
0000
0100
0000
,
0001
0000
0001
0000
,
1000
0000
0010
0000
,
0110
0000
0000
0000
;
