#TITLE:croiX;
#SUBTITLE:;
#ARTIST:Team Grimoire+ameneko;
#TITLETRANSLIT:;
#SUBTITLETRANSLIT:;
#ARTISTTRANSLIT:;
#GENRE:;
#CREDIT:;
#BANNER:croiX.png;
#BACKGROUND:croiX-bg.png;
#LYRICSPATH:;
#CDTITLE:;
#MUSIC:croiX.ogg;
#OFFSET:0.308000;
#SAMPLESTART:15.768000;
#SAMPLELENGTH:15.000000;
#SELECTABLE:YES;
#BPMS:0.000000=194.738998
,26.000000=180.000000
,28.000000=170.000000
,30.000000=160.000000
,38.000000=195.000000
,180.000000=190.000000
,182.000000=185.000000
,184.000000=180.000000
,186.000000=175.000000
,188.000000=170.000000
,190.000000=165.000000
,192.000000=160.000000
,196.000000=165.000000
,198.000000=170.000000
,200.000000=175.000000
,202.000000=180.000000
,204.000000=185.000000
,206.000000=190.000000
,208.000000=195.000000
;
#STOPS:
;
#BGCHANGES:;
#KEYSOUNDS:;
#ATTACKS:;

//---------------dance-single - ----------------
#NOTES:
     dance-single:
     :
     Hard:
     16:
     0.802167,0.915507,0.456448,0.482285,0.245448,652.000000,599.000000,53.000000,56.000000,0.000000,0.000000,0.802167,0.915507,0.456448,0.482285,0.245448,652.000000,599.000000,53.000000,56.000000,0.000000,0.000000:
// measure 0
0000
0000
0000
0000
0100
0010
0001
0100
,  // measure 1
0020
0000
1030
0010
0200
0000
0310
1000
,  // measure 2
2000
0000
3002
0000
0103
0010
1000
0100
,  // measure 3
0002
0000
1003
0100
1000
0010
0100
0010
,  // measure 4
2000
3001
0011
1001
,  // measure 5
0011
0000
0100
0010
0001
0010
0100
1000
,  // measure 6
0200
0000
0320
0000
0031
1000
0010
0100
,  // measure 7
0001
0010
0100
1000
0010
0100
0001
0100
,  // measure 8
0010
1000
0200
0000
0000
0000
0000
0000
,  // measure 9
0000
0000
0000
0000
,  // measure 10
0000
0000
0000
0000
,  // measure 11
0000
0000
0300
0000
0100
0010
0001
1000
,  // measure 12
0010
0000
0100
0000
0001
0000
0010
0000
0100
1000
0100
0000
0000
0000
1000
0001
,  // measure 13
1000
0000
0010
0000
0100
0000
0010
0000
1000
0010
1000
0000
0000
0000
0010
0100
,  // measure 14
0010
0000
1000
0000
0001
0000
1000
0000
0010
1000
0010
0000
0000
0000
0100
0010
,  // measure 15
0100
0000
0001
0000
1000
0000
0010
0000
0200
0000
0000
0000
0300
0000
0001
0010
,  // measure 16
0002
0000
0000
0000
0003
0000
1000
0100
0020
0000
0000
0000
0030
0000
0100
0000
,  // measure 17
0010
0000
0001
0000
1000
0000
0010
0000
0200
0000
0000
0000
0300
0000
0010
1000
,  // measure 18
0020
0000
0000
0000
0030
0000
0100
0001
2000
0000
0000
0000
3000
0000
0100
0000
,  // measure 19
1000
0100
0010
0001
0100
0000
1010
0000
,  // measure 20
1001
0000
0000
0000
0101
0000
0000
0000
0001
0010
0001
0000
0000
0000
0100
0001
,  // measure 21
0100
0000
0001
0000
1000
0000
0100
0000
1000
0010
1000
0000
0000
0000
0001
1000
,  // measure 22
0001
0000
0100
0000
0010
0000
1000
0000
0001
0010
0001
0000
0000
0000
0100
0001
,  // measure 23
0100
0000
0010
0000
1000
0000
0001
0000
0020
0000
0000
0000
0030
0000
0001
1000
,  // measure 24
0002
0000
0000
0000
0003
0000
0100
0010
2000
0000
0000
0000
3000
0000
0010
0000
,  // measure 25
1000
0000
0100
0000
0010
0000
0001
0000
0200
0000
0000
0000
0300
0000
0010
1000
,  // measure 26
0020
0000
0000
0000
0030
0000
0001
0100
0010
0000
1000
0000
0010
0000
0100
0000
,  // measure 27
0001
0000
1000
0000
0100
0000
1000
0010
1000
0010
1000
0010
1000
0010
1000
0010
,  // measure 28
1000
0001
0100
0010
1010
0000
1000
1100
,  // measure 29
0000
0100
0110
0000
0010
0011
0000
0001
,  // measure 30
1001
0000
0110
0000
1010
0000
0010
1010
,  // measure 31
0000
1000
1100
0000
0100
1100
0000
1000
,  // measure 32
1010
0000
0101
0000
0110
0000
0010
0011
,  // measure 33
0000
0001
1001
0000
1000
1010
0000
0100
,  // measure 34
0101
0000
1001
0000
1100
0000
0100
0110
,  // measure 35
0000
0010
0011
0000
0001
1001
0000
1000
,  // measure 36
1010
0000
0011
0000
0100
1000
0001
0010
,  // measure 37
0100
1000
0100
0010
0001
1000
0001
0010
,  // measure 38
0100
0000
0010
0000
0001
0000
1000
0010
1000
0000
0100
0000
0001
0000
1000
0000
,  // measure 39
0010
0001
0010
0100
0001
1000
0100
1000
,  // measure 40
0010
0000
0100
0000
0001
0000
0010
0001
0010
0000
0001
0000
0100
0000
0001
0000
,  // measure 41
0100
0010
1000
0001
1000
0010
0100
0010
,  // measure 42
1000
0000
0100
0000
0010
0000
0001
0010
0001
0000
0100
0000
1000
0000
0010
0000
,  // measure 43
0100
0010
0100
0001
0010
0001
1000
0010
,  // measure 44
0100
0001
0010
0001
0101
0100
0010
1000
,  // measure 45
1100
0100
0010
0001
1001
1000
0001
0100
,  // measure 46
0110
0010
1000
0100
0101
0001
1000
0010
,  // measure 47
0011
0001
0100
1000
1010
0010
0100
0001
,  // measure 48
0101
0100
0010
1000
1001
0001
0010
0100
,  // measure 49
0110
0010
0001
1000
1100
0100
0010
0001
,  // measure 50
0011
0010
0100
0001
0101
0100
0010
1000
,  // measure 51
1001
0001
1000
0100
0110
0010
0001
0100
,  // measure 52
0101
0001
1000
0100
0020
0000
0001
0000
,  // measure 53
1000
0000
2030
0000
3020
0000
1000
0130
,  // measure 54
1000
0010
0001
0100
0020
0000
0100
0031
,  // measure 55
0010
0001
1000
0001
0200
0000
0001
0310
,  // measure 56
0100
0001
0100
0010
2000
0000
0010
0000
,  // measure 57
0100
0000
0000
0000
3010
0001
0010
0001
0200
0000
0000
0000
1000
0000
0000
0000
,  // measure 58
0010
0000
0000
0000
0301
1000
0001
1000
0010
0000
0100
0000
0010
0000
0100
0000
,  // measure 59
1000
0100
0010
0100
1000
1000
0100
0100
,  // measure 60
0010
0010
0001
0001
2000
0000
0100
0000
,  // measure 61
0010
0000
3002
0000
0203
0000
0010
0310
,  // measure 62
0100
0001
0100
0010
1000
0100
0010
0001
,  // measure 63
0100
1000
0001
0010
0001
1000
1001
0010
,  // measure 64
0100
0100
0110
0001
0200
0000
1000
0000
,  // measure 65
0001
0000
0320
0000
0032
0000
1000
0203
,  // measure 66
0000
1000
0301
0010
0200
0000
0000
0000
,  // measure 67
0000
0320
0230
0300
,  // measure 68
2002
0000
0000
0000
3003
0000
0000
0000
1000
0010
1000
0000
0000
0000
0001
0100
,  // measure 69
0001
0000
0100
0000
0010
0000
1000
0000
0001
0100
0001
0000
0000
0000
0010
0100
,  // measure 70
0010
0000
0001
0000
1000
0000
0010
0000
0100
0001
0100
0000
0000
0000
0001
0100
,  // measure 71
0001
0000
1000
0000
0010
0000
0100
0000
0002
0000
0000
0000
0003
0000
0010
0001
,  // measure 72
0020
0000
0000
0000
0030
0000
0100
0010
2000
0000
0000
0000
3000
0000
0100
0000
,  // measure 73
0001
0000
0100
0000
0010
0000
1000
0000
0002
0000
0000
0000
0003
0000
0100
0010
,  // measure 74
0200
0000
0000
0000
0300
0000
0001
0100
0020
0000
0000
0000
0030
0000
1000
0000
,  // measure 75
0010
0100
0001
0100
0010
0000
1100
0000
,  // measure 76
0110
0000
0000
0000
0101
0000
0000
0000
0001
0100
0001
0000
0000
0000
0100
0010
,  // measure 77
0100
0000
0001
0000
0100
0000
0010
0000
1000
0100
1000
0000
0000
0000
0010
1000
,  // measure 78
0010
0000
1000
0000
0001
0000
0100
0000
0010
0100
0010
0000
0000
0000
0100
0001
,  // measure 79
0100
0000
0001
0000
1000
0000
0100
0000
0020
0000
0000
0000
0030
0000
1000
0010
,  // measure 80
2000
0000
0000
0000
3000
0000
0010
0001
0200
0000
0000
0000
0300
0000
0010
0000
,  // measure 81
1000
0000
0001
0000
0100
0000
0010
0000
0002
0000
0000
0000
0003
0000
0010
0100
,  // measure 82
0020
0000
0000
0000
0030
0000
1000
0100
0010
0000
0100
0000
1000
0000
0001
0000
,  // measure 83
0100
0000
0001
0000
0010
0000
0100
0010
0100
0010
0100
0010
0100
0010
0100
0010
,  // measure 84
0001
0100
0010
1000
0002
0000
1003
0010
,  // measure 85
0100
0001
0010
0100
2000
0000
3010
0100
,  // measure 86
1000
0100
0010
0100
0002
1003
0010
0100
,  // measure 87
0002
0013
0100
1000
0100
0001
0010
0100
,  // measure 88
0001
0100
0010
1000
2002
0000
0000
0000
,  // measure 89
0000
0000
0000
0000
,  // measure 90
0000
0000
0000
0000
,  // measure 91
0000
0000
0000
0000
,  // measure 92
0000
0000
0000
0000
0000
0000
0000
3003
0000
0000
0000
0000
0000
0000
0000
0000
;
