#TITLE:cosmic agenda;
#SUBTITLE:;
#ARTIST:TOMOSUKE feat. Jazzin'park & frances maya;
#TITLETRANSLIT:;
#SUBTITLETRANSLIT:;
#ARTISTTRANSLIT:;
#GENRE:;
#CREDIT:;
#BANNER:cosmic agenda.png;
#BACKGROUND:cosmic agenda-bg.png;
#LYRICSPATH:;
#CDTITLE:;
#MUSIC:cosmic agenda.ogg;
#OFFSET:1.192000;
#SAMPLESTART:68.789001;
#SAMPLELENGTH:16.991150;
#LASTBEATHINT:0.322150;
#SELECTABLE:YES;
#BPMS:0.000000=113.000000
;
#STOPS:
;
#BGCHANGES:;
#KEYSOUNDS:;
#ATTACKS:;

//---------------dance-single - ----------------
#NOTES:
     dance-single:
     :
     Beginner:
     1:
     0.078445,0.138917,0.032783,0.081957,0.000000,67.000000,63.000000,4.000000,10.000000,0.000000,0.000000,0.078445,0.138917,0.032783,0.081957,0.000000,67.000000,63.000000,4.000000,10.000000,0.000000,0.000000:
// measure 0
0000
0000
0000
0000
,  // measure 1
0000
0000
0000
0000
,  // measure 2
0000
0000
0000
0000
,  // measure 3
0000
0000
0000
0000
,  // measure 4
0000
0000
0000
0000
,  // measure 5
1000
0000
0000
0000
,  // measure 6
1000
0000
0000
0000
,  // measure 7
0001
0000
0000
0000
,  // measure 8
0001
0000
0000
0000
,  // measure 9
1001
0000
0000
0000
,  // measure 10
0100
0000
0000
0000
,  // measure 11
0010
0000
0000
0000
,  // measure 12
0100
0000
0000
0000
,  // measure 13
0001
0000
0000
0000
,  // measure 14
1000
0000
0000
0000
,  // measure 15
0001
0000
0000
0000
,  // measure 16
1000
0000
0000
0000
,  // measure 17
0110
0000
0000
0000
,  // measure 18
0100
0000
0010
0000
,  // measure 19
0100
0000
0000
0000
,  // measure 20
0001
0000
0001
0000
,  // measure 21
0001
0000
0000
0000
,  // measure 22
1000
0000
0001
0000
,  // measure 23
1000
0000
0000
0000
,  // measure 24
0010
0000
0010
0000
,  // measure 25
0020
0000
0030
0000
,  // measure 26
1000
0000
1000
0000
,  // measure 27
2000
0000
3000
0000
,  // measure 28
0100
0000
0100
0000
,  // measure 29
0200
0000
0300
0000
,  // measure 30
0001
0000
0001
0000
,  // measure 31
0002
0000
0003
0000
,  // measure 32
2002
0000
3003
0000
,  // measure 33
0100
0000
0000
0000
,  // measure 34
0100
0000
0000
0000
,  // measure 35
0010
0000
0000
0000
,  // measure 36
0010
0000
0000
0000
,  // measure 37
0001
0000
0000
0000
,  // measure 38
0001
0000
0000
0000
,  // measure 39
1000
0000
0000
0000
,  // measure 40
1000
0000
0000
0000
,  // measure 41
0200
0000
0000
0000
,  // measure 42
0300
0000
0000
0000
,  // measure 43
0002
0000
0000
0000
,  // measure 44
0003
0000
0000
0000
,  // measure 45
2000
0000
0000
0000
,  // measure 46
3000
0000
0000
0000
,  // measure 47
0020
0000
0000
0000
,  // measure 48
0030
0000
0000
0000
,  // measure 49
1000
0000
1000
0000
,  // measure 50
0001
0000
0001
0000
,  // measure 51
1000
0000
0001
0000
,  // measure 52
1000
0000
0001
0000
,  // measure 53
0010
0000
0010
0000
,  // measure 54
0100
0000
0100
0000
,  // measure 55
0010
0000
0100
0000
,  // measure 56
0010
0000
1001
0000
;

//---------------dance-single - ----------------
#NOTES:
     dance-single:
     :
     Easy:
     4:
     0.152206,0.208376,0.032783,0.180306,0.000000,130.000000,126.000000,4.000000,22.000000,0.000000,0.000000,0.152206,0.208376,0.032783,0.180306,0.000000,130.000000,126.000000,4.000000,22.000000,0.000000,0.000000:
0000
0000
0000
0000
,
0000
0000
0000
0000
,
0000
0000
0000
0000
,
0000
0000
0000
0000
,
0000
0000
0000
0000
,
1000
0100
0010
0000
,
0001
1000
0010
0000
,
0010
0100
0001
0000
,
0100
1000
0010
0000
,
1001
0000
1000
0000
,
0010
0001
0010
0000
,
0100
0000
0100
0000
,
0001
1000
0001
0010
,
0100
0000
0100
0000
,
0010
1000
0010
0000
,
0001
0000
0001
0000
,
0100
0010
1000
0010
,
0200
0000
0300
0000
,
2000
3000
0002
0003
,
2000
0000
3000
0000
,
0010
0010
0100
0001
,
0020
0000
0030
0000
,
0200
0300
0020
0030
,
0200
0000
0300
0000
,
1000
0010
0100
0001
,
2002
0000
3003
0000
,
0100
0000
0010
0100
,
0001
0000
1000
1000
,
0001
0000
0100
0010
,
0220
0000
0330
0000
,
0010
0000
0001
1000
,
0002
0000
0003
0000
,
0100
0100
0200
0300
,
0010
0000
0001
0100
,
0001
0000
0100
1000
,
0100
0000
0010
0100
,
0010
0001
0001
0000
,
1000
0000
0001
0100
,
0001
0000
0010
0100
,
0010
0000
0001
1000
,
0001
0100
0100
0000
,
0020
0000
0000
0000
,
0200
0000
0000
0330
,
0002
0000
0000
0000
,
2000
3003
1000
1000
,
2000
0000
0000
0000
,
0002
0000
0000
3003
,
0200
0000
0000
0000
,
0020
0000
0000
0330
,
0001
0000
1000
0010
,
1000
0000
0100
0010
,
0001
0000
1000
0001
,
0010
0100
0100
0000
,
0001
0000
0100
0010
,
0100
0000
1000
0001
,
0100
0000
0010
0001
,
0010
0100
0110
0000
;

//---------------dance-single - ----------------
#NOTES:
     dance-single:
     :
     Medium:
     7:
     0.225968,0.282137,0.106544,0.327829,0.028685,193.000000,180.000000,13.000000,40.000000,0.000000,0.000000,0.225968,0.282137,0.106544,0.327829,0.028685,193.000000,180.000000,13.000000,40.000000,0.000000,0.000000:
0000
0000
0000
0000
,
0000
0000
0000
0000
,
0000
0000
0000
0000
,
0000
0000
0000
0000
,
0000
0000
0000
0000
,
1000
0001
0010
0001
,
0100
0010
1000
0010
,
0002
0000
0010
0000
0013
0000
0100
0010
,
0200
1000
1000
0301
,
2002
3003
0001
0001
,
1000
0010
0100
0010
,
1000
0000
0000
0001
0001
0000
0100
0000
,
0010
0000
0000
0000
0001
0000
0000
0000
0010
0000
0000
0100
0000
0000
0000
0000
,
0010
0000
1000
0100
,
0001
1000
0100
1000
,
0010
0000
0000
0001
0001
0000
0100
0000
,
0010
0000
0000
0000
1000
0000
0000
0000
0001
0000
0000
1000
0000
0000
0001
0000
,
0020
0000
0000
0030
,
2200
3300
0202
0303
,
0022
0000
0000
0033
,
1000
0000
0010
0000
0100
0000
0001
0100
,
0002
0000
0000
0003
,
0022
0033
2020
3030
,
2200
0000
0000
3300
,
1000
0000
0001
0000
1000
0010
0100
0010
,
2020
0000
0000
3030
,
0001
0000
0100
0010
,
0100
0000
0000
1000
1000
0000
0001
1000
,
0010
0000
0000
0000
0000
0000
0000
0000
0100
0000
0000
0010
0000
0001
0000
0000
,
2002
0000
0000
3003
,
1000
0000
0000
0000
0000
0000
0001
0000
1000
0000
0000
0010
0000
0000
0100
0000
,
0200
0000
0000
0300
,
0001
0000
0000
0000
0100
0000
0000
0202
0000
0000
0000
0000
0303
0000
0000
0000
,
1000
0000
0010
0000
0100
0000
0001
0100
,
0001
0000
0010
0000
0001
0000
1000
0100
,
1000
0000
0010
0000
0001
0000
0100
1000
,
0100
0020
0100
0130
,
0001
0000
1000
0000
0100
0000
1000
0010
,
1000
0000
0100
0000
0001
0000
0010
0001
,
0010
0000
0100
0000
0010
0000
1000
0001
,
2000
0010
3010
0110
,
0200
0000
0001
0000
,
0002
0000
0000
0303
,
0020
0000
0100
0000
,
0200
0030
0301
1000
,
0002
0000
0010
0000
,
0020
0000
0000
0033
,
2000
0000
0100
0000
,
0200
3300
0220
0330
,
0001
0000
0100
0000
0010
0000
1000
0010
,
1000
0000
0001
0000
0100
0000
0010
0100
,
0010
0000
1000
0000
0100
0000
0001
1000
,
0001
0200
0010
0310
,
0100
0000
1000
0000
0010
0000
1000
0001
,
1000
0000
0010
0000
0001
0000
0100
0001
,
0100
0000
0001
0000
0100
0000
0010
0100
,
0010
0000
0000
0000
1000
0000
0000
2002
0000
0000
0000
0000
0000
0000
0000
0000
,
0000
0000
0000
3003
0000
0000
0000
0000
;

//---------------dance-single - ----------------
#NOTES:
     dance-single:
     :
     Hard:
     10:
     0.341878,0.423206,0.106544,0.377003,0.381101,292.000000,279.000000,13.000000,46.000000,0.000000,0.000000,0.341878,0.423206,0.106544,0.377003,0.381101,292.000000,279.000000,13.000000,46.000000,0.000000,0.000000:
0000
0000
0000
0000
,
0000
0000
0000
0000
,
0000
0000
0000
0000
,
0000
0000
0000
0000
,
0000
0000
0000
0000
,
0000
0020
2030
3200
,
0320
0032
2003
3200
,
2300
0000
0001
0000
0001
0000
3010
0100
,
0010
1000
0001
0100
0010
1000
0100
0000
,
0220
0000
0000
0000
0330
0000
0001
0000
1000
0000
0000
1000
0000
0000
0010
0000
,
0100
0000
0000
0010
0000
0000
1000
0000
0001
0000
0000
0010
0000
0000
0000
0000
,
2000
0000
0000
0000
3000
0000
0001
1000
0001
0000
0000
0010
0000
0000
0100
0000
,
1000
0000
0000
0001
0000
0000
0100
0000
0001
0000
0000
0010
0000
0000
0000
0000
,
0200
0000
0000
0000
0300
0000
1000
0010
1000
0000
0000
0100
0000
0000
1000
0000
,
0010
0000
0000
0001
0000
0000
0010
0000
0100
0000
0000
0010
0000
0000
0000
0000
,
0002
0000
0000
0000
0003
0000
0010
0100
0010
0000
0000
0001
0000
0000
1000
0000
,
0100
0000
0000
1000
0000
0000
0010
0000
0001
0000
0100
0000
0010
0000
1000
0000
,
0020
0100
0001
0130
,
2100
3100
0102
0103
,
2010
0001
0010
3001
,
0100
0000
0000
0010
0000
1000
0000
0010
0000
0000
0000
0100
0000
0000
0010
0000
,
0002
1000
0100
1003
,
1020
1030
1200
1300
,
0120
0001
0100
0031
,
1000
0000
0000
0010
0000
0100
0000
0010
0000
0000
0000
1000
0000
0000
0001
0000
,
0200
0010
0001
0310
,
2000
3100
2000
3020
,
0032
0000
0000
0000
0003
0000
0100
0010
1000
0000
0000
0001
0000
1000
0000
0000
,
0200
0000
0000
0000
0310
0000
0000
0000
1000
0000
0001
0100
0000
0010
0000
0000
,
2010
0100
0001
3100
,
0020
0000
0000
0000
0000
0000
0031
0000
0010
0000
0000
1000
0000
0000
0100
0000
,
1200
0010
1000
0301
,
1001
0000
1001
0000
0100
0010
0000
0220
0000
0000
0000
0000
0330
0000
0000
0000
,
1000
0000
0000
0010
0000
1000
0000
0100
0000
1000
0000
0001
0000
0000
0100
0000
,
0010
0000
0000
0100
0000
0000
0000
0000
0001
0010
0000
0100
0000
0010
0000
1000
,
0000
0000
0000
0001
0000
0000
0001
0000
0100
0000
0000
0010
0000
0000
1000
0000
,
0100
0000
0000
2000
0000
0000
0000
3000
0000
0010
0100
0000
0010
0000
1000
0000
,
0100
0000
0000
0001
0000
0100
0000
0010
0000
1000
0000
0010
0000
0000
0001
0000
,
1000
0000
0000
0100
0000
0000
0000
0000
0010
0100
0000
1000
0000
0001
0000
0010
,
0000
0000
0000
0100
0000
0000
0100
0000
0010
0000
0000
1000
0000
0000
0001
0000
,
0002
0000
0000
0000
1003
0010
0000
0020
0000
0000
0100
0000
0130
0000
0000
0000
,
0002
0010
1000
0100
,
0023
1000
0100
0031
,
2000
0100
0001
0010
,
3200
0000
0000
0000
0001
0000
0000
0000
0310
1000
0010
0000
1000
0001
1000
0000
,
0020
1000
0100
1000
,
0230
0010
0001
0310
,
2000
0100
0010
0100
,
3002
0000
0000
0000
0103
0010
0000
0110
0000
1000
0001
0000
0100
0001
0010
0000
,
0100
0000
0000
1000
0000
0010
0000
1000
0000
0100
0000
0001
0000
0000
1000
0000
,
0001
0000
0000
0010
0000
0000
0000
0000
1000
0100
0000
0010
0000
0100
0000
0001
,
0000
0000
0000
1000
0000
0000
1000
0000
0010
0000
0000
0100
0000
0000
0001
0000
,
0001
0000
0000
0020
0000
0000
0000
0030
0000
1000
0100
0000
1000
0010
1000
0000
,
0001
0000
0000
1000
0000
0010
0000
0100
0000
0001
0000
0100
0000
0000
1000
0000
,
0100
0000
0000
0010
0000
0000
0000
0000
0100
0001
0000
1000
0000
0001
0000
0010
,
0000
0000
0100
0000
0100
0000
0000
0000
1000
0000
0000
0001
0000
0000
0010
0000
,
0100
0000
0000
0010
0000
0001
2000
0200
0000
0000
0000
0000
0000
0000
0000
0000
,
0000
0000
0000
3300
0000
0000
0000
0000
;
